  0
SECTION
  2
HEADER
  9
$ACADVER
  1
AC1015
  9
$ACADMAINTVER
 70
    20
  9
$DWGCODEPAGE
  3
ANSI_1252
  9
$INSBASE
 10
0.0
 20
0.0
 30
0.0
  9
$EXTMIN
 10
0.7729712681873624
 20
14.25056821164777
 30
0.0
  9
$EXTMAX
 10
25.09501166034912
 20
33.18426216154247
 30
0.0
  9
$LIMMIN
 10
0.0
 20
0.0
  9
$LIMMAX
 10
12.0
 20
9.0
  9
$ORTHOMODE
 70
     1
  9
$REGENMODE
 70
     1
  9
$FILLMODE
 70
     1
  9
$QTEXTMODE
 70
     0
  9
$MIRRTEXT
 70
     0
  9
$LTSCALE
 40
1.0
  9
$ATTMODE
 70
     1
  9
$TEXTSIZE
 40
1.0
  9
$TRACEWID
 40
0.05
  9
$TEXTSTYLE
  7
Standard
  9
$CLAYER
  8
Label
  9
$CELTYPE
  6
ByLayer
  9
$CECOLOR
 62
   256
  9
$CELTSCALE
 40
1.0
  9
$DISPSILH
 70
     0
  9
$DIMSCALE
 40
1.0
  9
$DIMASZ
 40
0.125
  9
$DIMEXO
 40
0.0625
  9
$DIMDLI
 40
0.38
  9
$DIMRND
 40
0.0
  9
$DIMDLE
 40
0.0
  9
$DIMEXE
 40
0.18
  9
$DIMTP
 40
0.0
  9
$DIMTM
 40
0.0
  9
$DIMTXT
 40
0.125
  9
$DIMCEN
 40
0.09
  9
$DIMTSZ
 40
0.0
  9
$DIMTOL
 70
     0
  9
$DIMLIM
 70
     0
  9
$DIMTIH
 70
     1
  9
$DIMTOH
 70
     1
  9
$DIMSE1
 70
     0
  9
$DIMSE2
 70
     0
  9
$DIMTAD
 70
     0
  9
$DIMZIN
 70
     0
  9
$DIMBLK
  1

  9
$DIMASO
 70
     1
  9
$DIMSHO
 70
     1
  9
$DIMPOST
  1

  9
$DIMAPOST
  1

  9
$DIMALT
 70
     1
  9
$DIMALTD
 70
     2
  9
$DIMALTF
 40
25.4
  9
$DIMLFAC
 40
1.0
  9
$DIMTOFL
 70
     0
  9
$DIMTVP
 40
0.0
  9
$DIMTIX
 70
     0
  9
$DIMSOXD
 70
     0
  9
$DIMSAH
 70
     0
  9
$DIMBLK1
  1

  9
$DIMBLK2
  1

  9
$DIMSTYLE
  2
Standard
  9
$DIMCLRD
 70
     0
  9
$DIMCLRE
 70
     0
  9
$DIMCLRT
 70
     0
  9
$DIMTFAC
 40
1.0
  9
$DIMGAP
 40
0.09
  9
$DIMJUST
 70
     0
  9
$DIMSD1
 70
     0
  9
$DIMSD2
 70
     0
  9
$DIMTOLJ
 70
     1
  9
$DIMTZIN
 70
     0
  9
$DIMALTZ
 70
     0
  9
$DIMALTTZ
 70
     0
  9
$DIMUPT
 70
     1
  9
$DIMDEC
 70
     3
  9
$DIMTDEC
 70
     3
  9
$DIMALTU
 70
     2
  9
$DIMALTTD
 70
     2
  9
$DIMTXSTY
  7
Standard
  9
$DIMAUNIT
 70
     0
  9
$DIMADEC
 70
     0
  9
$DIMALTRND
 40
0.0
  9
$DIMAZIN
 70
     0
  9
$DIMDSEP
 70
    46
  9
$DIMATFIT
 70
     3
  9
$DIMFRAC
 70
     0
  9
$DIMLDRBLK
  1

  9
$DIMLUNIT
 70
     2
  9
$DIMLWD
 70
    -2
  9
$DIMLWE
 70
    -2
  9
$DIMTMOVE
 70
     0
  9
$LUNITS
 70
     2
  9
$LUPREC
 70
     4
  9
$SKETCHINC
 40
0.1
  9
$FILLETRAD
 40
0.076
  9
$AUNITS
 70
     0
  9
$AUPREC
 70
     0
  9
$MENU
  1
.
  9
$ELEVATION
 40
0.0
  9
$PELEVATION
 40
0.0
  9
$THICKNESS
 40
0.0
  9
$LIMCHECK
 70
     0
  9
$CHAMFERA
 40
0.0
  9
$CHAMFERB
 40
0.0
  9
$CHAMFERC
 40
0.0
  9
$CHAMFERD
 40
0.0
  9
$SKPOLY
 70
     0
  9
$TDCREATE
 40
2455580.464364746
  9
$TDUCREATE
 40
2455580.631031412
  9
$TDUPDATE
 40
2458248.387162222
  9
$TDUUPDATE
 40
2458248.553828889
  9
$TDINDWG
 40
0.7502285532
  9
$TDUSRTIMER
 40
0.7502285532
  9
$USRTIMER
 70
     1
  9
$ANGBASE
 50
0.0
  9
$ANGDIR
 70
     0
  9
$PDMODE
 70
     0
  9
$PDSIZE
 40
0.0
  9
$PLINEWID
 40
0.0
  9
$SPLFRAME
 70
     0
  9
$SPLINETYPE
 70
     6
  9
$SPLINESEGS
 70
     8
  9
$HANDSEED
  5
4954
  9
$SURFTAB1
 70
     6
  9
$SURFTAB2
 70
     6
  9
$SURFTYPE
 70
     6
  9
$SURFU
 70
     6
  9
$SURFV
 70
     6
  9
$UCSBASE
  2

  9
$UCSNAME
  2

  9
$UCSORG
 10
0.0
 20
0.0
 30
0.0
  9
$UCSXDIR
 10
1.0
 20
0.0
 30
0.0
  9
$UCSYDIR
 10
0.0
 20
1.0
 30
0.0
  9
$UCSORTHOREF
  2

  9
$UCSORTHOVIEW
 70
     0
  9
$UCSORGTOP
 10
0.0
 20
0.0
 30
0.0
  9
$UCSORGBOTTOM
 10
0.0
 20
0.0
 30
0.0
  9
$UCSORGLEFT
 10
0.0
 20
0.0
 30
0.0
  9
$UCSORGRIGHT
 10
0.0
 20
0.0
 30
0.0
  9
$UCSORGFRONT
 10
0.0
 20
0.0
 30
0.0
  9
$UCSORGBACK
 10
0.0
 20
0.0
 30
0.0
  9
$PUCSBASE
  2

  9
$PUCSNAME
  2

  9
$PUCSORG
 10
0.0
 20
0.0
 30
0.0
  9
$PUCSXDIR
 10
1.0
 20
0.0
 30
0.0
  9
$PUCSYDIR
 10
0.0
 20
1.0
 30
0.0
  9
$PUCSORTHOREF
  2

  9
$PUCSORTHOVIEW
 70
     0
  9
$PUCSORGTOP
 10
0.0
 20
0.0
 30
0.0
  9
$PUCSORGBOTTOM
 10
0.0
 20
0.0
 30
0.0
  9
$PUCSORGLEFT
 10
0.0
 20
0.0
 30
0.0
  9
$PUCSORGRIGHT
 10
0.0
 20
0.0
 30
0.0
  9
$PUCSORGFRONT
 10
0.0
 20
0.0
 30
0.0
  9
$PUCSORGBACK
 10
0.0
 20
0.0
 30
0.0
  9
$USERI1
 70
     0
  9
$USERI2
 70
     0
  9
$USERI3
 70
     0
  9
$USERI4
 70
     0
  9
$USERI5
 70
     0
  9
$USERR1
 40
0.0
  9
$USERR2
 40
0.0
  9
$USERR3
 40
0.0
  9
$USERR4
 40
0.0
  9
$USERR5
 40
0.0
  9
$WORLDVIEW
 70
     1
  9
$SHADEDGE
 70
     3
  9
$SHADEDIF
 70
    70
  9
$TILEMODE
 70
     1
  9
$MAXACTVP
 70
    64
  9
$PINSBASE
 10
0.0
 20
0.0
 30
0.0
  9
$PLIMCHECK
 70
     0
  9
$PEXTMIN
 10
0.0
 20
0.0
 30
0.0
  9
$PEXTMAX
 10
0.0
 20
0.0
 30
0.0
  9
$PLIMMIN
 10
0.0
 20
0.0
  9
$PLIMMAX
 10
12.0
 20
9.0
  9
$UNITMODE
 70
     0
  9
$VISRETAIN
 70
     1
  9
$PLINEGEN
 70
     0
  9
$PSLTSCALE
 70
     1
  9
$TREEDEPTH
 70
  3020
  9
$CMLSTYLE
  2
Standard
  9
$CMLJUST
 70
     0
  9
$CMLSCALE
 40
1.0
  9
$PROXYGRAPHICS
 70
     1
  9
$MEASUREMENT
 70
     0
  9
$CELWEIGHT
370
    -1
  9
$ENDCAPS
280
     0
  9
$JOINSTYLE
280
     0
  9
$LWDISPLAY
290
     0
  9
$INSUNITS
 70
     1
  9
$HYPERLINKBASE
  1

  9
$STYLESHEET
  1

  9
$XEDIT
290
     1
  9
$CEPSNTYPE
380
     0
  9
$PSTYLEMODE
290
     1
  9
$FINGERPRINTGUID
  2
{FDEAD576-A652-11D2-9A35-0060089B3A3F}
  9
$VERSIONGUID
  2
{7CB53320-3BE3-4573-80E2-172FE6F7A3D6}
  9
$EXTNAMES
290
     1
  9
$PSVPSCALE
 40
0.0
  9
$OLESTARTUP
290
     0
  0
ENDSEC
  0
SECTION
  2
CLASSES
  0
CLASS
  1
ACDBDICTIONARYWDFLT
  2
AcDbDictionaryWithDefault
  3
ObjectDBX Classes
 90
        0
280
     0
281
     0
  0
CLASS
  1
ACDBPLACEHOLDER
  2
AcDbPlaceHolder
  3
ObjectDBX Classes
 90
        0
280
     0
281
     0
  0
CLASS
  1
LAYOUT
  2
AcDbLayout
  3
ObjectDBX Classes
 90
        0
280
     0
281
     0
  0
CLASS
  1
DICTIONARYVAR
  2
AcDbDictionaryVar
  3
ObjectDBX Classes
 90
        0
280
     0
281
     0
  0
CLASS
  1
DIMASSOC
  2
AcDbDimAssoc
  3
"AcDbDimAssoc|Product Desc:     AcDim ARX App For Dimension|Company:          Autodesk, Inc.|WEB Address:      www.autodesk.com"
 90
        0
280
     0
281
     0
  0
CLASS
  1
MATERIAL
  2
AcDbMaterial
  3
ObjectDBX Classes
 90
     1153
280
     0
281
     0
  0
CLASS
  1
VISUALSTYLE
  2
AcDbVisualStyle
  3
ObjectDBX Classes
 90
     4095
280
     0
281
     0
  0
CLASS
  1
TABLESTYLE
  2
AcDbTableStyle
  3
ObjectDBX Classes
 90
     4095
280
     0
281
     0
  0
CLASS
  1
SCALE
  2
AcDbScale
  3
ObjectDBX Classes
 90
     1153
280
     0
281
     0
  0
CLASS
  1
MLEADERSTYLE
  2
AcDbMLeaderStyle
  3
ACDB_MLEADERSTYLE_CLASS
 90
     4095
280
     0
281
     0
  0
CLASS
  1
ACDBSECTIONVIEWSTYLE
  2
AcDbSectionViewStyle
  3
ObjectDBX Classes
 90
     1025
280
     0
281
     0
  0
CLASS
  1
ACDBDETAILVIEWSTYLE
  2
AcDbDetailViewStyle
  3
ObjectDBX Classes
 90
     1025
280
     0
281
     0
  0
CLASS
  1
SORTENTSTABLE
  2
AcDbSortentsTable
  3
ObjectDBX Classes
 90
        0
280
     0
281
     0
  0
CLASS
  1
ACARRAYJIGENTITY
  2
AcArrayJigEntity
  3
ACAD_ARRAY
 90
    32897
280
     0
281
     1
  0
CLASS
  1
ACDBASSOCNETWORK
  2
AcDbAssocNetwork
  3
ObjectDBX Classes
 90
    33793
280
     0
281
     0
  0
CLASS
  1
ACDBASSOCACTION
  2
AcDbAssocAction
  3
ObjectDBX Classes
 90
    33793
280
     0
281
     0
  0
CLASS
  1
ACDBASSOCARRAYACTIONBODY
  2
AcDbAssocArrayActionBody
  3
ObjectDBX Classes
 90
    33793
280
     0
281
     0
  0
CLASS
  1
ACDBASSOCVERTEXACTIONPARAM
  2
AcDbAssocVertexActionParam
  3
ObjectDBX Classes
 90
    33793
280
     0
281
     0
  0
CLASS
  1
ACDBASSOCDEPENDENCY
  2
AcDbAssocDependency
  3
ObjectDBX Classes
 90
    33793
280
     0
281
     0
  0
CLASS
  1
ACDBASSOCARRAYRECTANGULARPARAMETERS
  2
AcDbAssocArrayRectangularParameters
  3
ObjectDBX Classes
 90
    33793
280
     0
281
     0
  0
CLASS
  1
MULTILEADER
  2
AcDbMLeader
  3
ACDB_MLEADER_CLASS
 90
     1025
280
     0
281
     1
  0
CLASS
  1
ACAD_TABLE
  2
AcDbTable
  3
ObjectDBX Classes
 90
     1025
280
     0
281
     1
  0
CLASS
  1
CELLSTYLEMAP
  2
AcDbCellStyleMap
  3
ObjectDBX Classes
 90
     1152
280
     0
281
     0
  0
CLASS
  1
ACDBDATATABLE
  2
AcDbDataTable
  3
AcMapAnnotObj|Product Desc:     AutoCAD MAP DBX App for Annotation Entity|Company:          Autodesk,Inc.|WEB Address:      www.autodesk.com
 90
        0
280
     0
281
     0
  0
ENDSEC
  0
SECTION
  2
TABLES
  0
TABLE
  2
VPORT
  5
8
330
0
100
AcDbSymbolTable
 70
     1
  0
VPORT
  5
2812
330
8
100
AcDbSymbolTableRecord
100
AcDbViewportTableRecord
  2
*Active
 70
     0
 10
0.0
 20
0.0
 11
1.0
 21
1.0
 12
23.78087409215077
 22
23.754212126366
 13
0.0
 23
0.0
 14
0.5
 24
0.5
 15
0.5
 25
0.5
 16
0.0
 26
0.0
 36
1.0
 17
0.0
 27
0.0
 37
0.0
 40
23.46919862024762
 41
2.136
 42
50.0
 43
0.0
 44
0.0
 50
0.0
 51
0.0
 71
     0
 72
  1000
 73
     1
 74
     2
 75
     0
 76
     0
 77
     0
 78
     0
281
     0
 65
     1
110
0.0
120
0.0
130
0.0
111
1.0
121
0.0
131
0.0
112
0.0
122
1.0
132
0.0
 79
     0
146
0.0
1001
ACAD_NAV_VCDISPLAY
1070
     3
  0
ENDTAB
  0
TABLE
  2
LTYPE
  5
5
330
0
100
AcDbSymbolTable
 70
     2
  0
LTYPE
  5
14
330
5
100
AcDbSymbolTableRecord
100
AcDbLinetypeTableRecord
  2
ByBlock
 70
     0
  3

 72
    65
 73
     0
 40
0.0
  0
LTYPE
  5
15
330
5
100
AcDbSymbolTableRecord
100
AcDbLinetypeTableRecord
  2
ByLayer
 70
     0
  3

 72
    65
 73
     0
 40
0.0
  0
LTYPE
  5
16
330
5
100
AcDbSymbolTableRecord
100
AcDbLinetypeTableRecord
  2
Continuous
 70
     0
  3
Solid line
 72
    65
 73
     0
 40
0.0
  0
LTYPE
  5
285C
330
5
100
AcDbSymbolTableRecord
100
AcDbLinetypeTableRecord
  2
PHANTOM2
 70
     0
  3
___ _ _ ___ _ _ ___ _ _ ___ _ _
 72
    65
 73
     6
 40
1.25
 49
0.625
 74
     0
 49
-0.125
 74
     0
 49
0.125
 74
     0
 49
-0.125
 74
     0
 49
0.125
 74
     0
 49
-0.125
 74
     0
  0
ENDTAB
  0
TABLE
  2
LAYER
  5
2
102
{ACAD_XDICTIONARY
360
2A48
102
}
330
0
100
AcDbSymbolTable
 70
    15
  0
LAYER
  5
10
102
{ACAD_XDICTIONARY
360
3553
102
}
330
2
100
AcDbSymbolTableRecord
100
AcDbLayerTableRecord
  2
0
 70
     0
 62
     7
  6
Continuous
370
    -3
390
F
  0
LAYER
  5
89
102
{ACAD_XDICTIONARY
360
3555
102
}
330
2
100
AcDbSymbolTableRecord
100
AcDbLayerTableRecord
  2
Frame
 70
     0
 62
     7
  6
Continuous
370
    -3
390
F
  0
LAYER
  5
FB
102
{ACAD_XDICTIONARY
360
3557
102
}
330
2
100
AcDbSymbolTableRecord
100
AcDbLayerTableRecord
  2
Frame Text
 70
     0
 62
     1
  6
Continuous
370
    -3
390
F
  0
LAYER
  5
1B4
330
2
100
AcDbSymbolTableRecord
100
AcDbLayerTableRecord
  2
Defpoints
 70
     0
 62
     7
  6
Continuous
290
     0
370
    -3
390
F
  0
LAYER
  5
2EF
102
{ACAD_XDICTIONARY
360
3559
102
}
330
2
100
AcDbSymbolTableRecord
100
AcDbLayerTableRecord
  2
Dimensions
 70
     0
 62
     1
  6
Continuous
370
    -3
390
F
  0
LAYER
  5
3BC
102
{ACAD_XDICTIONARY
360
355B
102
}
330
2
100
AcDbSymbolTableRecord
100
AcDbLayerTableRecord
  2
Converter
 70
     0
 62
     7
  6
Continuous
370
    -3
390
F
  0
LAYER
  5
608
102
{ACAD_XDICTIONARY
360
355D
102
}
330
2
100
AcDbSymbolTableRecord
100
AcDbLayerTableRecord
  2
Grid
 70
     0
 62
     7
  6
Continuous
370
    -3
390
F
  0
LAYER
  5
609
102
{ACAD_XDICTIONARY
360
355F
102
}
330
2
100
AcDbSymbolTableRecord
100
AcDbLayerTableRecord
  2
PinOut
 70
     0
 62
     1
  6
Continuous
370
    -3
390
F
  0
LAYER
  5
EBF
102
{ACAD_XDICTIONARY
360
3561
102
}
330
2
100
AcDbSymbolTableRecord
100
AcDbLayerTableRecord
  2
Hardware
 70
     0
 62
   250
  6
PHANTOM2
370
    -3
390
F
  0
LAYER
  5
17A0
102
{ACAD_XDICTIONARY
360
3563
102
}
330
2
100
AcDbSymbolTableRecord
100
AcDbLayerTableRecord
  2
Terminal Blocks
 70
     0
 62
     3
  6
Continuous
370
    -3
390
F
  0
LAYER
  5
19D4
102
{ACAD_XDICTIONARY
360
3565
102
}
330
2
100
AcDbSymbolTableRecord
100
AcDbLayerTableRecord
  2
Terminals
 70
     0
 62
     3
  6
Continuous
370
    -3
390
F
  0
LAYER
  5
2A45
102
{ACAD_XDICTIONARY
360
2A46
102
}
330
2
100
AcDbSymbolTableRecord
100
AcDbLayerTableRecord
  2
TopSilk
 70
     0
 62
     7
  6
Continuous
370
    -3
390
F
  0
LAYER
  5
383D
102
{ACAD_XDICTIONARY
360
383E
102
}
330
2
100
AcDbSymbolTableRecord
100
AcDbLayerTableRecord
  2
Construction
 70
     0
 62
   141
  6
Continuous
370
    -3
390
F
1001
AcAecLayerStandard
1000

1000

1001
AcCmTransparency
1071
        0
  0
LAYER
  5
413A
102
{ACAD_XDICTIONARY
360
413B
102
}
330
2
100
AcDbSymbolTableRecord
100
AcDbLayerTableRecord
  2
Label
 70
     0
 62
     7
  6
Continuous
370
    -3
390
F
  0
LAYER
  5
418F
330
2
100
AcDbSymbolTableRecord
100
AcDbLayerTableRecord
  2
Layer 1
 70
     0
 62
     7
  6
Continuous
370
    -3
390
F
  0
ENDTAB
  0
TABLE
  2
STYLE
  5
3
330
0
100
AcDbSymbolTable
 70
     2
  0
STYLE
  5
11
330
3
100
AcDbSymbolTableRecord
100
AcDbTextStyleTableRecord
  2
Standard
 70
     0
 40
0.0
 41
1.0
 50
0.0
 71
     0
 42
1.0
  3
times.ttf
  4

1001
ACAD
1000
Times New Roman
1071
       18
  0
STYLE
  5
4441
330
3
100
AcDbSymbolTableRecord
100
AcDbTextStyleTableRecord
  2
header
 70
     0
 40
0.0
 41
1.0
 50
0.0
 71
     0
 42
1.0
  3
arialbd.ttf
  4

1001
ACAD
1000
Arial
1071
 33554466
  0
ENDTAB
  0
TABLE
  2
VIEW
  5
6
330
0
100
AcDbSymbolTable
 70
     0
  0
ENDTAB
  0
TABLE
  2
UCS
  5
7
330
0
100
AcDbSymbolTable
 70
     0
  0
ENDTAB
  0
TABLE
  2
APPID
  5
9
330
0
100
AcDbSymbolTable
 70
    14
  0
APPID
  5
12
330
9
100
AcDbSymbolTableRecord
100
AcDbRegAppTableRecord
  2
ACAD
 70
     0
  0
APPID
  5
3B9
330
9
100
AcDbSymbolTableRecord
100
AcDbRegAppTableRecord
  2
DCO15
 70
     0
  0
APPID
  5
2A47
330
9
100
AcDbSymbolTableRecord
100
AcDbRegAppTableRecord
  2
ACAD_NAV_VCDISPLAY
 70
     0
  0
APPID
  5
3608
330
9
100
AcDbSymbolTableRecord
100
AcDbRegAppTableRecord
  2
ACAD_DSTYLE_DIMJAG
 70
     0
  0
APPID
  5
3609
330
9
100
AcDbSymbolTableRecord
100
AcDbRegAppTableRecord
  2
ACAD_DSTYLE_DIMTALN
 70
     0
  0
APPID
  5
383F
330
9
100
AcDbSymbolTableRecord
100
AcDbRegAppTableRecord
  2
AcAecLayerStandard
 70
     0
  0
APPID
  5
3840
330
9
100
AcDbSymbolTableRecord
100
AcDbRegAppTableRecord
  2
AcCmTransparency
 70
     0
  0
APPID
  5
38C9
330
9
100
AcDbSymbolTableRecord
100
AcDbRegAppTableRecord
  2
ACAD_EXEMPT_FROM_CAD_STANDARDS
 70
     0
  0
APPID
  5
413C
330
9
100
AcDbSymbolTableRecord
100
AcDbRegAppTableRecord
  2
GradientColor1ACI
 70
     0
  0
APPID
  5
413D
330
9
100
AcDbSymbolTableRecord
100
AcDbRegAppTableRecord
  2
GradientColor2ACI
 70
     0
  0
APPID
  5
413E
330
9
100
AcDbSymbolTableRecord
100
AcDbRegAppTableRecord
  2
ACAD_PSEXT
 70
     0
  0
APPID
  5
4810
330
9
100
AcDbSymbolTableRecord
100
AcDbRegAppTableRecord
  2
ACAD_DSTYLE_DIMRADIAL_EXTENSION
 70
     0
  0
APPID
  5
482F
330
9
100
AcDbSymbolTableRecord
100
AcDbRegAppTableRecord
  2
AcadAnnoMonitorAlertIconDisabled
 70
     0
  0
APPID
  5
4935
330
9
100
AcDbSymbolTableRecord
100
AcDbRegAppTableRecord
  2
ACAD_MLEADERVER
 70
     0
  0
ENDTAB
  0
TABLE
  2
DIMSTYLE
  5
A
330
0
100
AcDbSymbolTable
 70
     1
100
AcDbDimStyleTable
 71
     1
340
27
  0
DIMSTYLE
105
27
102
{ACAD_REACTORS
330
465F
330
4662
330
4665
330
4668
330
466B
330
466E
330
4671
330
4675
330
46B5
330
46CC
330
45AA
330
45B4
330
45B7
330
45B8
330
4811
102
}
330
A
100
AcDbSymbolTableRecord
100
AcDbDimStyleTableRecord
  2
Standard
 70
     0
 41
0.125
140
0.125
170
     1
271
     3
272
     3
288
     1
340
11
1001
ACAD_DSTYLE_DIMJAG
1070
   388
1040
1.5
1001
ACAD_DSTYLE_DIMTALN
1070
   392
1070
     0
  0
ENDTAB
  0
TABLE
  2
BLOCK_RECORD
  5
1
330
0
100
AcDbSymbolTable
 70
    20
  0
BLOCK_RECORD
  5
1F
102
{ACAD_XDICTIONARY
360
3BAF
102
}
330
1
100
AcDbSymbolTableRecord
100
AcDbBlockTableRecord
  2
*Model_Space
340
22
  0
BLOCK_RECORD
  5
58
330
1
100
AcDbSymbolTableRecord
100
AcDbBlockTableRecord
  2
*Paper_Space
340
59
  0
BLOCK_RECORD
  5
5D
330
1
100
AcDbSymbolTableRecord
100
AcDbBlockTableRecord
  2
*Paper_Space0
340
5E
  0
BLOCK_RECORD
  5
116
330
1
100
AcDbSymbolTableRecord
100
AcDbBlockTableRecord
  2
A$C22C92D23
340
0
  0
BLOCK_RECORD
  5
5E8
330
1
100
AcDbSymbolTableRecord
100
AcDbBlockTableRecord
  2
A$C5BC8728C
340
0
  0
BLOCK_RECORD
  5
60D
330
1
100
AcDbSymbolTableRecord
100
AcDbBlockTableRecord
  2
A$C62316909
340
0
  0
BLOCK_RECORD
  5
46DC
330
1
100
AcDbSymbolTableRecord
100
AcDbBlockTableRecord
  2
*D4
340
0
  0
BLOCK_RECORD
  5
46E9
330
1
100
AcDbSymbolTableRecord
100
AcDbBlockTableRecord
  2
*D5
340
0
  0
BLOCK_RECORD
  5
46F7
330
1
100
AcDbSymbolTableRecord
100
AcDbBlockTableRecord
  2
*T6
340
0
102
{BLKREFS
331
46CD
102
}
  0
BLOCK_RECORD
  5
471A
330
1
100
AcDbSymbolTableRecord
100
AcDbBlockTableRecord
  2
*D7
340
0
  0
BLOCK_RECORD
  5
4727
330
1
100
AcDbSymbolTableRecord
100
AcDbBlockTableRecord
  2
*D8
340
0
  0
BLOCK_RECORD
  5
4734
330
1
100
AcDbSymbolTableRecord
100
AcDbBlockTableRecord
  2
*D9
340
0
  0
BLOCK_RECORD
  5
4741
330
1
100
AcDbSymbolTableRecord
100
AcDbBlockTableRecord
  2
*D10
340
0
  0
BLOCK_RECORD
  5
474E
330
1
100
AcDbSymbolTableRecord
100
AcDbBlockTableRecord
  2
*D11
340
0
  0
BLOCK_RECORD
  5
475B
330
1
100
AcDbSymbolTableRecord
100
AcDbBlockTableRecord
  2
*D12
340
0
  0
BLOCK_RECORD
  5
4769
330
1
100
AcDbSymbolTableRecord
100
AcDbBlockTableRecord
  2
*D13
340
0
  0
BLOCK_RECORD
  5
4776
330
1
100
AcDbSymbolTableRecord
100
AcDbBlockTableRecord
  2
*D14
340
0
  0
BLOCK_RECORD
  5
478D
330
1
100
AcDbSymbolTableRecord
100
AcDbBlockTableRecord
  2
*D15
340
0
  0
BLOCK_RECORD
  5
479B
330
1
100
AcDbSymbolTableRecord
100
AcDbBlockTableRecord
  2
*D16
340
0
  0
BLOCK_RECORD
  5
47BE
330
1
100
AcDbSymbolTableRecord
100
AcDbBlockTableRecord
  2
*D17
340
0
  0
BLOCK_RECORD
  5
47D5
330
1
100
AcDbSymbolTableRecord
100
AcDbBlockTableRecord
  2
*D18
340
0
  0
BLOCK_RECORD
  5
4812
330
1
100
AcDbSymbolTableRecord
100
AcDbBlockTableRecord
  2
*D19
340
0
  0
ENDTAB
  0
ENDSEC
  0
SECTION
  2
BLOCKS
  0
BLOCK
  5
20
330
1F
100
AcDbEntity
  8
0
100
AcDbBlockBegin
  2
*Model_Space
 70
     0
 10
0.0
 20
0.0
 30
0.0
  3
*Model_Space
  1

  0
ENDBLK
  5
21
330
1F
100
AcDbEntity
  8
0
100
AcDbBlockEnd
  0
BLOCK
  5
5A
330
58
100
AcDbEntity
 67
     1
  8
0
100
AcDbBlockBegin
  2
*Paper_Space
 70
     0
 10
0.0
 20
0.0
 30
0.0
  3
*Paper_Space
  1

  0
ENDBLK
  5
5B
330
58
100
AcDbEntity
 67
     1
  8
0
100
AcDbBlockEnd
  0
BLOCK
  5
5F
330
5D
100
AcDbEntity
 67
     1
  8
0
100
AcDbBlockBegin
  2
*Paper_Space0
 70
     0
 10
0.0
 20
0.0
 30
0.0
  3
*Paper_Space0
  1

  0
ENDBLK
  5
60
330
5D
100
AcDbEntity
 67
     1
  8
0
100
AcDbBlockEnd
  0
BLOCK
  5
118
330
116
100
AcDbEntity
  8
0
100
AcDbBlockBegin
  2
A$C22C92D23
 70
     0
 10
0.0
 20
0.0
 30
0.0
  3
A$C22C92D23
  1

  0
TEXT
  5
117
330
116
100
AcDbEntity
  8
Frame Text
100
AcDbText
 10
-0.0000000000000284
 20
0.0416666867809426
 30
0.0
 40
0.125
  1
Dimensional Drawing
100
AcDbText
  0
ENDBLK
  5
119
330
116
100
AcDbEntity
  8
0
100
AcDbBlockEnd
  0
BLOCK
  5
5EA
330
5E8
100
AcDbEntity
  8
0
100
AcDbBlockBegin
  2
A$C5BC8728C
 70
     0
 10
0.0
 20
0.0
 30
0.0
  3
A$C5BC8728C
  1

  0
TEXT
  5
5E9
330
5E8
100
AcDbEntity
  8
Frame Text
100
AcDbText
 10
-0.0000000086647987
 20
-0.0000000014337491
 30
0.0
 40
0.05
  1
CDL    03/05
100
AcDbText
  0
ENDBLK
  5
5EB
330
5E8
100
AcDbEntity
  8
0
100
AcDbBlockEnd
  0
BLOCK
  5
60F
330
60D
100
AcDbEntity
  8
0
100
AcDbBlockBegin
  2
A$C62316909
 70
     0
 10
0.0
 20
0.0
 30
0.0
  3
A$C62316909
  1

  0
MTEXT
  5
60E
330
60D
100
AcDbEntity
  8
PinOut
100
AcDbMText
 10
0.0000000234943833
 20
0.1249999961378876
 30
0.0
 40
0.125
 41
0.0
 71
     1
 72
     1
  1
PIN #
 73
     1
 44
1.0
1001
ACAD
1000
MTEXTBEGIN
1070
    73
1070
     1
1070
    44
1040
1.0
1070
    74
1070
     0
1000
MTEXTEND
  0
ENDBLK
  5
610
330
60D
100
AcDbEntity
  8
0
100
AcDbBlockEnd
  0
BLOCK
  5
46DD
330
46DC
100
AcDbEntity
  8
0
100
AcDbBlockBegin
  2
*D4
 70
     1
 10
0.0
 20
0.0
 30
0.0
  3
*D4
  1

  0
LINE
  5
4783
330
46DC
100
AcDbEntity
  8
Dimensions
 62
     0
370
    -2
100
AcDbLine
 10
15.19184103907152
 20
30.3825193834431
 30
0.0
 11
17.6522460815109
 21
30.3825193834431
 31
0.0
  0
LINE
  5
4784
330
46DC
100
AcDbEntity
  8
Dimensions
 62
     0
370
    -2
100
AcDbLine
 10
15.19234103907153
 20
28.2725193834431
 30
0.0
 11
17.6522460815109
 21
28.2725193834431
 31
0.0
  0
LINE
  5
4785
330
46DC
100
AcDbEntity
  8
Dimensions
 62
     0
370
    -2
100
AcDbLine
 10
17.4722460815109
 20
30.2575193834431
 30
0.0
 11
17.4722460815109
 21
29.7378011930814
 31
0.0
  0
LINE
  5
4786
330
46DC
100
AcDbEntity
  8
Dimensions
 62
     0
370
    -2
100
AcDbLine
 10
17.4722460815109
 20
28.3975193834431
 30
0.0
 11
17.4722460815109
 21
29.39612130843828
 31
0.0
  0
SOLID
  5
4787
330
46DC
100
AcDbEntity
  8
Dimensions
 62
     0
100
AcDbTrace
 10
17.45141274817757
 20
30.2575193834431
 30
0.0
 11
17.49307941484423
 21
30.2575193834431
 31
0.0
 12
17.4722460815109
 22
30.3825193834431
 32
0.0
 13
17.4722460815109
 23
30.3825193834431
 33
0.0
  0
SOLID
  5
4788
330
46DC
100
AcDbEntity
  8
Dimensions
 62
     0
100
AcDbTrace
 10
17.45141274817757
 20
28.3975193834431
 30
0.0
 11
17.49307941484423
 21
28.3975193834431
 31
0.0
 12
17.4722460815109
 22
28.2725193834431
 32
0.0
 13
17.4722460815109
 23
28.2725193834431
 33
0.0
  0
MTEXT
  5
4789
330
46DC
100
AcDbEntity
  8
Dimensions
 62
     0
100
AcDbMText
 10
17.47224608151089
 20
29.56696125075985
 30
0.0
 40
0.125
 41
0.0
 71
     5
 72
     1
  1
\A1;2.110 [53.59]
 73
     1
 44
1.0
1001
ACAD
1000
MTEXTBEGIN
1070
    73
1070
     1
1070
    44
1040
1.0
1070
    74
1070
     0
1000
MTEXTEND
  0
POINT
  5
478A
330
46DC
100
AcDbEntity
  8
Defpoints
 62
     0
100
AcDbPoint
 10
15.12934103907152
 20
30.3825193834431
 30
0.0
  0
POINT
  5
478B
330
46DC
100
AcDbEntity
  8
Defpoints
 62
     0
100
AcDbPoint
 10
15.12984103907152
 20
28.2725193834431
 30
0.0
  0
POINT
  5
478C
330
46DC
100
AcDbEntity
  8
Defpoints
 62
     0
100
AcDbPoint
 10
17.4722460815109
 20
28.2725193834431
 30
0.0
  0
ENDBLK
  5
46DE
330
46DC
100
AcDbEntity
  8
0
100
AcDbBlockEnd
  0
BLOCK
  5
46EA
330
46E9
100
AcDbEntity
  8
0
100
AcDbBlockBegin
  2
*D5
 70
     1
 10
0.0
 20
0.0
 30
0.0
  3
*D5
  1

  0
LINE
  5
47A9
330
46E9
100
AcDbEntity
  8
Dimensions
 62
     0
370
    -2
100
AcDbLine
 10
7.496204842360162
 20
22.58167807691139
 30
0.0
 11
8.067919077771298
 21
22.58167807691139
 31
0.0
  0
LINE
  5
47AA
330
46E9
100
AcDbEntity
  8
Dimensions
 62
     0
370
    -2
100
AcDbLine
 10
6.294704842360157
 20
22.8816780769114
 30
0.0
 11
8.067919077771298
 21
22.8816780769114
 31
0.0
  0
LINE
  5
47AB
330
46E9
100
AcDbEntity
  8
Dimensions
 62
     0
370
    -2
100
AcDbLine
 10
7.887919077771298
 20
23.0066780769114
 30
0.0
 11
7.887919077771298
 21
23.1316780769114
 31
0.0
  0
LINE
  5
47AC
330
46E9
100
AcDbEntity
  8
Dimensions
 62
     0
370
    -2
100
AcDbLine
 10
7.887919077771298
 20
22.45667807691139
 30
0.0
 11
7.887919077771298
 21
22.33167807691138
 31
0.0
  0
LINE
  5
47AD
330
46E9
100
AcDbEntity
  8
Dimensions
 62
     0
370
    -2
100
AcDbLine
 10
7.887919077771298
 20
22.33167807691138
 30
0.0
 11
7.762919077771298
 21
22.33167807691138
 31
0.0
  0
SOLID
  5
47AE
330
46E9
100
AcDbEntity
  8
Dimensions
 62
     0
100
AcDbTrace
 10
7.867085744437965
 20
23.0066780769114
 30
0.0
 11
7.908752411104631
 21
23.0066780769114
 31
0.0
 12
7.887919077771298
 22
22.8816780769114
 32
0.0
 13
7.887919077771298
 23
22.8816780769114
 33
0.0
  0
SOLID
  5
47AF
330
46E9
100
AcDbEntity
  8
Dimensions
 62
     0
100
AcDbTrace
 10
7.867085744437965
 20
22.45667807691139
 30
0.0
 11
7.908752411104631
 21
22.45667807691139
 31
0.0
 12
7.887919077771298
 22
22.58167807691139
 32
0.0
 13
7.887919077771298
 23
22.58167807691139
 33
0.0
  0
MTEXT
  5
47B0
330
46E9
100
AcDbEntity
  8
Dimensions
 62
     0
100
AcDbMText
 10
6.823153396444691
 20
22.33167807691138
 30
0.0
 40
0.125
 41
0.0
 71
     5
 72
     1
  1
\A1;0.300 [7.62] REF Only
 73
     1
 44
1.0
1001
ACAD
1000
MTEXTBEGIN
1070
    73
1070
     1
1070
    44
1040
1.0
1070
    74
1070
     0
1000
MTEXTEND
  0
POINT
  5
47B1
330
46E9
100
AcDbEntity
  8
Defpoints
 62
     0
100
AcDbPoint
 10
7.433704842360162
 20
22.58167807691139
 30
0.0
  0
POINT
  5
47B2
330
46E9
100
AcDbEntity
  8
Defpoints
 62
     0
100
AcDbPoint
 10
6.232204842360157
 20
22.8816780769114
 30
0.0
  0
POINT
  5
47B3
330
46E9
100
AcDbEntity
  8
Defpoints
 62
     0
100
AcDbPoint
 10
7.887919077771298
 20
22.8816780769114
 30
0.0
  0
ENDBLK
  5
46EB
330
46E9
100
AcDbEntity
  8
0
100
AcDbBlockEnd
  0
BLOCK
  5
4718
330
46F7
100
AcDbEntity
  8
0
100
AcDbBlockBegin
  2
*T6
 70
     1
 10
0.0
 20
0.0
 30
0.0
  3
*T6
  1

  0
MTEXT
  5
46F8
330
46F7
100
AcDbEntity
  8
Dimensions
 62
     0
100
AcDbMText
 10
0.5
 20
-0.3753477419386471
 30
0.0
 40
0.3
 41
0.88
 71
     5
 72
     5
  1
#
 73
     1
 44
1.0
1001
ACAD
1000
MTEXTBEGIN
1070
    73
1070
     1
1070
    44
1040
1.0
1070
    74
1070
     0
1000
MTEXTEND
  0
MTEXT
  5
46F9
330
46F7
100
AcDbEntity
  8
Dimensions
 62
     0
100
AcDbMText
 10
3.171194971297651
 20
-0.3753477419386471
 30
0.0
 40
0.3
 41
4.222389942595303
 71
     5
 72
     5
  1
FUNCTION
 73
     1
 44
1.0
1001
ACAD
1000
MTEXTBEGIN
1070
    73
1070
     1
1070
    44
1040
1.0
1070
    74
1070
     0
1000
MTEXTEND
  0
MTEXT
  5
46FA
330
46F7
100
AcDbEntity
  8
Dimensions
 62
     0
100
AcDbMText
 10
0.5
 20
-0.8106954838772928
 30
0.0
 40
0.18
 41
0.88
 71
     2
 72
     5
  1
1
 73
     1
 44
1.0
1001
ACAD
1000
MTEXTBEGIN
1070
    73
1070
     1
1070
    44
1040
1.0
1070
    74
1070
     0
1000
MTEXTEND
  0
MTEXT
  5
46FB
330
46F7
100
AcDbEntity
  8
Dimensions
 62
     0
100
AcDbMText
 10
3.171194971297651
 20
-0.8106954838772928
 30
0.0
 40
0.18
 41
4.222389942595303
 71
     2
 72
     5
  1
+ INPUT
 73
     1
 44
1.0
1001
ACAD
1000
MTEXTBEGIN
1070
    73
1070
     1
1070
    44
1040
1.0
1070
    74
1070
     0
1000
MTEXTEND
  0
MTEXT
  5
46FC
330
46F7
100
AcDbEntity
  8
Dimensions
 62
     0
100
AcDbMText
 10
0.5
 20
-1.264028817210625
 30
0.0
 40
0.18
 41
0.88
 71
     2
 72
     5
  1
2
 73
     1
 44
1.0
1001
ACAD
1000
MTEXTBEGIN
1070
    73
1070
     1
1070
    44
1040
1.0
1070
    74
1070
     0
1000
MTEXTEND
  0
MTEXT
  5
46FD
330
46F7
100
AcDbEntity
  8
Dimensions
 62
     0
100
AcDbMText
 10
3.171194971297651
 20
-1.264028817210625
 30
0.0
 40
0.18
 41
4.222389942595303
 71
     2
 72
     5
  1
- INPUT/GND
 73
     1
 44
1.0
1001
ACAD
1000
MTEXTBEGIN
1070
    73
1070
     1
1070
    44
1040
1.0
1070
    74
1070
     0
1000
MTEXTEND
  0
MTEXT
  5
46FE
330
46F7
100
AcDbEntity
  8
Dimensions
 62
     0
100
AcDbMText
 10
0.5
 20
-1.717362150543959
 30
0.0
 40
0.18
 41
0.88
 71
     2
 72
     5
  1
3
 73
     1
 44
1.0
1001
ACAD
1000
MTEXTBEGIN
1070
    73
1070
     1
1070
    44
1040
1.0
1070
    74
1070
     0
1000
MTEXTEND
  0
MTEXT
  5
46FF
330
46F7
100
AcDbEntity
  8
Dimensions
 62
     0
100
AcDbMText
 10
3.171194971297651
 20
-1.717362150543959
 30
0.0
 40
0.18
 41
4.222389942595303
 71
     2
 72
     5
  1
SIGNAL-GND
 73
     1
 44
1.0
1001
ACAD
1000
MTEXTBEGIN
1070
    73
1070
     1
1070
    44
1040
1.0
1070
    74
1070
     0
1000
MTEXTEND
  0
MTEXT
  5
4700
330
46F7
100
AcDbEntity
  8
Dimensions
 62
     0
100
AcDbMText
 10
0.5
 20
-2.170695483877292
 30
0.0
 40
0.18
 41
0.88
 71
     2
 72
     5
  1
4
 73
     1
 44
1.0
1001
ACAD
1000
MTEXTBEGIN
1070
    73
1070
     1
1070
    44
1040
1.0
1070
    74
1070
     0
1000
MTEXTEND
  0
MTEXT
  5
4701
330
46F7
100
AcDbEntity
  8
Dimensions
 62
     0
100
AcDbMText
 10
3.171194971297651
 20
-2.170695483877292
 30
0.0
 40
0.18
 41
4.222389942595303
 71
     2
 72
     5
  1
CONTROL/ PROGRAM
 73
     1
 44
1.0
1001
ACAD
1000
MTEXTBEGIN
1070
    73
1070
     1
1070
    44
1040
1.0
1070
    74
1070
     0
1000
MTEXTEND
  0
MTEXT
  5
4702
330
46F7
100
AcDbEntity
  8
Dimensions
 62
     0
100
AcDbMText
 10
0.5
 20
-2.624028817210625
 30
0.0
 40
0.18
 41
0.88
 71
     2
 72
     5
  1
5
 73
     1
 44
1.0
1001
ACAD
1000
MTEXTBEGIN
1070
    73
1070
     1
1070
    44
1040
1.0
1070
    74
1070
     0
1000
MTEXTEND
  0
MTEXT
  5
4703
330
46F7
100
AcDbEntity
  8
Dimensions
 62
     0
100
AcDbMText
 10
3.171194971297651
 20
-2.624028817210625
 30
0.0
 40
0.18
 41
4.222389942595303
 71
     2
 72
     5
  1
REFERENCE VOLTAGE
 73
     1
 44
1.0
1001
ACAD
1000
MTEXTBEGIN
1070
    73
1070
     1
1070
    44
1040
1.0
1070
    74
1070
     0
1000
MTEXTEND
  0
MTEXT
  5
4704
330
46F7
100
AcDbEntity
  8
Dimensions
 62
     0
100
AcDbMText
 10
0.5
 20
-3.077362150543958
 30
0.0
 40
0.18
 41
0.88
 71
     2
 72
     5
  1
6
 73
     1
 44
1.0
1001
ACAD
1000
MTEXTBEGIN
1070
    73
1070
     1
1070
    44
1040
1.0
1070
    74
1070
     0
1000
MTEXTEND
  0
MTEXT
  5
4705
330
46F7
100
AcDbEntity
  8
Dimensions
 62
     0
100
AcDbMText
 10
3.171194971297651
 20
-3.077362150543958
 30
0.0
 40
0.18
 41
4.222389942595303
 71
     2
 72
     5
  1
NC
 73
     1
 44
1.0
1001
ACAD
1000
MTEXTBEGIN
1070
    73
1070
     1
1070
    44
1040
1.0
1070
    74
1070
     0
1000
MTEXTEND
  0
MTEXT
  5
4706
330
46F7
100
AcDbEntity
  8
Dimensions
 62
     0
100
AcDbMText
 10
0.5
 20
-3.530695483877291
 30
0.0
 40
0.18
 41
0.88
 71
     2
 72
     5
  1
7
 73
     1
 44
1.0
1001
ACAD
1000
MTEXTBEGIN
1070
    73
1070
     1
1070
    44
1040
1.0
1070
    74
1070
     0
1000
MTEXTEND
  0
MTEXT
  5
4707
330
46F7
100
AcDbEntity
  8
Dimensions
 62
     0
100
AcDbMText
 10
3.171194971297651
 20
-3.530695483877291
 30
0.0
 40
0.18
 41
4.222389942595303
 71
     2
 72
     5
  1
INTERNAL POT
 73
     1
 44
1.0
1001
ACAD
1000
MTEXTBEGIN
1070
    73
1070
     1
1070
    44
1040
1.0
1070
    74
1070
     0
1000
MTEXTEND
  0
MTEXT
  5
4708
330
46F7
100
AcDbEntity
  8
Dimensions
 62
     0
100
AcDbMText
 10
0.5
 20
-3.984028817210624
 30
0.0
 40
0.18
 41
0.88
 71
     2
 72
     5
  1
8
 73
     1
 44
1.0
1001
ACAD
1000
MTEXTBEGIN
1070
    73
1070
     1
1070
    44
1040
1.0
1070
    74
1070
     0
1000
MTEXTEND
  0
MTEXT
  5
4709
330
46F7
100
AcDbEntity
  8
Dimensions
 62
     0
100
AcDbMText
 10
3.171194971297651
 20
-3.984028817210624
 30
0.0
 40
0.18
 41
4.222389942595303
 71
     2
 72
     5
  1
VOLTAGE MONITOR
 73
     1
 44
1.0
1001
ACAD
1000
MTEXTBEGIN
1070
    73
1070
     1
1070
    44
1040
1.0
1070
    74
1070
     0
1000
MTEXTEND
  0
LINE
  5
470A
330
46F7
100
AcDbEntity
  8
Dimensions
  6
ByBlock
 62
     0
370
    -2
100
AcDbLine
 10
0.0
 20
0.0
 30
0.0
 11
5.342389942595303
 21
0.0
 31
0.0
  0
LINE
  5
470B
330
46F7
100
AcDbEntity
  8
Dimensions
  6
ByBlock
 62
     0
370
    -2
100
AcDbLine
 10
0.0
 20
-0.7506954838772942
 30
0.0
 11
5.342389942595303
 21
-0.7506954838772942
 31
0.0
  0
LINE
  5
470C
330
46F7
100
AcDbEntity
  8
Dimensions
  6
ByBlock
 62
     0
370
    -2
100
AcDbLine
 10
0.0
 20
-1.204028817210627
 30
0.0
 11
5.342389942595303
 21
-1.204028817210627
 31
0.0
  0
LINE
  5
470D
330
46F7
100
AcDbEntity
  8
Dimensions
  6
ByBlock
 62
     0
370
    -2
100
AcDbLine
 10
0.0
 20
-1.65736215054396
 30
0.0
 11
5.342389942595303
 21
-1.65736215054396
 31
0.0
  0
LINE
  5
470E
330
46F7
100
AcDbEntity
  8
Dimensions
  6
ByBlock
 62
     0
370
    -2
100
AcDbLine
 10
0.0
 20
-2.110695483877293
 30
0.0
 11
5.342389942595303
 21
-2.110695483877293
 31
0.0
  0
LINE
  5
470F
330
46F7
100
AcDbEntity
  8
Dimensions
  6
ByBlock
 62
     0
370
    -2
100
AcDbLine
 10
0.0
 20
-2.564028817210626
 30
0.0
 11
5.342389942595303
 21
-2.564028817210626
 31
0.0
  0
LINE
  5
4710
330
46F7
100
AcDbEntity
  8
Dimensions
  6
ByBlock
 62
     0
370
    -2
100
AcDbLine
 10
0.0
 20
-3.017362150543959
 30
0.0
 11
5.342389942595303
 21
-3.017362150543959
 31
0.0
  0
LINE
  5
4711
330
46F7
100
AcDbEntity
  8
Dimensions
  6
ByBlock
 62
     0
370
    -2
100
AcDbLine
 10
0.0
 20
-3.470695483877292
 30
0.0
 11
5.342389942595303
 21
-3.470695483877292
 31
0.0
  0
LINE
  5
4712
330
46F7
100
AcDbEntity
  8
Dimensions
  6
ByBlock
 62
     0
370
    -2
100
AcDbLine
 10
0.0
 20
-3.924028817210626
 30
0.0
 11
5.342389942595303
 21
-3.924028817210626
 31
0.0
  0
LINE
  5
4713
330
46F7
100
AcDbEntity
  8
Dimensions
  6
ByBlock
 62
     0
370
    -2
100
AcDbLine
 10
0.0
 20
-4.377362150543959
 30
0.0
 11
5.342389942595303
 21
-4.377362150543959
 31
0.0
  0
LINE
  5
4714
330
46F7
100
AcDbEntity
  8
Dimensions
  6
ByBlock
 62
     0
370
    -2
100
AcDbLine
 10
0.0
 20
0.0
 30
0.0
 11
0.0
 21
-4.377362150543959
 31
0.0
  0
LINE
  5
4715
330
46F7
100
AcDbEntity
  8
Dimensions
  6
ByBlock
 62
     0
370
    -2
100
AcDbLine
 10
1.0
 20
0.0
 30
0.0
 11
1.0
 21
-4.377362150543959
 31
0.0
  0
LINE
  5
4716
330
46F7
100
AcDbEntity
  8
Dimensions
  6
ByBlock
 62
     0
370
    -2
100
AcDbLine
 10
5.342389942595303
 20
0.0
 30
0.0
 11
5.342389942595303
 21
-4.377362150543959
 31
0.0
  0
LINE
  5
4717
330
46F7
100
AcDbEntity
  8
Defpoints
 62
     8
 60
     1
370
     0
100
AcDbLine
 10
0.0
 20
0.0
 30
0.0
 11
0.0
 21
0.0
 31
0.0
  0
ENDBLK
  5
4719
330
46F7
100
AcDbEntity
  8
0
100
AcDbBlockEnd
  0
BLOCK
  5
471B
330
471A
100
AcDbEntity
  8
0
100
AcDbBlockBegin
  2
*D7
 70
     1
 10
0.0
 20
0.0
 30
0.0
  3
*D7
  1

  0
LINE
  5
47B4
330
471A
100
AcDbEntity
  8
Dimensions
 62
     0
370
    -2
100
AcDbLine
 10
10.60259103907153
 20
23.74417807691139
 30
0.0
 11
10.60259103907153
 21
24.74900981786186
 31
0.0
  0
LINE
  5
47B5
330
471A
100
AcDbEntity
  8
Dimensions
 62
     0
370
    -2
100
AcDbLine
 10
14.93259103907153
 20
23.64417807691139
 30
0.0
 11
14.93259103907153
 21
24.74900981786186
 31
0.0
  0
LINE
  5
47B6
330
471A
100
AcDbEntity
  8
Dimensions
 62
     0
370
    -2
100
AcDbLine
 10
10.72759103907153
 20
24.56900981786186
 30
0.0
 11
12.09860041181846
 21
24.56900981786186
 31
0.0
  0
LINE
  5
47B7
330
471A
100
AcDbEntity
  8
Dimensions
 62
     0
370
    -2
100
AcDbLine
 10
14.80759103907153
 20
24.56900981786186
 30
0.0
 11
13.35259103907153
 21
24.56900981786186
 31
0.0
  0
SOLID
  5
47B8
330
471A
100
AcDbEntity
  8
Dimensions
 62
     0
100
AcDbTrace
 10
10.72759103907153
 20
24.58984315119519
 30
0.0
 11
10.72759103907153
 21
24.54817648452852
 31
0.0
 12
10.60259103907153
 22
24.56900981786186
 32
0.0
 13
10.60259103907153
 23
24.56900981786186
 33
0.0
  0
SOLID
  5
47B9
330
471A
100
AcDbEntity
  8
Dimensions
 62
     0
100
AcDbTrace
 10
14.80759103907153
 20
24.58984315119519
 30
0.0
 11
14.80759103907153
 21
24.54817648452852
 31
0.0
 12
14.93259103907153
 22
24.56900981786186
 32
0.0
 13
14.93259103907153
 23
24.56900981786186
 33
0.0
  0
MTEXT
  5
47BA
330
471A
100
AcDbEntity
  8
Dimensions
 62
     0
100
AcDbMText
 10
12.725595725445
 20
24.56900981786186
 30
0.0
 40
0.125
 41
0.0
 71
     5
 72
     1
  1
\A1;4.330 [109.98]
 73
     1
 44
1.0
1001
ACAD
1000
MTEXTBEGIN
1070
    73
1070
     1
1070
    44
1040
1.0
1070
    74
1070
     0
1000
MTEXTEND
  0
POINT
  5
47BB
330
471A
100
AcDbEntity
  8
Defpoints
 62
     0
100
AcDbPoint
 10
10.60259103907153
 20
23.68167807691138
 30
0.0
  0
POINT
  5
47BC
330
471A
100
AcDbEntity
  8
Defpoints
 62
     0
100
AcDbPoint
 10
14.93259103907153
 20
23.58167807691139
 30
0.0
  0
POINT
  5
47BD
330
471A
100
AcDbEntity
  8
Defpoints
 62
     0
100
AcDbPoint
 10
14.93259103907153
 20
24.56900981786186
 30
0.0
  0
ENDBLK
  5
471C
330
471A
100
AcDbEntity
  8
0
100
AcDbBlockEnd
  0
BLOCK
  5
4728
330
4727
100
AcDbEntity
  8
0
100
AcDbBlockBegin
  2
*D8
 70
     1
 10
0.0
 20
0.0
 30
0.0
  3
*D8
  1

  0
LINE
  5
47CB
330
4727
100
AcDbEntity
  8
Dimensions
 62
     0
370
    -2
100
AcDbLine
 10
4.213704842360169
 20
23.64417807691138
 30
0.0
 11
4.213704842360169
 21
24.19855482971208
 31
0.0
  0
LINE
  5
47CC
330
4727
100
AcDbEntity
  8
Dimensions
 62
     0
370
    -2
100
AcDbLine
 10
7.11370484236016
 20
23.64417807691139
 30
0.0
 11
7.11370484236016
 21
24.19855482971208
 31
0.0
  0
LINE
  5
47CD
330
4727
100
AcDbEntity
  8
Dimensions
 62
     0
370
    -2
100
AcDbLine
 10
4.338704842360169
 20
24.01855482971208
 30
0.0
 11
5.310861499565777
 21
24.01855482971208
 31
0.0
  0
LINE
  5
47CE
330
4727
100
AcDbEntity
  8
Dimensions
 62
     0
370
    -2
100
AcDbLine
 10
6.98870484236016
 20
24.01855482971208
 30
0.0
 11
6.471485147727276
 21
24.01855482971208
 31
0.0
  0
SOLID
  5
47CF
330
4727
100
AcDbEntity
  8
Dimensions
 62
     0
100
AcDbTrace
 10
4.338704842360169
 20
24.03938816304541
 30
0.0
 11
4.338704842360169
 21
23.99772149637875
 31
0.0
 12
4.213704842360169
 22
24.01855482971208
 32
0.0
 13
4.213704842360169
 23
24.01855482971208
 33
0.0
  0
SOLID
  5
47D0
330
4727
100
AcDbEntity
  8
Dimensions
 62
     0
100
AcDbTrace
 10
6.98870484236016
 20
24.03938816304541
 30
0.0
 11
6.98870484236016
 21
23.99772149637875
 31
0.0
 12
7.11370484236016
 22
24.01855482971208
 32
0.0
 13
7.11370484236016
 23
24.01855482971208
 33
0.0
  0
MTEXT
  5
47D1
330
4727
100
AcDbEntity
  8
Dimensions
 62
     0
100
AcDbMText
 10
5.891173323646526
 20
24.01855482971208
 30
0.0
 40
0.125
 41
0.0
 71
     5
 72
     1
  1
\A1;2.900 [73.66]
 73
     1
 44
1.0
1001
ACAD
1000
MTEXTBEGIN
1070
    73
1070
     1
1070
    44
1040
1.0
1070
    74
1070
     0
1000
MTEXTEND
  0
POINT
  5
47D2
330
4727
100
AcDbEntity
  8
Defpoints
 62
     0
100
AcDbPoint
 10
4.213704842360169
 20
23.58167807691138
 30
0.0
  0
POINT
  5
47D3
330
4727
100
AcDbEntity
  8
Defpoints
 62
     0
100
AcDbPoint
 10
7.11370484236016
 20
23.58167807691139
 30
0.0
  0
POINT
  5
47D4
330
4727
100
AcDbEntity
  8
Defpoints
 62
     0
100
AcDbPoint
 10
7.11370484236016
 20
24.01855482971208
 30
0.0
  0
ENDBLK
  5
4729
330
4727
100
AcDbEntity
  8
0
100
AcDbBlockEnd
  0
BLOCK
  5
4735
330
4734
100
AcDbEntity
  8
0
100
AcDbBlockBegin
  2
*D9
 70
     1
 10
0.0
 20
0.0
 30
0.0
  3
*D9
  1

  0
LINE
  5
4737
330
4734
100
AcDbEntity
  8
Dimensions
 62
     0
370
    -2
100
AcDbLine
 10
10.60259103907153
 20
27.81501938344309
 30
0.0
 11
10.60259103907153
 21
27.27062314305107
 31
0.0
  0
LINE
  5
4738
330
4734
100
AcDbEntity
  8
Dimensions
 62
     0
370
    -2
100
AcDbLine
 10
14.93259103907153
 20
27.8150193834431
 30
0.0
 11
14.93259103907153
 21
27.27062314305107
 31
0.0
  0
LINE
  5
4739
330
4734
100
AcDbEntity
  8
Dimensions
 62
     0
370
    -2
100
AcDbLine
 10
10.72759103907153
 20
27.45062314305107
 30
0.0
 11
12.21907309624202
 21
27.45062314305107
 31
0.0
  0
LINE
  5
473A
330
4734
100
AcDbEntity
  8
Dimensions
 62
     0
370
    -2
100
AcDbLine
 10
14.80759103907153
 20
27.45062314305107
 30
0.0
 11
13.47306372349508
 21
27.45062314305107
 31
0.0
  0
SOLID
  5
473B
330
4734
100
AcDbEntity
  8
Dimensions
 62
     0
100
AcDbTrace
 10
10.72759103907153
 20
27.4714564763844
 30
0.0
 11
10.72759103907153
 21
27.42978980971774
 31
0.0
 12
10.60259103907153
 22
27.45062314305107
 32
0.0
 13
10.60259103907153
 23
27.45062314305107
 33
0.0
  0
SOLID
  5
473C
330
4734
100
AcDbEntity
  8
Dimensions
 62
     0
100
AcDbTrace
 10
14.80759103907153
 20
27.4714564763844
 30
0.0
 11
14.80759103907153
 21
27.42978980971774
 31
0.0
 12
14.93259103907153
 22
27.45062314305107
 32
0.0
 13
14.93259103907153
 23
27.45062314305107
 33
0.0
  0
MTEXT
  5
473D
330
4734
100
AcDbEntity
  8
Dimensions
 62
     0
100
AcDbMText
 10
12.84606840986855
 20
27.45062314305107
 30
0.0
 40
0.125
 41
0.0
 71
     5
 72
     1
  1
\A1;4.330 [109.98]
 73
     1
 44
1.0
1001
ACAD
1000
MTEXTBEGIN
1070
    73
1070
     1
1070
    44
1040
1.0
1070
    74
1070
     0
1000
MTEXTEND
  0
POINT
  5
473E
330
4734
100
AcDbEntity
  8
Defpoints
 62
     0
100
AcDbPoint
 10
10.60259103907153
 20
27.87751938344309
 30
0.0
  0
POINT
  5
473F
330
4734
100
AcDbEntity
  8
Defpoints
 62
     0
100
AcDbPoint
 10
14.93259103907153
 20
27.8775193834431
 30
0.0
  0
POINT
  5
4740
330
4734
100
AcDbEntity
  8
Defpoints
 62
     0
100
AcDbPoint
 10
14.93259103907153
 20
27.45062314305107
 30
0.0
  0
ENDBLK
  5
4736
330
4734
100
AcDbEntity
  8
0
100
AcDbBlockEnd
  0
BLOCK
  5
4742
330
4741
100
AcDbEntity
  8
0
100
AcDbBlockBegin
  2
*D10
 70
     1
 10
0.0
 20
0.0
 30
0.0
  3
*D10
  1

  0
LINE
  5
4744
330
4741
100
AcDbEntity
  8
Dimensions
 62
     0
370
    -2
100
AcDbLine
 10
10.20759103907153
 20
27.9350193834431
 30
0.0
 11
10.20759103907153
 21
26.51975582899436
 31
0.0
  0
LINE
  5
4745
330
4741
100
AcDbEntity
  8
Dimensions
 62
     0
370
    -2
100
AcDbLine
 10
15.32759103907153
 20
27.9150193834431
 30
0.0
 11
15.32759103907153
 21
26.51975582899436
 31
0.0
  0
LINE
  5
4746
330
4741
100
AcDbEntity
  8
Dimensions
 62
     0
370
    -2
100
AcDbLine
 10
10.33259103907153
 20
26.69975582899436
 30
0.0
 11
12.25198738965082
 21
26.69975582899436
 31
0.0
  0
LINE
  5
4747
330
4741
100
AcDbEntity
  8
Dimensions
 62
     0
370
    -2
100
AcDbLine
 10
15.20259103907153
 20
26.69975582899436
 30
0.0
 11
13.5000299275023
 21
26.69975582899436
 31
0.0
  0
SOLID
  5
4748
330
4741
100
AcDbEntity
  8
Dimensions
 62
     0
100
AcDbTrace
 10
10.33259103907153
 20
26.72058916232769
 30
0.0
 11
10.33259103907153
 21
26.67892249566103
 31
0.0
 12
10.20759103907153
 22
26.69975582899436
 32
0.0
 13
10.20759103907153
 23
26.69975582899436
 33
0.0
  0
SOLID
  5
4749
330
4741
100
AcDbEntity
  8
Dimensions
 62
     0
100
AcDbTrace
 10
15.20259103907153
 20
26.72058916232769
 30
0.0
 11
15.20259103907153
 21
26.67892249566103
 31
0.0
 12
15.32759103907153
 22
26.69975582899436
 32
0.0
 13
15.32759103907153
 23
26.69975582899436
 33
0.0
  0
MTEXT
  5
474A
330
4741
100
AcDbEntity
  8
Dimensions
 62
     0
100
AcDbMText
 10
12.87600865857656
 20
26.69975582899436
 30
0.0
 40
0.125
 41
0.0
 71
     5
 72
     1
  1
\A1;5.120 [130.05]
 73
     1
 44
1.0
1001
ACAD
1000
MTEXTBEGIN
1070
    73
1070
     1
1070
    44
1040
1.0
1070
    74
1070
     0
1000
MTEXTEND
  0
POINT
  5
474B
330
4741
100
AcDbEntity
  8
Defpoints
 62
     0
100
AcDbPoint
 10
10.20759103907153
 20
27.9975193834431
 30
0.0
  0
POINT
  5
474C
330
4741
100
AcDbEntity
  8
Defpoints
 62
     0
100
AcDbPoint
 10
15.32759103907153
 20
27.9775193834431
 30
0.0
  0
POINT
  5
474D
330
4741
100
AcDbEntity
  8
Defpoints
 62
     0
100
AcDbPoint
 10
15.32759103907153
 20
26.69975582899436
 30
0.0
  0
ENDBLK
  5
4743
330
4741
100
AcDbEntity
  8
0
100
AcDbBlockEnd
  0
BLOCK
  5
474F
330
474E
100
AcDbEntity
  8
0
100
AcDbBlockBegin
  2
*D11
 70
     1
 10
0.0
 20
0.0
 30
0.0
  3
*D11
  1

  0
LINE
  5
4751
330
474E
100
AcDbEntity
  8
Dimensions
 62
     0
370
    -2
100
AcDbLine
 10
10.40559103907152
 20
28.2100193834431
 30
0.0
 11
10.40559103907152
 21
26.83591044910401
 31
0.0
  0
LINE
  5
4752
330
474E
100
AcDbEntity
  8
Dimensions
 62
     0
370
    -2
100
AcDbLine
 10
15.12984103907152
 20
28.2100193834431
 30
0.0
 11
15.12984103907152
 21
26.83591044910401
 31
0.0
  0
LINE
  5
4753
330
474E
100
AcDbEntity
  8
Dimensions
 62
     0
370
    -2
100
AcDbLine
 10
10.53059103907152
 20
27.01591044910401
 30
0.0
 11
12.24901334495003
 21
27.01591044910401
 31
0.0
  0
LINE
  5
4754
330
474E
100
AcDbEntity
  8
Dimensions
 62
     0
370
    -2
100
AcDbLine
 10
15.00484103907153
 20
27.01591044910401
 30
0.0
 11
13.5030039722031
 21
27.01591044910401
 31
0.0
  0
SOLID
  5
4755
330
474E
100
AcDbEntity
  8
Dimensions
 62
     0
100
AcDbTrace
 10
10.53059103907152
 20
27.03674378243734
 30
0.0
 11
10.53059103907152
 21
26.99507711577068
 31
0.0
 12
10.40559103907152
 22
27.01591044910401
 32
0.0
 13
10.40559103907152
 23
27.01591044910401
 33
0.0
  0
SOLID
  5
4756
330
474E
100
AcDbEntity
  8
Dimensions
 62
     0
100
AcDbTrace
 10
15.00484103907153
 20
27.03674378243734
 30
0.0
 11
15.00484103907153
 21
26.99507711577068
 31
0.0
 12
15.12984103907152
 22
27.01591044910401
 32
0.0
 13
15.12984103907152
 23
27.01591044910401
 33
0.0
  0
MTEXT
  5
4757
330
474E
100
AcDbEntity
  8
Dimensions
 62
     0
100
AcDbMText
 10
12.87600865857656
 20
27.01591044910401
 30
0.0
 40
0.125
 41
0.0
 71
     5
 72
     1
  1
\A1;4.724 [120.00]
 73
     1
 44
1.0
1001
ACAD
1000
MTEXTBEGIN
1070
    73
1070
     1
1070
    44
1040
1.0
1070
    74
1070
     0
1000
MTEXTEND
  0
POINT
  5
4758
330
474E
100
AcDbEntity
  8
Defpoints
 62
     0
100
AcDbPoint
 10
10.40559103907152
 20
28.2725193834431
 30
0.0
  0
POINT
  5
4759
330
474E
100
AcDbEntity
  8
Defpoints
 62
     0
100
AcDbPoint
 10
15.12984103907152
 20
28.2725193834431
 30
0.0
  0
POINT
  5
475A
330
474E
100
AcDbEntity
  8
Defpoints
 62
     0
100
AcDbPoint
 10
15.12984103907152
 20
27.01591044910401
 30
0.0
  0
ENDBLK
  5
4750
330
474E
100
AcDbEntity
  8
0
100
AcDbBlockEnd
  0
BLOCK
  5
475C
330
475B
100
AcDbEntity
  8
0
100
AcDbBlockBegin
  2
*D12
 70
     1
 10
0.0
 20
0.0
 30
0.0
  3
*D12
  1

  0
LINE
  5
475E
330
475B
100
AcDbEntity
  8
Dimensions
 62
     0
370
    -2
100
AcDbLine
 10
10.14509103907153
 20
27.99751938344311
 30
0.0
 11
9.736751305073955
 21
27.99751938344311
 31
0.0
  0
LINE
  5
475F
330
475B
100
AcDbEntity
  8
Dimensions
 62
     0
370
    -2
100
AcDbLine
 10
10.14509103907153
 20
28.5475193834431
 30
0.0
 11
9.736751305073957
 21
28.5475193834431
 31
0.0
  0
LINE
  5
4760
330
475B
100
AcDbEntity
  8
Dimensions
 62
     0
370
    -2
100
AcDbLine
 10
9.916751305073956
 20
28.4225193834431
 30
0.0
 11
9.916751305073956
 21
28.1225193834431
 31
0.0
  0
LINE
  5
4761
330
475B
100
AcDbEntity
  8
Dimensions
 62
     0
370
    -2
100
AcDbLine
 10
9.916751305073955
 20
27.99751938344311
 30
0.0
 11
9.916751305073955
 21
27.5740207038922
 31
0.0
  0
LINE
  5
4762
330
475B
100
AcDbEntity
  8
Dimensions
 62
     0
370
    -2
100
AcDbLine
 10
9.916751305073955
 20
27.5740207038922
 30
0.0
 11
9.791751305073955
 21
27.5740207038922
 31
0.0
  0
SOLID
  5
4763
330
475B
100
AcDbEntity
  8
Dimensions
 62
     0
100
AcDbTrace
 10
9.895917971740622
 20
28.4225193834431
 30
0.0
 11
9.93758463840729
 21
28.4225193834431
 31
0.0
 12
9.916751305073956
 22
28.5475193834431
 32
0.0
 13
9.916751305073956
 23
28.5475193834431
 33
0.0
  0
SOLID
  5
4764
330
475B
100
AcDbEntity
  8
Dimensions
 62
     0
100
AcDbTrace
 10
9.895917971740622
 20
28.1225193834431
 30
0.0
 11
9.93758463840729
 21
28.1225193834431
 31
0.0
 12
9.916751305073955
 22
27.99751938344311
 32
0.0
 13
9.916751305073955
 23
27.99751938344311
 33
0.0
  0
MTEXT
  5
4765
330
475B
100
AcDbEntity
  8
Dimensions
 62
     0
100
AcDbMText
 10
9.212791319493561
 20
27.57402070389221
 30
0.0
 40
0.125
 41
0.0
 71
     5
 72
     1
  1
\A1;0.550 [13.97]
 73
     1
 44
1.0
1001
ACAD
1000
MTEXTBEGIN
1070
    73
1070
     1
1070
    44
1040
1.0
1070
    74
1070
     0
1000
MTEXTEND
  0
POINT
  5
4766
330
475B
100
AcDbEntity
  8
Defpoints
 62
     0
100
AcDbPoint
 10
10.20759103907153
 20
27.99751938344311
 30
0.0
  0
POINT
  5
4767
330
475B
100
AcDbEntity
  8
Defpoints
 62
     0
100
AcDbPoint
 10
10.20759103907153
 20
28.5475193834431
 30
0.0
  0
POINT
  5
4768
330
475B
100
AcDbEntity
  8
Defpoints
 62
     0
100
AcDbPoint
 10
9.916751305073956
 20
28.5475193834431
 30
0.0
  0
ENDBLK
  5
475D
330
475B
100
AcDbEntity
  8
0
100
AcDbBlockEnd
  0
BLOCK
  5
476A
330
4769
100
AcDbEntity
  8
0
100
AcDbBlockBegin
  2
*D13
 70
     1
 10
0.0
 20
0.0
 30
0.0
  3
*D13
  1

  0
LINE
  5
476C
330
4769
100
AcDbEntity
  8
Dimensions
 62
     0
370
    -2
100
AcDbLine
 10
10.14509103907153
 20
28.5475193834431
 30
0.0
 11
9.127989151898416
 21
28.5475193834431
 31
0.0
  0
LINE
  5
476D
330
4769
100
AcDbEntity
  8
Dimensions
 62
     0
370
    -2
100
AcDbLine
 10
10.14509103907154
 20
30.1075193834431
 30
0.0
 11
9.127989151898416
 21
30.1075193834431
 31
0.0
  0
LINE
  5
476E
330
4769
100
AcDbEntity
  8
Dimensions
 62
     0
370
    -2
100
AcDbLine
 10
9.307989151898416
 20
28.6725193834431
 30
0.0
 11
9.307989151898416
 21
28.99958688725623
 31
0.0
  0
LINE
  5
476F
330
4769
100
AcDbEntity
  8
Dimensions
 62
     0
370
    -2
100
AcDbLine
 10
9.307989151898416
 20
29.9825193834431
 30
0.0
 11
9.307989151898416
 21
29.34126677189935
 31
0.0
  0
SOLID
  5
4770
330
4769
100
AcDbEntity
  8
Dimensions
 62
     0
100
AcDbTrace
 10
9.287155818565082
 20
28.6725193834431
 30
0.0
 11
9.32882248523175
 21
28.6725193834431
 31
0.0
 12
9.307989151898416
 22
28.5475193834431
 32
0.0
 13
9.307989151898416
 23
28.5475193834431
 33
0.0
  0
SOLID
  5
4771
330
4769
100
AcDbEntity
  8
Dimensions
 62
     0
100
AcDbTrace
 10
9.287155818565082
 20
29.9825193834431
 30
0.0
 11
9.32882248523175
 21
29.9825193834431
 31
0.0
 12
9.307989151898416
 22
30.1075193834431
 32
0.0
 13
9.307989151898416
 23
30.1075193834431
 33
0.0
  0
MTEXT
  5
4772
330
4769
100
AcDbEntity
  8
Dimensions
 62
     0
100
AcDbMText
 10
9.307989151898411
 20
29.17042682957779
 30
0.0
 40
0.125
 41
0.0
 71
     5
 72
     1
  1
\A1;1.560 [39.62]
 73
     1
 44
1.0
1001
ACAD
1000
MTEXTBEGIN
1070
    73
1070
     1
1070
    44
1040
1.0
1070
    74
1070
     0
1000
MTEXTEND
  0
POINT
  5
4773
330
4769
100
AcDbEntity
  8
Defpoints
 62
     0
100
AcDbPoint
 10
10.20759103907153
 20
28.5475193834431
 30
0.0
  0
POINT
  5
4774
330
4769
100
AcDbEntity
  8
Defpoints
 62
     0
100
AcDbPoint
 10
10.20759103907153
 20
30.1075193834431
 30
0.0
  0
POINT
  5
4775
330
4769
100
AcDbEntity
  8
Defpoints
 62
     0
100
AcDbPoint
 10
9.307989151898416
 20
30.1075193834431
 30
0.0
  0
ENDBLK
  5
476B
330
4769
100
AcDbEntity
  8
0
100
AcDbBlockEnd
  0
BLOCK
  5
4777
330
4776
100
AcDbEntity
  8
0
100
AcDbBlockBegin
  2
*D14
 70
     1
 10
0.0
 20
0.0
 30
0.0
  3
*D14
  1

  0
LINE
  5
4779
330
4776
100
AcDbEntity
  8
Dimensions
 62
     0
370
    -2
100
AcDbLine
 10
15.39009103907154
 20
30.08751938344309
 30
0.0
 11
16.75224661997776
 21
30.08751938344309
 31
0.0
  0
LINE
  5
477A
330
4776
100
AcDbEntity
  8
Dimensions
 62
     0
370
    -2
100
AcDbLine
 10
15.39009103907153
 20
28.5675193834431
 30
0.0
 11
16.75224661997776
 21
28.5675193834431
 31
0.0
  0
LINE
  5
477B
330
4776
100
AcDbEntity
  8
Dimensions
 62
     0
370
    -2
100
AcDbLine
 10
16.57224661997776
 20
29.9625193834431
 30
0.0
 11
16.57224661997776
 21
29.45394067033977
 31
0.0
  0
LINE
  5
477C
330
4776
100
AcDbEntity
  8
Dimensions
 62
     0
370
    -2
100
AcDbLine
 10
16.57224661997776
 20
28.6925193834431
 30
0.0
 11
16.57224661997776
 21
29.11226078569666
 31
0.0
  0
SOLID
  5
477D
330
4776
100
AcDbEntity
  8
Dimensions
 62
     0
100
AcDbTrace
 10
16.55141328664443
 20
29.9625193834431
 30
0.0
 11
16.5930799533111
 21
29.9625193834431
 31
0.0
 12
16.57224661997776
 22
30.08751938344309
 32
0.0
 13
16.57224661997776
 23
30.08751938344309
 33
0.0
  0
SOLID
  5
477E
330
4776
100
AcDbEntity
  8
Dimensions
 62
     0
100
AcDbTrace
 10
16.55141328664443
 20
28.6925193834431
 30
0.0
 11
16.5930799533111
 21
28.6925193834431
 31
0.0
 12
16.57224661997776
 22
28.5675193834431
 32
0.0
 13
16.57224661997776
 23
28.5675193834431
 33
0.0
  0
MTEXT
  5
477F
330
4776
100
AcDbEntity
  8
Dimensions
 62
     0
100
AcDbMText
 10
16.57224661997776
 20
29.28310072801822
 30
0.0
 40
0.125
 41
0.0
 71
     5
 72
     1
  1
\A1;1.520 [38.61]
 73
     1
 44
1.0
1001
ACAD
1000
MTEXTBEGIN
1070
    73
1070
     1
1070
    44
1040
1.0
1070
    74
1070
     0
1000
MTEXTEND
  0
POINT
  5
4780
330
4776
100
AcDbEntity
  8
Defpoints
 62
     0
100
AcDbPoint
 10
15.32759103907154
 20
30.08751938344309
 30
0.0
  0
POINT
  5
4781
330
4776
100
AcDbEntity
  8
Defpoints
 62
     0
100
AcDbPoint
 10
15.32759103907153
 20
28.5675193834431
 30
0.0
  0
POINT
  5
4782
330
4776
100
AcDbEntity
  8
Defpoints
 62
     0
100
AcDbPoint
 10
16.57224661997776
 20
28.5675193834431
 30
0.0
  0
ENDBLK
  5
4778
330
4776
100
AcDbEntity
  8
0
100
AcDbBlockEnd
  0
BLOCK
  5
478E
330
478D
100
AcDbEntity
  8
0
100
AcDbBlockBegin
  2
*D15
 70
     1
 10
0.0
 20
0.0
 30
0.0
  3
*D15
  1

  0
LINE
  5
4851
330
478D
100
AcDbEntity
  8
Dimensions
 62
     0
370
    -2
100
AcDbLine
 10
15.39009103907154
 20
30.08751938344309
 30
0.0
 11
16.13430379532605
 21
30.08751938344309
 31
0.0
  0
LINE
  5
4852
330
478D
100
AcDbEntity
  8
Dimensions
 62
     0
370
    -2
100
AcDbLine
 10
15.39009103907154
 20
30.67751938344309
 30
0.0
 11
16.13430379532605
 21
30.67751938344309
 31
0.0
  0
LINE
  5
4853
330
478D
100
AcDbEntity
  8
Dimensions
 62
     0
370
    -2
100
AcDbLine
 10
15.95430379532605
 20
30.2125193834431
 30
0.0
 11
15.95430379532605
 21
30.55251938344309
 31
0.0
  0
LINE
  5
4854
330
478D
100
AcDbEntity
  8
Dimensions
 62
     0
370
    -2
100
AcDbLine
 10
15.95430379532605
 20
30.67751938344309
 30
0.0
 11
15.95430379532605
 21
31.03387423893176
 31
0.0
  0
LINE
  5
4855
330
478D
100
AcDbEntity
  8
Dimensions
 62
     0
370
    -2
100
AcDbLine
 10
15.95430379532605
 20
31.03387423893176
 30
0.0
 11
16.07930379532605
 21
31.03387423893176
 31
0.0
  0
SOLID
  5
4856
330
478D
100
AcDbEntity
  8
Dimensions
 62
     0
100
AcDbTrace
 10
15.93347046199272
 20
30.2125193834431
 30
0.0
 11
15.97513712865938
 21
30.2125193834431
 31
0.0
 12
15.95430379532605
 22
30.08751938344309
 32
0.0
 13
15.95430379532605
 23
30.08751938344309
 33
0.0
  0
SOLID
  5
4857
330
478D
100
AcDbEntity
  8
Dimensions
 62
     0
100
AcDbTrace
 10
15.93347046199272
 20
30.55251938344309
 30
0.0
 11
15.97513712865938
 21
30.55251938344309
 31
0.0
 12
15.95430379532605
 22
30.67751938344309
 32
0.0
 13
15.95430379532605
 23
30.67751938344309
 33
0.0
  0
MTEXT
  5
4858
330
478D
100
AcDbEntity
  8
Dimensions
 62
     0
100
AcDbMText
 10
16.65826378090644
 20
31.03387423893177
 30
0.0
 40
0.125
 41
0.0
 71
     5
 72
     1
  1
\A1;0.590 [14.99]
 73
     1
 44
1.0
1001
ACAD
1000
MTEXTBEGIN
1070
    73
1070
     1
1070
    44
1040
1.0
1070
    74
1070
     0
1000
MTEXTEND
  0
POINT
  5
4859
330
478D
100
AcDbEntity
  8
Defpoints
 62
     0
100
AcDbPoint
 10
15.32759103907154
 20
30.08751938344309
 30
0.0
  0
POINT
  5
485A
330
478D
100
AcDbEntity
  8
Defpoints
 62
     0
100
AcDbPoint
 10
15.32759103907154
 20
30.67751938344309
 30
0.0
  0
POINT
  5
485B
330
478D
100
AcDbEntity
  8
Defpoints
 62
     0
100
AcDbPoint
 10
15.95430379532605
 20
30.67751938344309
 30
0.0
  0
ENDBLK
  5
478F
330
478D
100
AcDbEntity
  8
0
100
AcDbBlockEnd
  0
BLOCK
  5
479C
330
479B
100
AcDbEntity
  8
0
100
AcDbBlockBegin
  2
*D16
 70
     1
 10
0.0
 20
0.0
 30
0.0
  3
*D16
  1

  0
LINE
  5
479E
330
479B
100
AcDbEntity
  8
Dimensions
 62
     0
370
    -2
100
AcDbLine
 10
10.14509103907154
 20
30.10751938344311
 30
0.0
 11
9.711376704442605
 21
30.10751938344311
 31
0.0
  0
LINE
  5
479F
330
479B
100
AcDbEntity
  8
Dimensions
 62
     0
370
    -2
100
AcDbLine
 10
10.14509103907154
 20
30.6575193834431
 30
0.0
 11
9.711376704442605
 21
30.6575193834431
 31
0.0
  0
LINE
  5
47A0
330
479B
100
AcDbEntity
  8
Dimensions
 62
     0
370
    -2
100
AcDbLine
 10
9.891376704442604
 20
30.23251938344311
 30
0.0
 11
9.891376704442604
 21
30.5325193834431
 31
0.0
  0
LINE
  5
47A1
330
479B
100
AcDbEntity
  8
Dimensions
 62
     0
370
    -2
100
AcDbLine
 10
9.766376704442604
 20
31.04058762258615
 30
0.0
 11
9.891376704442604
 21
31.04058762258615
 31
0.0
  0
LINE
  5
47A2
330
479B
100
AcDbEntity
  8
Dimensions
 62
     0
370
    -2
100
AcDbLine
 10
9.891376704442604
 20
31.04058762258615
 30
0.0
 11
9.891376704442604
 21
30.6575193834431
 31
0.0
  0
MTEXT
  5
47A3
330
479B
100
AcDbEntity
  8
Dimensions
 62
     0
100
AcDbMText
 10
9.187416718862209
 20
31.04058762258615
 30
0.0
 40
0.125
 41
0.0
 71
     5
 72
     1
  1
\A1;0.550 [13.97]
 73
     1
 44
1.0
1001
ACAD
1000
MTEXTBEGIN
1070
    73
1070
     1
1070
    44
1040
1.0
1070
    74
1070
     0
1000
MTEXTEND
  0
SOLID
  5
47A4
330
479B
100
AcDbEntity
  8
Dimensions
 62
     0
100
AcDbTrace
 10
9.87054337110927
 20
30.23251938344311
 30
0.0
 11
9.912210037775938
 21
30.23251938344311
 31
0.0
 12
9.891376704442604
 22
30.10751938344311
 32
0.0
 13
9.891376704442604
 23
30.10751938344311
 33
0.0
  0
SOLID
  5
47A5
330
479B
100
AcDbEntity
  8
Dimensions
 62
     0
100
AcDbTrace
 10
9.87054337110927
 20
30.5325193834431
 30
0.0
 11
9.912210037775938
 21
30.5325193834431
 31
0.0
 12
9.891376704442604
 22
30.6575193834431
 32
0.0
 13
9.891376704442604
 23
30.6575193834431
 33
0.0
  0
POINT
  5
47A6
330
479B
100
AcDbEntity
  8
Defpoints
 62
     0
100
AcDbPoint
 10
10.20759103907154
 20
30.10751938344311
 30
0.0
  0
POINT
  5
47A7
330
479B
100
AcDbEntity
  8
Defpoints
 62
     0
100
AcDbPoint
 10
10.20759103907154
 20
30.6575193834431
 30
0.0
  0
POINT
  5
47A8
330
479B
100
AcDbEntity
  8
Defpoints
 62
     0
100
AcDbPoint
 10
9.891376704442604
 20
30.6575193834431
 30
0.0
  0
ENDBLK
  5
479D
330
479B
100
AcDbEntity
  8
0
100
AcDbBlockEnd
  0
BLOCK
  5
47BF
330
47BE
100
AcDbEntity
  8
0
100
AcDbBlockBegin
  2
*D17
 70
     1
 10
0.0
 20
0.0
 30
0.0
  3
*D17
  1

  0
LINE
  5
47C1
330
47BE
100
AcDbEntity
  8
Dimensions
 62
     0
370
    -2
100
AcDbLine
 10
15.52754003442161
 20
22.58167807691137
 30
0.0
 11
15.93498902977169
 21
22.58167807691137
 31
0.0
  0
LINE
  5
47C2
330
47BE
100
AcDbEntity
  8
Dimensions
 62
     0
370
    -2
100
AcDbLine
 10
14.99509103907153
 20
23.58167807691139
 30
0.0
 11
15.93498902977169
 21
23.58167807691139
 31
0.0
  0
LINE
  5
47C3
330
47BE
100
AcDbEntity
  8
Dimensions
 62
     0
370
    -2
100
AcDbLine
 10
15.75498902977169
 20
22.70667807691137
 30
0.0
 11
15.75498902977169
 21
23.11099766421443
 31
0.0
  0
LINE
  5
47C4
330
47BE
100
AcDbEntity
  8
Dimensions
 62
     0
370
    -2
100
AcDbLine
 10
15.75498902977169
 20
23.45667807691139
 30
0.0
 11
15.75498902977169
 21
23.45267754885754
 31
0.0
  0
SOLID
  5
47C5
330
47BE
100
AcDbEntity
  8
Dimensions
 62
     0
100
AcDbTrace
 10
15.73415569643836
 20
22.70667807691137
 30
0.0
 11
15.77582236310503
 21
22.70667807691137
 31
0.0
 12
15.75498902977169
 22
22.58167807691137
 32
0.0
 13
15.75498902977169
 23
22.58167807691137
 33
0.0
  0
SOLID
  5
47C6
330
47BE
100
AcDbEntity
  8
Dimensions
 62
     0
100
AcDbTrace
 10
15.73415569643836
 20
23.45667807691139
 30
0.0
 11
15.77582236310503
 21
23.45667807691139
 31
0.0
 12
15.75498902977169
 22
23.58167807691139
 32
0.0
 13
15.75498902977169
 23
23.58167807691139
 33
0.0
  0
MTEXT
  5
47C7
330
47BE
100
AcDbEntity
  8
Dimensions
 62
     0
100
AcDbMText
 10
15.75498902977169
 20
23.28183760653599
 30
0.0
 40
0.125
 41
0.0
 71
     5
 72
     1
  1
\A1;1.000 [25.40]
 73
     1
 44
1.0
1001
ACAD
1000
MTEXTBEGIN
1070
    73
1070
     1
1070
    44
1040
1.0
1070
    74
1070
     0
1000
MTEXTEND
  0
POINT
  5
47C8
330
47BE
100
AcDbEntity
  8
Defpoints
 62
     0
100
AcDbPoint
 10
15.46504003442161
 20
22.58167807691137
 30
0.0
  0
POINT
  5
47C9
330
47BE
100
AcDbEntity
  8
Defpoints
 62
     0
100
AcDbPoint
 10
14.93259103907153
 20
23.58167807691139
 30
0.0
  0
POINT
  5
47CA
330
47BE
100
AcDbEntity
  8
Defpoints
 62
     0
100
AcDbPoint
 10
15.75498902977169
 20
23.58167807691139
 30
0.0
  0
ENDBLK
  5
47C0
330
47BE
100
AcDbEntity
  8
0
100
AcDbBlockEnd
  0
BLOCK
  5
47D6
330
47D5
100
AcDbEntity
  8
0
100
AcDbBlockBegin
  2
*D18
 70
     1
 10
0.0
 20
0.0
 30
0.0
  3
*D18
  1

  0
LINE
  5
47D8
330
47D5
100
AcDbEntity
  8
Dimensions
 62
     0
370
    -2
100
AcDbLine
 10
10.32759103907153
 20
23.01711037570978
 30
0.0
 11
10.32759103907153
 21
24.74900981786186
 31
0.0
  0
LINE
  5
47D9
330
47D5
100
AcDbEntity
  8
Dimensions
 62
     0
370
    -2
100
AcDbLine
 10
10.60259103907153
 20
23.64417807691138
 30
0.0
 11
10.60259103907153
 21
24.74900981786186
 31
0.0
  0
LINE
  5
47DA
330
47D5
100
AcDbEntity
  8
Dimensions
 62
     0
370
    -2
100
AcDbLine
 10
10.72759103907153
 20
24.56900981786186
 30
0.0
 11
10.85259103907153
 21
24.56900981786186
 31
0.0
  0
LINE
  5
47DB
330
47D5
100
AcDbEntity
  8
Dimensions
 62
     0
370
    -2
100
AcDbLine
 10
10.20259103907153
 20
24.56900981786186
 30
0.0
 11
10.06906194632668
 21
24.56900981786186
 31
0.0
  0
SOLID
  5
47DC
330
47D5
100
AcDbEntity
  8
Dimensions
 62
     0
100
AcDbTrace
 10
10.72759103907153
 20
24.58984315119519
 30
0.0
 11
10.72759103907153
 21
24.54817648452852
 31
0.0
 12
10.60259103907153
 22
24.56900981786186
 32
0.0
 13
10.60259103907153
 23
24.56900981786186
 33
0.0
  0
SOLID
  5
47DD
330
47D5
100
AcDbEntity
  8
Dimensions
 62
     0
100
AcDbTrace
 10
10.20259103907153
 20
24.58984315119519
 30
0.0
 11
10.20259103907153
 21
24.54817648452852
 31
0.0
 12
10.32759103907153
 22
24.56900981786186
 32
0.0
 13
10.32759103907153
 23
24.56900981786186
 33
0.0
  0
MTEXT
  5
47DE
330
47D5
100
AcDbEntity
  8
Dimensions
 62
     0
100
AcDbMText
 10
9.152367642072899
 20
24.56900981786186
 30
0.0
 40
0.125
 41
0.0
 71
     5
 72
     1
  1
\A1;0.275 [6.99]REF Only
 73
     1
 44
1.0
1001
ACAD
1000
MTEXTBEGIN
1070
    73
1070
     1
1070
    44
1040
1.0
1070
    74
1070
     0
1000
MTEXTEND
  0
POINT
  5
47DF
330
47D5
100
AcDbEntity
  8
Defpoints
 62
     0
100
AcDbPoint
 10
10.32759103907153
 20
22.95461037570978
 30
0.0
  0
POINT
  5
47E0
330
47D5
100
AcDbEntity
  8
Defpoints
 62
     0
100
AcDbPoint
 10
10.60259103907153
 20
23.58167807691138
 30
0.0
  0
POINT
  5
47E1
330
47D5
100
AcDbEntity
  8
Defpoints
 62
     0
100
AcDbPoint
 10
10.60259103907153
 20
24.56900981786186
 30
0.0
  0
ENDBLK
  5
47D7
330
47D5
100
AcDbEntity
  8
0
100
AcDbBlockEnd
  0
BLOCK
  5
4813
330
4812
100
AcDbEntity
  8
0
100
AcDbBlockBegin
  2
*D19
 70
     1
 10
0.0
 20
0.0
 30
0.0
  3
*D19
  1

  0
LINE
  5
4883
330
4812
100
AcDbEntity
  8
Dimensions
 62
     0
370
    -2
100
AcDbLine
 10
10.06542621350668
 20
31.57996777284594
 30
0.0
 11
10.1904262135067
 21
31.57996777284594
 31
0.0
  0
LINE
  5
4884
330
4812
100
AcDbEntity
  8
Dimensions
 62
     0
370
    -2
100
AcDbLine
 10
10.1904262135067
 20
31.57996777284594
 30
0.0
 11
10.36783276779699
 21
30.59265401397877
 31
0.0
  0
MTEXT
  5
4885
102
{ACAD_XDICTIONARY
360
4952
102
}
330
4812
100
AcDbEntity
  8
Dimensions
 62
     0
100
AcDbMText
 10
9.212809054169976
 20
31.57996777284594
 30
0.0
 40
0.125
 41
0.0
 71
     5
 72
     1
  1
\A1;\U+22050.177 [\U+22054.50] 2plc
 73
     1
 44
1.0
1001
ACAD
1000
MTEXTBEGIN
1070
    73
1070
     1
1070
    44
1040
1.0
1070
    74
1070
     0
1000
MTEXTEND
  0
SOLID
  5
4886
330
4812
100
AcDbEntity
  8
Dimensions
 62
     0
100
AcDbTrace
 10
10.38833770832545
 20
30.59633846667926
 30
0.0
 11
10.34732782726853
 21
30.58896956127829
 31
0.0
 12
10.38993948399989
 22
30.46962437080801
 32
0.0
 13
10.38993948399989
 23
30.46962437080801
 33
0.0
  0
LINE
  5
4887
330
4812
100
AcDbEntity
  8
Dimensions
 62
     0
370
    -2
100
AcDbLine
 10
10.31559103907154
 20
30.38251938344311
 30
0.0
 11
10.49559103907153
 21
30.38251938344311
 31
0.0
  0
LINE
  5
4888
330
4812
100
AcDbEntity
  8
Dimensions
 62
     0
370
    -2
100
AcDbLine
 10
10.40559103907154
 20
30.29251938344312
 30
0.0
 11
10.40559103907154
 21
30.47251938344312
 31
0.0
  0
POINT
  5
4889
330
4812
100
AcDbEntity
  8
Defpoints
 62
     0
100
AcDbPoint
 10
10.38993948399989
 20
30.46962437080801
 30
0.0
  0
POINT
  5
488A
330
4812
100
AcDbEntity
  8
Defpoints
 62
     0
100
AcDbPoint
 10
10.42124259414318
 20
30.29541439607821
 30
0.0
  0
ENDBLK
  5
4814
330
4812
100
AcDbEntity
  8
0
100
AcDbBlockEnd
  0
ENDSEC
  0
SECTION
  2
ENTITIES
  0
TEXT
  5
C4
330
1F
100
AcDbEntity
  8
Frame Text
100
AcDbText
 10
23.14565469060412
 20
15.52374981979023
 30
0.0
 40
0.125
  1
American Power Design
 72
     1
 11
24.05287350819604
 21
15.58624981979023
 31
0.0
100
AcDbText
 73
     2
  0
LINE
  5
C5
330
1F
100
AcDbEntity
  8
Frame
100
AcDbLine
 10
20.90284118993165
 20
15.79290611058546
 30
0.0
 11
20.90284118993165
 21
14.25774509324948
 31
0.0
  0
LINE
  5
C6
330
1F
100
AcDbEntity
  8
Frame
100
AcDbLine
 10
22.06602088383622
 20
15.79290611058546
 30
0.0
 11
22.06602088383621
 21
14.96628094740455
 31
0.0
  0
LINE
  5
C7
330
1F
100
AcDbEntity
  8
Frame
100
AcDbLine
 10
23.01073535604297
 20
15.79290611058546
 30
0.0
 11
23.01073535604297
 21
14.25774509324948
 31
0.0
  0
TEXT
  5
C8
330
1F
100
AcDbEntity
  8
Frame
100
AcDbText
 10
21.33577457121802
 20
15.66319591265739
 30
0.0
 40
0.0354267927077533
  1
SPECIFIED
 72
     1
 11
21.46511940054179
 21
15.66319591265739
 31
0.0
100
AcDbText
  0
TEXT
  5
C9
330
1F
100
AcDbEntity
  8
Frame Text
100
AcDbText
 10
23.0790613999711
 20
14.46298666494892
 30
0.0
 40
0.09
  1
1:1
100
AcDbText
  0
LINE
  5
CA
330
1F
100
AcDbEntity
  8
Frame
100
AcDbLine
 10
23.01073535604297
 20
15.37959352899501
 30
0.0
 11
25.09501166034912
 21
15.37959352899501
 31
0.0
  0
LINE
  5
CB
330
1F
100
AcDbEntity
  8
Frame
100
AcDbLine
 10
23.01073535604297
 20
14.68877107119382
 30
0.0
 11
25.09501166034912
 21
14.68877107119382
 31
0.0
  0
LINE
  5
CC
330
1F
100
AcDbEntity
  8
Frame
100
AcDbLine
 10
23.01073535604297
 20
14.39653843835806
 30
0.0
 11
25.09501166034912
 21
14.39653843835806
 31
0.0
  0
TEXT
  5
CD
330
1F
100
AcDbEntity
  8
Frame
100
AcDbText
 10
23.05159842767894
 20
15.31365051967447
 30
0.0
 40
0.0354267927077533
  1
TITLE
100
AcDbText
  0
TEXT
  5
CE
330
1F
100
AcDbEntity
  8
Frame
100
AcDbText
 10
23.04275246879646
 20
14.62421963205198
 30
0.0
 40
0.0354267927077533
  1
SCALE
100
AcDbText
  0
TEXT
  5
CF
330
1F
100
AcDbEntity
  8
Frame
100
AcDbText
 10
23.07735577854264
 20
14.30745082933667
 30
0.0
 40
0.0354267927077533
  1
SHEET       OF       
100
AcDbText
  0
LINE
  5
D0
330
1F
100
AcDbEntity
  8
Frame
100
AcDbLine
 10
20.90284118993165
 20
14.96628094740455
 30
0.0
 11
23.01073535604297
 21
14.96628094740455
 31
0.0
  0
LINE
  5
D1
330
1F
100
AcDbEntity
  8
Frame
100
AcDbLine
 10
20.90284118993165
 20
14.61201302032702
 30
0.0
 11
23.01073535604297
 21
14.61201302032702
 31
0.0
  0
TEXT
  5
D4
330
1F
100
AcDbEntity
  8
Frame
100
AcDbText
 10
21.01657725014756
 20
15.56224539192031
 30
0.0
 40
0.0354267927077533
  1
DIMENSIONS IN INCHES [MM]
100
AcDbText
  0
TEXT
  5
D5
330
1F
100
AcDbEntity
  8
Frame
100
AcDbText
 10
21.01657725014756
 20
15.38026449032679
 30
0.0
 40
0.0354267927077533
  1
TOLERANCES
100
AcDbText
  0
TEXT
  5
D6
330
1F
100
AcDbEntity
  8
Frame
100
AcDbText
 10
20.98587656932011
 20
15.24508943887343
 30
0.0
 40
0.0354267927077533
  1
FRAC =                           .XX =
100
AcDbText
  0
TEXT
  5
D7
330
1F
100
AcDbEntity
  8
Frame
100
AcDbText
 10
20.98769779614886
 20
15.0890937864206
 30
0.0
 40
0.0354267927077533
  1
.XXX =                        ANGLE =
100
AcDbText
  0
TEXT
  5
D8
330
1F
100
AcDbEntity
  8
Frame
100
AcDbText
 10
20.93720945795885
 20
14.90008337829608
 30
0.0
 40
0.0354267927077533
  1
MATERIAL
100
AcDbText
  0
TEXT
  5
D9
330
1F
100
AcDbEntity
  8
Frame
100
AcDbText
 10
20.93720945795885
 20
14.55083118539696
 30
0.0
 40
0.0354267927077533
  1
FINISH
100
AcDbText
  0
LINE
  5
DA
330
1F
100
AcDbEntity
  8
Frame
100
AcDbLine
 10
22.06602088383621
 20
15.09913142005863
 30
0.0
 11
23.01073535604297
 21
15.09913142005863
 31
0.0
  0
LINE
  5
DB
330
1F
100
AcDbEntity
  8
Frame
100
AcDbLine
 10
22.06602088383621
 20
15.2319818927127
 30
0.0
 11
23.01073535604297
 21
15.2319818927127
 31
0.0
  0
LINE
  5
DC
330
1F
100
AcDbEntity
  8
Frame
100
AcDbLine
 10
22.06602088383621
 20
15.36483236536678
 30
0.0
 11
23.01073535604297
 21
15.36483236536678
 31
0.0
  0
LINE
  5
DD
330
1F
100
AcDbEntity
  8
Frame
100
AcDbLine
 10
22.06602088383622
 20
15.49768283802085
 30
0.0
 11
23.01073535604297
 21
15.49768283802085
 31
0.0
  0
LINE
  5
DE
330
1F
100
AcDbEntity
  8
Frame
100
AcDbLine
 10
22.06602088383622
 20
15.63053331067493
 30
0.0
 11
23.01073535604297
 21
15.63053331067493
 31
0.0
  0
TEXT
  5
DF
330
1F
100
AcDbEntity
  8
Frame
100
AcDbText
 10
22.08688918723925
 20
15.40951418484498
 30
0.0
 40
0.0354267927077533
  1
DWN
100
AcDbText
  0
TEXT
  5
E0
330
1F
100
AcDbEntity
  8
Frame
100
AcDbText
 10
22.09100437195256
 20
15.27697423394262
 30
0.0
 40
0.0354267927077533
  1
CHK
100
AcDbText
  0
TEXT
  5
E1
330
1F
100
AcDbEntity
  8
Frame
100
AcDbText
 10
22.09100437195256
 20
15.14883134302279
 30
0.0
 40
0.0354267927077533
  1
CH DR
100
AcDbText
  0
TEXT
  5
E2
330
1F
100
AcDbEntity
  8
Frame
100
AcDbText
 10
22.09563395475503
 20
15.04393005486784
 30
0.0
 40
0.0354267927077533
  1
COG
100
AcDbText
  0
TEXT
  5
E3
330
1F
100
AcDbEntity
  8
Frame
100
AcDbText
 10
22.09563395475503
 20
14.98488540035492
 30
0.0
 40
0.0354267927077533
  1
ENG
100
AcDbText
  0
TEXT
  5
E4
330
1F
100
AcDbEntity
  8
Frame
100
AcDbText
 10
22.30499397704457
 20
15.53702892433873
 30
0.0
 40
0.0531401890616299
  1
APPROVAL
100
AcDbText
  0
TEXT
  5
E5
330
1F
100
AcDbEntity
  8
Frame
100
AcDbText
 10
22.85848632098448
 20
15.01661612971745
 30
0.0
 40
0.0354267927077533
  1
DATE
100
AcDbText
  0
TEXT
  5
E6
330
1F
100
AcDbEntity
  8
Frame
100
AcDbText
 10
22.85848632098448
 20
15.28231707502561
 30
0.0
 40
0.0354267927077533
  1
DATE
100
AcDbText
  0
TEXT
  5
E7
330
1F
100
AcDbEntity
  8
Frame
100
AcDbText
 10
22.85848632098448
 20
15.14946660237153
 30
0.0
 40
0.0354267927077533
  1
DATE
100
AcDbText
  0
TEXT
  5
E8
330
1F
100
AcDbEntity
  8
Frame
100
AcDbText
 10
22.85848632098448
 20
15.41516754767968
 30
0.0
 40
0.0354267927077533
  1
DATE
100
AcDbText
  0
TEXT
  5
EA
330
1F
100
AcDbEntity
  8
Frame Text
100
AcDbText
 10
23.26398723443223
 20
14.28250764928295
 30
0.0
 40
0.1
  1
1  1
100
AcDbText
  0
LINE
  5
EB
330
1F
100
AcDbEntity
  8
Frame
100
AcDbLine
 10
23.30595862860759
 20
14.68877107119382
 30
0.0
 11
23.30595862860759
 21
14.39653843835806
 31
0.0
  0
TEXT
  5
EC
330
1F
100
AcDbEntity
  8
Frame Text
100
AcDbText
 10
23.38124048368212
 20
14.42330044688526
 30
0.0
 40
0.1476116362823053
  1
D
100
AcDbText
  0
TEXT
  5
ED
330
1F
100
AcDbEntity
  8
Frame
100
AcDbText
 10
23.60681243518548
 20
14.62453734213845
 30
0.0
 40
0.0354267927077533
  1
FILE
100
AcDbText
  0
LINE
  5
EE
330
1F
100
AcDbEntity
  8
Frame
100
AcDbLine
 10
23.57165957391574
 20
14.68877107119382
 30
0.0
 11
23.57165957391573
 21
14.39653843835806
 31
0.0
  0
LINE
  5
EF
330
1F
100
AcDbEntity
  8
Frame
100
AcDbLine
 10
24.15029718814237
 20
14.39653843835806
 30
0.0
 11
24.15029718814237
 21
14.25774509324948
 31
0.0
  0
TEXT
  5
F0
330
1F
100
AcDbEntity
  8
Frame
100
AcDbText
 10
24.31032634160427
 20
14.30745082933667
 30
0.0
 40
0.0354267927077533
  1
DO NOT SCALE PRINT
100
AcDbText
  0
TEXT
  5
F1
330
1F
100
AcDbEntity
  8
Frame
100
AcDbText
 10
24.7240549230465
 20
14.62421963205198
 30
0.0
 40
0.0354267927077533
  1
REV.
100
AcDbText
  0
LINE
  5
F2
330
1F
100
AcDbEntity
  8
Frame
100
AcDbLine
 10
24.68458066310641
 20
14.68877107119382
 30
0.0
 11
24.68458066310641
 21
14.39653843835806
 31
0.0
  0
LINE
  5
F3
330
1F
100
AcDbEntity
  8
Frame
100
AcDbLine
 10
20.90284118993166
 20
15.79290611058546
 30
0.0
 11
25.09501166034912
 21
15.79290611058546
 31
0.0
  0
TEXT
  5
F4
330
1F
100
AcDbEntity
  8
Frame
100
AcDbText
 10
22.09100437195256
 20
15.70914241508398
 30
0.0
 40
0.0531401890616299
  1
STANDARD
100
AcDbText
  0
TEXT
  5
F5
330
1F
100
AcDbEntity
  8
Frame
100
AcDbText
 10
21.23051939128113
 20
15.72514937951748
 30
0.0
 40
0.0354267927077533
  1
UNLESS OTHERWISE
 72
     1
 11
21.48697412248675
 21
15.72514937951748
 31
0.0
100
AcDbText
  0
TEXT
  5
F6
330
1F
100
AcDbEntity
  8
Frame Text
100
AcDbText
 10
21.20550430465969
 20
15.07868665595082
 30
0.0
 40
0.05
  1
%%p.005
100
AcDbText
  0
TEXT
  5
F7
330
1F
100
AcDbEntity
  8
Frame Text
100
AcDbText
 10
24.72573099654184
 20
14.46219984644136
 30
0.0
 40
0.12
  1
A-01
100
AcDbText
  0
TEXT
  5
126
330
1F
100
AcDbEntity
  8
Frame Text
100
AcDbText
 10
23.47608908137557
 20
14.97168230009441
 30
0.0
 40
0.125
  1
Q2 Dimensions
 72
     1
 11
24.05287350819604
 21
15.03418230009441
 31
0.0
100
AcDbText
 73
     2
  0
TEXT
  5
4C9
330
1F
100
AcDbEntity
  8
Frame Text
100
AcDbText
 10
21.73867674993779
 20
15.24010493015766
 30
0.0
 40
0.05
  1
%%p.05
100
AcDbText
  0
TEXT
  5
4D0
330
1F
100
AcDbEntity
  8
Frame Text
100
AcDbText
 10
21.22004135131342
 20
15.23563684997264
 30
0.0
 40
0.05
  1
%%p1/64
100
AcDbText
  0
TEXT
  5
4D9
330
1F
100
AcDbEntity
  8
Frame Text
100
AcDbText
 10
21.80742742591808
 20
15.08020101367241
 30
0.0
 40
0.05
  1
%%p1°0
100
AcDbText
  0
TEXT
  5
4DB
330
1F
100
AcDbEntity
  8
Frame
100
AcDbText
 10
23.33599049626982
 20
14.62421963205198
 30
0.0
 40
0.0354267927077533
  1
SIZE
100
AcDbText
  0
MTEXT
  5
584
330
1F
100
AcDbEntity
  8
Dimensions
100
AcDbMText
 10
23.07651617398262
 20
18.25069142187141
 30
0.0
 40
0.125
 41
0.0
 71
     1
 72
     1
  1
\A1;
 73
     1
 44
1.0
1001
ACAD
1000
MTEXTBEGIN
1070
    73
1070
     1
1070
    44
1040
1.0
1070
    74
1070
     0
1000
MTEXTEND
  0
TEXT
  5
5DF
330
1F
100
AcDbEntity
  8
Frame Text
100
AcDbText
 10
23.8377289532238
 20
14.48221210056722
 30
0.0
 40
0.1
  1
q2_cadd
100
AcDbText
  0
TEXT
  5
5EC
330
1F
100
AcDbEntity
  8
Frame Text
100
AcDbText
 10
22.37043794287852
 20
15.27363874704074
 30
0.0
 40
0.05
  1
ON FILE
100
AcDbText
  0
LINE
  5
12DF
330
1F
100
AcDbEntity
  8
Frame
100
AcDbLine
 10
25.09501166034911
 20
33.18426216154247
 30
0.0
 11
25.09501166034912
 21
14.25774509324949
 31
0.0
  0
LINE
  5
1413
330
1F
100
AcDbEntity
  8
Frame
100
AcDbLine
 10
25.09501166034912
 20
14.25774509324949
 30
0.0
 11
0.7729712681873624
 21
14.25774509324949
 31
0.0
  0
LINE
  5
1414
330
1F
100
AcDbEntity
  8
Frame
100
AcDbLine
 10
0.7729712681873624
 20
14.25774509324949
 30
0.0
 11
0.7729712681873635
 21
33.18426216154247
 31
0.0
  0
LINE
  5
1415
330
1F
100
AcDbEntity
  8
Frame
100
AcDbLine
 10
0.7729712681873635
 20
33.18426216154247
 30
0.0
 11
25.09501166034911
 21
33.18426216154247
 31
0.0
  0
TEXT
  5
42F6
330
1F
100
AcDbEntity
  8
Frame Text
100
AcDbText
 10
22.36820058904633
 20
15.41076363719995
 30
0.0
 40
0.05
  1
ON FILE
100
AcDbText
  0
LINE
  5
45A4
330
1F
100
AcDbEntity
  8
Converter
100
AcDbLine
 10
10.60259103907154
 20
30.77751938344311
 30
0.0
 11
14.93259103907153
 21
30.77751938344309
 31
0.0
  0
LINE
  5
45A5
330
1F
100
AcDbEntity
  8
Converter
100
AcDbLine
 10
14.93259103907153
 20
27.8775193834431
 30
0.0
 11
10.60259103907153
 21
27.87751938344309
 31
0.0
  0
LINE
  5
45A6
102
{ACAD_REACTORS
330
4661
102
}
330
1F
100
AcDbEntity
  8
Converter
100
AcDbLine
 10
10.60259103907153
 20
27.87751938344309
 30
0.0
 11
10.60259103907154
 21
30.77751938344312
 31
0.0
  0
LINE
  5
45A7
330
1F
100
AcDbEntity
  8
Converter
100
AcDbLine
 10
10.60259103907153
 20
23.58167807691138
 30
0.0
 11
14.93259103907153
 21
23.58167807691139
 31
0.0
  0
LINE
  5
45A8
102
{ACAD_REACTORS
330
45BA
102
}
330
1F
100
AcDbEntity
  8
Converter
100
AcDbLine
 10
10.60259103907153
 20
23.58167807691138
 30
0.0
 11
10.60259103907153
 21
22.5816780769114
 31
0.0
  0
LINE
  5
45A9
102
{ACAD_REACTORS
330
45B6
102
}
330
1F
100
AcDbEntity
  8
Converter
100
AcDbLine
 10
14.93259103907153
 20
23.58167807691139
 30
0.0
 11
14.93259103907153
 21
22.58167807691137
 31
0.0
  0
DIMENSION
  5
45AA
330
1F
100
AcDbEntity
  8
Dimensions
100
AcDbDimension
  2
*D7
 10
14.93259103907153
 20
24.56900981786186
 30
0.0
 11
12.725595725445
 21
24.56900981786186
 31
0.0
 70
   160
 71
     5
 42
4.330000000000001
  3
Standard
100
AcDbAlignedDimension
 13
10.60259103907153
 23
23.68167807691138
 33
0.0
 14
14.93259103907153
 24
23.58167807691139
 34
0.0
100
AcDbRotatedDimension
  0
LINE
  5
45AB
330
1F
100
AcDbEntity
  8
Converter
100
AcDbLine
 10
10.20759103907153
 20
22.5816780769114
 30
0.0
 11
15.32759103907153
 21
22.58167807691137
 31
0.0
  0
LINE
  5
45AC
330
1F
100
AcDbEntity
  8
Converter
100
AcDbLine
 10
4.213704842360169
 20
23.58167807691138
 30
0.0
 11
4.213704842360161
 21
22.58167807691139
 31
0.0
  0
LINE
  5
45AD
330
1F
100
AcDbEntity
  8
Converter
100
AcDbLine
 10
4.213704842360161
 20
22.58167807691139
 30
0.0
 11
7.113704842360162
 21
22.58167807691139
 31
0.0
  0
LINE
  5
45AE
330
1F
100
AcDbEntity
  8
Converter
100
AcDbLine
 10
7.113704842360162
 20
22.58167807691139
 30
0.0
 11
7.11370484236016
 21
23.58167807691139
 31
0.0
  0
LINE
  5
45AF
330
1F
100
AcDbEntity
  8
Construction
100
AcDbLine
 10
14.93259103907153
 20
30.77751938344309
 30
0.0
 11
14.93259103907153
 21
27.8775193834431
 31
0.0
  0
LINE
  5
45B0
330
1F
100
AcDbEntity
  8
Converter
100
AcDbLine
 10
14.93259103907153
 20
30.77751938344309
 30
0.0
 11
14.93259103907153
 21
27.8775193834431
 31
0.0
  0
LINE
  5
45B1
330
1F
100
AcDbEntity
  8
Converter
100
AcDbLine
 10
5.102204842360162
 20
23.02971141731291
 30
0.0
 11
6.225204842360161
 21
23.0297114173129
 31
0.0
  0
LINE
  5
45B2
330
1F
100
AcDbEntity
  8
Converter
100
AcDbLine
 10
4.976204842360161
 20
22.95461037570978
 30
0.0
 11
5.102204842360162
 21
22.95461037570978
 31
0.0
  0
LINE
  5
45B3
330
1F
100
AcDbEntity
  8
Converter
100
AcDbLine
 10
6.225204842360163
 20
22.95461037570978
 30
0.0
 11
6.351204842360163
 21
22.95461037570978
 31
0.0
  0
DIMENSION
  5
45B4
102
{ACAD_XDICTIONARY
360
45B5
102
}
102
{ACAD_REACTORS
330
45B6
102
}
330
1F
100
AcDbEntity
  8
Dimensions
100
AcDbDimension
  2
*D17
 10
15.75498902977169
 20
23.58167807691139
 30
0.0
 11
15.75498902977169
 21
23.28183760653599
 31
0.0
 70
   160
 71
     5
 42
1.000000000000021
  3
Standard
100
AcDbAlignedDimension
 13
15.46504003442161
 23
22.58167807691137
 33
0.0
 14
14.93259103907153
 24
23.58167807691139
 34
0.0
 50
90.0
100
AcDbRotatedDimension
  0
DIMENSION
  5
45B7
330
1F
100
AcDbEntity
  8
Dimensions
100
AcDbDimension
  2
*D8
 10
7.11370484236016
 20
24.01855482971208
 30
0.0
 11
5.891173323646526
 21
24.01855482971208
 31
0.0
 70
   160
 71
     5
 42
2.899999999999991
  3
Standard
100
AcDbAlignedDimension
 13
4.213704842360169
 23
23.58167807691138
 33
0.0
 14
7.11370484236016
 24
23.58167807691139
 34
0.0
100
AcDbRotatedDimension
  0
DIMENSION
  5
45B8
102
{ACAD_XDICTIONARY
360
45B9
102
}
102
{ACAD_REACTORS
330
45BA
102
}
330
1F
100
AcDbEntity
  8
Dimensions
100
AcDbDimension
  2
*D18
 10
10.60259103907153
 20
24.56900981786186
 30
0.0
 11
9.152367642072899
 21
24.56900981786186
 31
0.0
 70
   160
  1
<>REF Only
 71
     5
 42
0.2749999999999968
  3
Standard
100
AcDbAlignedDimension
 13
10.32759103907153
 23
22.95461037570978
 33
0.0
 14
10.60259103907153
 24
23.58167807691138
 34
0.0
100
AcDbRotatedDimension
  0
LINE
  5
45BB
330
1F
100
AcDbEntity
  8
Converter
100
AcDbLine
 10
10.60259103907154
 20
30.0150193834431
 30
0.0
 11
10.32759103907153
 21
30.0150193834431
 31
0.0
  0
LINE
  5
45BC
330
1F
100
AcDbEntity
  8
Converter
100
AcDbLine
 10
10.43959103907154
 20
29.88901938344309
 30
0.0
 11
10.43959103907153
 21
28.76601938344311
 31
0.0
  0
MTEXT
  5
45BD
102
{ACAD_XDICTIONARY
360
45BE
102
}
330
1F
100
AcDbEntity
  8
Dimensions
100
AcDbMText
 10
7.852454735653466
 20
23.98590559156078
 30
0.0
 40
0.125
 41
0.0
 71
     9
 72
     1
  1
\A1;INTERNAL POT
 73
     1
 44
1.0
1001
ACAD
1000
MTEXTBEGIN
1070
    73
1070
     1
1070
    44
1040
1.0
1070
    74
1070
     0
1000
MTEXTEND
  0
LEADER
  5
45BF
330
1F
100
AcDbEntity
  8
Dimensions
100
AcDbLeader
  3
Standard
 76
     3
 10
6.994930092212634
 20
23.16159137223732
 30
0.0
 10
7.544930092212629
 20
24.05474904075939
 30
0.0
 10
7.801882035220193
 20
24.05474904075939
 30
0.0
211
-1.0
221
0.0
231
0.0
213
-0.0099549141559443
223
-0.0661784013801707
233
0.0
1001
ACAD
1000
DSTYLE
1002
{
1070
   147
1040
0.09
1070
    77
1070
     0
1002
}
  0
LINE
  5
45C0
330
1F
100
AcDbEntity
  8
Converter
100
AcDbLine
 10
4.976204842360161
 20
22.6526780769114
 30
0.0
 11
6.351204842360163
 21
22.6526780769114
 31
0.0
  0
LINE
  5
45C1
330
1F
100
AcDbEntity
  8
Converter
100
AcDbLine
 10
10.60259103907153
 20
22.95470076798219
 30
0.0
 11
10.37181421237034
 21
22.95462491183025
 31
0.0
  0
LINE
  5
45C2
330
1F
100
AcDbEntity
  8
Converter
100
AcDbLine
 10
10.42902239120258
 20
23.0297114173129
 30
0.0
 11
10.35362997103771
 21
22.98595995521052
 31
0.0
  0
LINE
  5
45C3
330
1F
100
AcDbEntity
  8
Converter
100
AcDbLine
 10
10.35362997103771
 20
22.98595995521052
 30
0.0
 11
10.37181421237034
 21
22.95462491183025
 31
0.0
  0
LINE
  5
45C4
330
1F
100
AcDbEntity
  8
Converter
100
AcDbLine
 10
5.102204842360162
 20
22.98595995521052
 30
0.0
 11
6.225204842360163
 21
22.98595995521052
 31
0.0
  0
LINE
  5
45C5
330
1F
100
AcDbEntity
  8
Converter
100
AcDbLine
 10
10.43959103907154
 20
28.95715141474433
 30
0.0
 11
10.38850331503942
 21
28.95715141474433
 31
0.0
  0
LINE
  5
45C6
330
1F
100
AcDbEntity
  8
Converter
100
AcDbLine
 10
10.38850331503942
 20
28.95715141474433
 30
0.0
 11
10.37459103907154
 21
28.94190294519003
 31
0.0
  0
LINE
  5
45C7
330
1F
100
AcDbEntity
  8
Converter
100
AcDbLine
 10
10.37459103907154
 20
28.94190294519003
 30
0.0
 11
10.37459103907154
 21
28.93242384647602
 31
0.0
  0
LINE
  5
45C8
330
1F
100
AcDbEntity
  8
Converter
100
AcDbLine
 10
10.37459103907154
 20
28.93242384647602
 30
0.0
 11
10.38850331503942
 21
28.91717537692173
 31
0.0
  0
LINE
  5
45C9
330
1F
100
AcDbEntity
  8
Converter
100
AcDbLine
 10
10.38850331503942
 20
28.91717537692173
 30
0.0
 11
10.43959103907154
 21
28.91717537692173
 31
0.0
  0
LINE
  5
45CA
330
1F
100
AcDbEntity
  8
Converter
100
AcDbLine
 10
10.43959103907154
 20
29.11315141474432
 30
0.0
 11
10.38850331503942
 21
29.11315141474432
 31
0.0
  0
LINE
  5
45CB
330
1F
100
AcDbEntity
  8
Converter
100
AcDbLine
 10
10.38850331503942
 20
29.11315141474432
 30
0.0
 11
10.37459103907154
 21
29.09790294519003
 31
0.0
  0
LINE
  5
45CC
330
1F
100
AcDbEntity
  8
Converter
100
AcDbLine
 10
10.37459103907154
 20
29.09790294519003
 30
0.0
 11
10.37459103907154
 21
29.08842384647602
 31
0.0
  0
LINE
  5
45CD
330
1F
100
AcDbEntity
  8
Converter
100
AcDbLine
 10
10.37459103907154
 20
29.08842384647602
 30
0.0
 11
10.38850331503942
 21
29.07317537692172
 31
0.0
  0
LINE
  5
45CE
330
1F
100
AcDbEntity
  8
Converter
100
AcDbLine
 10
10.38850331503942
 20
29.07317537692172
 30
0.0
 11
10.43959103907154
 21
29.07317537692172
 31
0.0
  0
LINE
  5
45CF
330
1F
100
AcDbEntity
  8
Converter
100
AcDbLine
 10
10.43959103907154
 20
29.26915141474432
 30
0.0
 11
10.38850331503942
 21
29.26915141474432
 31
0.0
  0
LINE
  5
45D0
330
1F
100
AcDbEntity
  8
Converter
100
AcDbLine
 10
10.38850331503942
 20
29.26915141474432
 30
0.0
 11
10.37459103907154
 21
29.25390294519003
 31
0.0
  0
LINE
  5
45D1
330
1F
100
AcDbEntity
  8
Converter
100
AcDbLine
 10
10.37459103907154
 20
29.25390294519003
 30
0.0
 11
10.37459103907154
 21
29.24442384647602
 31
0.0
  0
LINE
  5
45D2
330
1F
100
AcDbEntity
  8
Converter
100
AcDbLine
 10
10.37459103907154
 20
29.24442384647602
 30
0.0
 11
10.38850331503942
 21
29.22917537692173
 31
0.0
  0
LINE
  5
45D3
330
1F
100
AcDbEntity
  8
Converter
100
AcDbLine
 10
10.38850331503942
 20
29.22917537692173
 30
0.0
 11
10.43959103907154
 21
29.22917537692173
 31
0.0
  0
LINE
  5
45D4
330
1F
100
AcDbEntity
  8
Converter
100
AcDbLine
 10
10.43959103907154
 20
29.42586338996443
 30
0.0
 11
10.38850331503942
 21
29.42586338996443
 31
0.0
  0
LINE
  5
45D5
330
1F
100
AcDbEntity
  8
Converter
100
AcDbLine
 10
10.38850331503942
 20
29.42586338996443
 30
0.0
 11
10.37459103907154
 21
29.41061492041013
 31
0.0
  0
LINE
  5
45D6
330
1F
100
AcDbEntity
  8
Converter
100
AcDbLine
 10
10.37459103907154
 20
29.41061492041013
 30
0.0
 11
10.37459103907154
 21
29.40113582169612
 31
0.0
  0
LINE
  5
45D7
330
1F
100
AcDbEntity
  8
Converter
100
AcDbLine
 10
10.37459103907154
 20
29.40113582169612
 30
0.0
 11
10.38850331503942
 21
29.38588735214183
 31
0.0
  0
LINE
  5
45D8
330
1F
100
AcDbEntity
  8
Converter
100
AcDbLine
 10
10.38850331503942
 20
29.38588735214183
 30
0.0
 11
10.43959103907154
 21
29.38588735214183
 31
0.0
  0
LINE
  5
45D9
330
1F
100
AcDbEntity
  8
Converter
100
AcDbLine
 10
10.43959103907154
 20
29.58115141474432
 30
0.0
 11
10.38850331503942
 21
29.58115141474432
 31
0.0
  0
LINE
  5
45DA
330
1F
100
AcDbEntity
  8
Converter
100
AcDbLine
 10
10.38850331503942
 20
29.58115141474432
 30
0.0
 11
10.37459103907154
 21
29.56590294519003
 31
0.0
  0
LINE
  5
45DB
330
1F
100
AcDbEntity
  8
Converter
100
AcDbLine
 10
10.37459103907154
 20
29.56590294519003
 30
0.0
 11
10.37459103907154
 21
29.55642384647602
 31
0.0
  0
LINE
  5
45DC
330
1F
100
AcDbEntity
  8
Converter
100
AcDbLine
 10
10.37459103907154
 20
29.55642384647602
 30
0.0
 11
10.38850331503942
 21
29.54117537692172
 31
0.0
  0
LINE
  5
45DD
330
1F
100
AcDbEntity
  8
Converter
100
AcDbLine
 10
10.38850331503942
 20
29.54117537692172
 30
0.0
 11
10.43959103907154
 21
29.54117537692172
 31
0.0
  0
LINE
  5
45DE
330
1F
100
AcDbEntity
  8
Converter
100
AcDbLine
 10
10.43959103907154
 20
29.73715141474432
 30
0.0
 11
10.38850331503942
 21
29.73715141474432
 31
0.0
  0
LINE
  5
45DF
330
1F
100
AcDbEntity
  8
Converter
100
AcDbLine
 10
10.38850331503942
 20
29.73715141474432
 30
0.0
 11
10.37459103907154
 21
29.72190294519002
 31
0.0
  0
LINE
  5
45E0
330
1F
100
AcDbEntity
  8
Converter
100
AcDbLine
 10
10.37459103907154
 20
29.72190294519002
 30
0.0
 11
10.37459103907154
 21
29.71242384647601
 31
0.0
  0
LINE
  5
45E1
330
1F
100
AcDbEntity
  8
Converter
100
AcDbLine
 10
10.37459103907154
 20
29.71242384647601
 30
0.0
 11
10.38850331503942
 21
29.69717537692172
 31
0.0
  0
LINE
  5
45E2
330
1F
100
AcDbEntity
  8
Converter
100
AcDbLine
 10
10.38850331503942
 20
29.69717537692172
 30
0.0
 11
10.43959103907154
 21
29.69717537692171
 31
0.0
  0
LINE
  5
45E3
330
1F
100
AcDbEntity
  8
Converter
100
AcDbLine
 10
10.60259103907153
 20
29.89315141474432
 30
0.0
 11
10.38850331503942
 21
29.89315141474432
 31
0.0
  0
LINE
  5
45E4
330
1F
100
AcDbEntity
  8
Converter
100
AcDbLine
 10
10.38850331503942
 20
29.89315141474432
 30
0.0
 11
10.37459103907154
 21
29.87790294519002
 31
0.0
  0
LINE
  5
45E5
330
1F
100
AcDbEntity
  8
Converter
100
AcDbLine
 10
10.37459103907154
 20
29.87790294519002
 30
0.0
 11
10.37459103907154
 21
29.86842384647601
 31
0.0
  0
LINE
  5
45E6
330
1F
100
AcDbEntity
  8
Converter
100
AcDbLine
 10
10.37459103907154
 20
29.86842384647601
 30
0.0
 11
10.38850331503942
 21
29.85317537692172
 31
0.0
  0
LINE
  5
45E7
330
1F
100
AcDbEntity
  8
Converter
100
AcDbLine
 10
10.38850331503942
 20
29.85317537692172
 30
0.0
 11
10.43959103907154
 21
29.85317537692172
 31
0.0
  0
LINE
  5
45E8
330
1F
100
AcDbEntity
  8
Converter
100
AcDbLine
 10
6.351204842360161
 20
22.95461037570978
 30
0.0
 11
6.351204842360163
 21
22.6526780769114
 31
0.0
  0
POINT
  5
45E9
330
1F
100
AcDbEntity
  8
Label
100
AcDbPoint
 10
11.10908530340707
 20
30.29080985205629
 30
0.0
  0
ELLIPSE
  5
45EA
330
1F
100
AcDbEntity
  8
Label
100
AcDbEllipse
 10
13.34803215204284
 20
29.97296930420278
 30
0.0
 11
-0.2857227911163812
 21
0.0000000000000001
 31
0.0
210
0.0
220
0.0
230
1.0
 40
0.390624957860979
 41
0.0
 42
6.283185307179586
  0
ELLIPSE
  5
45EB
330
1F
100
AcDbEntity
  8
Label
100
AcDbEllipse
 10
13.34803215204284
 20
29.97296930420278
 30
0.0
 11
0.1428613955581909
 21
0.2474431955469809
 31
0.0
210
0.0
220
0.0
230
0.9999999999999996
 40
0.390624957860979
 41
0.0
 42
6.283185307179586
  0
ELLIPSE
  5
45EC
330
1F
100
AcDbEntity
  8
Label
100
AcDbEllipse
 10
13.34803215204284
 20
29.97296930420278
 30
0.0
 11
0.1428613955581908
 21
-0.2474431955469809
 31
0.0
210
0.0
220
0.0
230
-1.0
 40
0.390624957860979
 41
0.0
 42
6.283185307179586
  0
TEXT
  5
45ED
330
1F
100
AcDbEntity
  8
Label
100
AcDbText
 10
13.43193265391851
 20
29.40161335574717
 30
0.0
 40
0.12
  1
American
 50
270.0
100
AcDbText
  0
TEXT
  5
45EE
330
1F
100
AcDbEntity
  8
Label
100
AcDbText
 10
13.23156323775632
 20
29.55709264987866
 30
0.0
 40
0.12
  1
Power Design
 50
270.0
100
AcDbText
  0
LINE
  5
45EF
330
1F
100
AcDbEntity
  8
Label
100
AcDbLine
 10
13.37559497122725
 20
29.59896529284979
 30
0.0
 11
13.37559497122725
 21
28.53557365321026
 31
0.0
  0
TEXT
  5
45F0
330
1F
100
AcDbEntity
  8
Label
100
AcDbText
 10
12.41112226072191
 20
29.80487132164381
 30
0.0
 40
0.1325374115354324
  1
MODEL NO
 50
270.0
 72
     1
 11
12.41112226072191
 21
29.29120523966203
 31
0.0
100
AcDbText
  0
TEXT
  5
45F1
330
1F
100
AcDbEntity
  8
Label
100
AcDbText
 10
12.22162271147199
 20
29.76913392589625
 30
0.0
 40
0.0994030586515743
  1
MADE IN USA
 50
270.0
 72
     1
 11
12.22162271147199
 21
29.29211391264111
 31
0.0
100
AcDbText
  0
LINE
  5
45F2
330
1F
100
AcDbEntity
  8
Label
100
AcDbLine
 10
11.19362558916626
 20
30.31362231011828
 30
0.0
 11
13.72159925186566
 21
30.31362231011828
 31
0.0
  0
ARC
  5
45F3
330
1F
100
AcDbEntity
  8
Label
100
AcDbCircle
 10
11.19362558916626
 20
30.20626956629708
 30
0.0
 40
0.1073527438211956
100
AcDbArc
 50
90.0
 51
180.0
  0
LINE
  5
45F4
330
1F
100
AcDbEntity
  8
Label
100
AcDbLine
 10
13.82529157085776
 20
30.23406371294671
 30
0.0
 11
13.82529157085776
 21
28.42097505393948
 31
0.0
  0
ARC
  5
45F5
330
1F
100
AcDbEntity
  8
Label
100
AcDbCircle
 10
13.72159925186566
 20
30.20626956629708
 30
0.0
 40
0.1073527438211956
100
AcDbArc
 50
0.0
 51
90.0
  0
LINE
  5
45F6
330
1F
100
AcDbEntity
  8
Label
100
AcDbLine
 10
13.71793882703655
 20
28.31362231011829
 30
0.0
 11
11.18996516433716
 21
28.31362231011829
 31
0.0
  0
ARC
  5
45F7
330
1F
100
AcDbEntity
  8
Label
100
AcDbCircle
 10
13.71793882703655
 20
28.42097505393948
 30
0.0
 40
0.1073527438211956
100
AcDbArc
 50
270.0
 51
0.0
  0
LINE
  5
45F8
330
1F
100
AcDbEntity
  8
Label
100
AcDbLine
 10
11.08261242051596
 20
28.42097505393948
 30
0.0
 11
11.08261242051596
 21
30.20626956629708
 31
0.0
  0
ARC
  5
45F9
330
1F
100
AcDbEntity
  8
Label
100
AcDbCircle
 10
11.18996516433716
 20
28.42097505393948
 30
0.0
 40
0.1073527438211956
100
AcDbArc
 50
180.0
 51
270.0
  0
TEXT
  5
45FA
330
1F
100
AcDbEntity
  8
Label
100
AcDbText
 10
11.72159931383396
 20
30.15687432975474
 30
0.0
 40
0.1069951848701573
  1
RoHS
 50
270.0
100
AcDbText
  0
LWPOLYLINE
  5
45FB
330
1F
100
AcDbEntity
  8
Label
100
AcDbPolyline
 90
        2
 70
     0
 43
0.0
 10
12.02493632631856
 20
29.939898519422
 10
12.02493632631856
 20
30.01027192898168
  0
LWPOLYLINE
  5
45FC
330
1F
100
AcDbEntity
  8
Label
100
AcDbPolyline
 90
        3
 70
     0
 43
0.0
 10
12.02493632631856
 20
30.02529636281564
 10
12.02493632631856
 20
30.05451544637988
 10
11.99581968995659
 20
30.05451544637988
  0
LWPOLYLINE
  5
45FD
330
1F
100
AcDbEntity
  8
Label
100
AcDbPolyline
 90
        4
 70
     0
 43
0.0
 10
11.98386207181392
 20
30.05451544637988
 10
11.88446026671199
 20
30.05451544637988
 10
11.88446026671199
 20
29.90561550414526
 10
12.00788532900946
 20
29.90561550414526
  0
HATCH
  5
45FE
330
1F
100
AcDbEntity
  8
Label
100
AcDbHatch
 10
0.0
 20
0.0
 30
0.0
210
0.0
220
0.0
230
1.0
  2
SOLID
 70
     1
 71
     0
 91
        1
 92
        5
 93
        7
 72
     4
 94
        3
 73
     0
 74
     0
 95
        9
 96
        5
 40
0.0
 40
0.0
 40
0.0
 40
0.0
 40
0.0704524454409727
 40
0.1586907208356927
 40
0.1586907208356927
 40
0.1586907208356927
 40
0.1586907208356927
 10
11.89598388365868
 20
29.97349786528232
 10
11.93041057074212
 20
29.96113633783366
 10
12.00795501586483
 20
29.9332925960135
 10
12.03585494612595
 20
29.85455992418952
 10
12.05136840347814
 20
29.81078146542151
 72
     4
 94
        3
 73
     0
 74
     0
 95
        9
 96
        5
 40
0.0
 40
0.0
 40
0.0
 40
0.0
 40
0.0253671534889427
 40
0.0547411701015229
 40
0.0547411701015229
 40
0.0547411701015229
 40
0.0547411701015229
 10
12.05136840347814
 20
29.81078146542151
 10
12.05809350975203
 20
29.82205224261793
 10
12.07260598497518
 20
29.84637407013217
 10
12.10057692755699
 20
29.85208866225045
 10
12.11558608666966
 20
29.85515510243624
 72
     4
 94
        3
 73
     0
 74
     0
 95
        9
 96
        5
 40
0.0
 40
0.0
 40
0.0
 40
0.0
 40
0.0785879437963305
 40
0.1493734317935601
 40
0.1493734317935601
 40
0.1493734317935601
 40
0.1493734317935601
 10
12.11558608666966
 20
29.85515510243624
 10
12.08880791390806
 20
29.88390064134555
 10
12.03791018876934
 20
29.93853777254177
 10
11.97135868922102
 20
29.97222432062457
 10
11.93982108366487
 20
29.98818779362209
 72
     4
 94
        2
 73
     0
 74
     0
 95
        6
 96
        3
 40
0.0
 40
0.0
 40
0.0
 40
1.0
 40
1.0
 40
1.0
 10
11.93982108366487
 20
29.98818779362209
 10
11.98057932160106
 20
29.99174809188523
 10
12.03562113335315
 20
30.01457396117108
 72
     1
 10
12.03562113335315
 20
30.01457396117108
 11
11.98898461680444
 21
30.06137456881139
 72
     4
 94
        2
 73
     0
 74
     0
 95
        6
 96
        3
 40
0.0
 40
0.0
 40
0.0
 40
1.0
 40
1.0
 40
1.0
 10
11.98898461680444
 20
30.06137456881139
 10
11.96154404163555
 20
30.02153052136602
 10
11.89089494374171
 20
29.99484321142875
 72
     4
 94
        3
 73
     0
 74
     0
 95
        9
 96
        5
 40
0.0
 40
0.0
 40
0.0
 40
0.0
 40
0.0078758913532842
 40
0.0148770873130688
 40
0.0148770873130688
 40
0.0148770873130688
 40
0.0148770873130688
 10
11.89089494374171
 20
29.99484321142875
 10
11.89247467523647
 20
29.9912338182982
 10
11.89545869346684
 20
29.984415890734
 10
11.89581581930905
 20
29.97699170594284
 10
11.89598388365868
 20
29.97349786528232
 97
        0
 75
     1
 76
     1
 47
0.002089524552753
 98
        1
 10
12.03237020248905
 20
29.90361106862756
1001
GradientColor1ACI
1070
     5
1001
GradientColor2ACI
1070
     2
1001
ACAD
1010
0.0
1020
0.0
1030
0.0
  0
LINE
  5
45FF
330
1F
100
AcDbEntity
  8
Label
100
AcDbLine
 10
12.03562113335315
 20
30.01457396117108
 30
0.0
 11
11.98898461680444
 21
30.06137456881139
 31
0.0
  0
SPLINE
  5
4600
330
1F
100
AcDbEntity
  8
Label
100
AcDbSpline
210
0.0
220
0.0
230
1.0
 70
     8
 71
     2
 72
     6
 73
     3
 74
     0
 42
0.0000000001
 43
0.0000000001
 40
0.0
 40
0.0
 40
0.0
 40
1.0
 40
1.0
 40
1.0
 10
11.98898461680444
 20
30.06137456881139
 30
0.0
 10
11.96154404163555
 20
30.02153052136602
 30
0.0
 10
11.89089494374171
 20
29.99484321142875
 30
0.0
  0
SPLINE
  5
4601
330
1F
100
AcDbEntity
  8
Label
100
AcDbSpline
210
0.0
220
0.0
230
1.0
 70
     8
 71
     2
 72
     6
 73
     3
 74
     0
 42
0.0000000001
 43
0.0000000001
 40
0.0
 40
0.0
 40
0.0
 40
1.0
 40
1.0
 40
1.0
 10
12.03562113335315
 20
30.01457396117108
 30
0.0
 10
11.98057932160106
 20
29.99174809188523
 30
0.0
 10
11.93982108366487
 20
29.98818779362209
 30
0.0
  0
SPLINE
  5
4602
330
1F
100
AcDbEntity
  8
Label
100
AcDbSpline
210
0.0
220
0.0
230
1.0
 70
  1064
 71
     3
 72
     9
 73
     5
 74
     3
 42
0.000000001
 43
0.0000000001
 44
0.0000000001
 40
0.0
 40
0.0
 40
0.0
 40
0.0
 40
0.0436510880255918
 40
0.0813478002086357
 40
0.0813478002086357
 40
0.0813478002086357
 40
0.0813478002086357
 10
12.11558608666966
 20
29.85515510243624
 30
0.0
 10
12.10057692755699
 20
29.85208866225045
 30
0.0
 10
12.07260598497519
 20
29.84637407013217
 30
0.0
 10
12.05809350975204
 20
29.82205224261793
 30
0.0
 10
12.05136840347814
 20
29.81078146542151
 30
0.0
 11
12.11558608666966
 21
29.85515510243624
 31
0.0
 11
12.07443380936555
 21
29.84059805745784
 31
0.0
 11
12.05136840347814
 21
29.81078146542151
 31
0.0
  0
SPLINE
  5
4603
330
1F
100
AcDbEntity
  8
Label
100
AcDbSpline
210
0.0
220
0.0
230
1.0
 70
  1064
 71
     3
 72
     9
 73
     5
 74
     3
 42
0.000000001
 43
0.0000000001
 44
0.0000000001
 40
0.0
 40
0.0
 40
0.0
 40
0.0
 40
0.1051903663109416
 40
0.2219755270755745
 40
0.2219755270755745
 40
0.2219755270755745
 40
0.2219755270755745
 10
11.93982108366487
 20
29.98818779362209
 30
0.0
 10
11.97135868922102
 20
29.97222432062457
 30
0.0
 10
12.03791018876934
 20
29.93853777254177
 30
0.0
 10
12.08880791390805
 20
29.88390064134556
 30
0.0
 10
12.11558608666966
 20
29.85515510243624
 30
0.0
 11
11.93982108366487
 21
29.98818779362209
 31
0.0
 11
12.03091861312354
 21
29.93559261046663
 31
0.0
 11
12.11558608666966
 21
29.85515510243624
 31
0.0
  0
SPLINE
  5
4604
330
1F
100
AcDbEntity
  8
Label
100
AcDbSpline
210
0.0
220
0.0
230
1.0
 70
  1064
 71
     3
 72
     9
 73
     5
 74
     3
 42
0.000000001
 43
0.0000000001
 44
0.0000000001
 40
0.0
 40
0.0
 40
0.0
 40
0.0
 40
0.1046954503404409
 40
0.2358214307360247
 40
0.2358214307360247
 40
0.2358214307360247
 40
0.2358214307360247
 10
11.89598388365868
 20
29.97349786528232
 30
0.0
 10
11.93041057074213
 20
29.96113633783367
 30
0.0
 10
12.00795501586483
 20
29.93329259601351
 30
0.0
 10
12.03585494612595
 20
29.8545599241895
 30
0.0
 10
12.05136840347814
 20
29.81078146542151
 30
0.0
 11
11.89598388365868
 21
29.97349786528232
 31
0.0
 11
11.98947895572717
 21
29.92638301814371
 31
0.0
 11
12.05136840347814
 21
29.81078146542151
 31
0.0
  0
SPLINE
  5
4605
330
1F
100
AcDbEntity
  8
Label
100
AcDbSpline
210
0.0
220
0.0
230
1.0
 70
  1064
 71
     3
 72
     9
 73
     5
 74
     3
 42
0.000000001
 43
0.0000000001
 44
0.0000000001
 40
0.0
 40
0.0
 40
0.0
 40
0.0
 40
0.0117039229355834
 40
0.0221080098248843
 40
0.0221080098248843
 40
0.0221080098248843
 40
0.0221080098248843
 10
11.89089494374171
 20
29.99484321142875
 30
0.0
 10
11.89247467523647
 20
29.99123381829821
 30
0.0
 10
11.89545869346685
 20
29.984415890734
 30
0.0
 10
11.89581581930905
 20
29.97699170594285
 30
0.0
 10
11.89598388365868
 20
29.97349786528232
 30
0.0
 11
11.89089494374171
 21
29.99484321142875
 31
0.0
 11
11.89489792114162
 21
29.98384512141193
 31
0.0
 11
11.89598388365868
 21
29.97349786528232
 31
0.0
  0
LWPOLYLINE
  5
4606
330
1F
100
AcDbEntity
  8
Label
100
AcDbPolyline
 90
        4
 70
     1
 43
0.0
 10
12.59481937024026
 20
30.04505061196031
 10
12.59481937024026
 20
28.53647911272432
 10
12.35420395521184
 20
28.53691949004403
 10
12.35420395521184
 20
30.04549098928003
  0
SPLINE
  5
4607
330
1F
100
AcDbEntity
  8
Label
 62
     7
100
AcDbSpline
210
0.0
220
0.0
230
1.0
 70
    11
 71
     3
 72
    52
 73
    48
 74
     0
 42
0.000000001
 43
0.0000000001
 40
0.0
 40
0.0
 40
0.0
 40
0.0
 40
0.0769230769230769
 40
0.0769230769230769
 40
0.0769230769230769
 40
0.0769230869230769
 40
0.1538461538461539
 40
0.1538461538461539
 40
0.1538461538461539
 40
0.1538461638461539
 40
0.2307692307692308
 40
0.2307692307692308
 40
0.2307692307692308
 40
0.2307692407692308
 40
0.3076923076923077
 40
0.3076923076923077
 40
0.3076923076923077
 40
0.3076923176923077
 40
0.3846153846153846
 40
0.3846153846153846
 40
0.3846153846153846
 40
0.3846153946153846
 40
0.4615384615384616
 40
0.4615384615384616
 40
0.4615384615384616
 40
0.4615384715384616
 40
0.5384615384615385
 40
0.5384615384615385
 40
0.5384615384615385
 40
0.5384615484615385
 40
0.6153846153846155
 40
0.6153846153846155
 40
0.6153846153846155
 40
0.6153846253846155
 40
0.6923076923076924
 40
0.6923076923076924
 40
0.6923076923076924
 40
0.6923077023076924
 40
0.7692307692307693
 40
0.7692307692307693
 40
0.7692307692307693
 40
0.7692307792307693
 40
0.8461538461538461
 40
0.8461538461538461
 40
0.8461538461538461
 40
0.8461538561538461
 40
1.0
 40
1.0
 40
1.0
 40
1.0
 10
13.31491386150441
 20
30.00630017893304
 30
0.0
 10
13.31491386150441
 20
30.00630017893304
 30
0.0
 10
13.31491386150441
 20
29.98488191145503
 30
0.0
 10
13.31491386150441
 20
29.98488191145503
 30
0.0
 10
13.31491386150441
 20
29.98488191145503
 30
0.0
 10
13.31491386150441
 20
29.98488191145503
 30
0.0
 10
13.23638370183417
 20
30.00183760390648
 30
0.0
 10
13.23638370183417
 20
30.00183760390648
 30
0.0
 10
13.23638370183417
 20
30.00183760390648
 30
0.0
 10
13.23638370183417
 20
30.00183760390648
 30
0.0
 10
13.34704126272142
 20
29.94918654286625
 30
0.0
 10
13.34704126272142
 20
29.94918654286625
 30
0.0
 10
13.34704126272142
 20
29.94918654286625
 30
0.0
 10
13.34704126272142
 20
29.94918654286625
 30
0.0
 10
13.34704126272142
 20
29.97149593024991
 30
0.0
 10
13.34704126272142
 20
29.97149593024991
 30
0.0
 10
13.34704126272142
 20
29.97149593024991
 30
0.0
 10
13.34704126272142
 20
29.97149593024991
 30
0.0
 10
13.40326203500798
 20
29.97149593024991
 30
0.0
 10
13.40326203500798
 20
29.97149593024991
 30
0.0
 10
13.40326203500798
 20
29.97149593024991
 30
0.0
 10
13.40326203500798
 20
29.97149593024991
 30
0.0
 10
13.40326203500798
 20
29.94650795152556
 30
0.0
 10
13.40326203500798
 20
29.94650795152556
 30
0.0
 10
13.40326203500798
 20
29.94650795152556
 30
0.0
 10
13.40326203500798
 20
29.94650795152556
 30
0.0
 10
13.42468030248599
 20
29.92330570036168
 30
0.0
 10
13.42468030248599
 20
29.92330570036168
 30
0.0
 10
13.42468030248599
 20
29.92330570036168
 30
0.0
 10
13.42468030248599
 20
29.92330570036168
 30
0.0
 10
13.48000821099234
 20
29.92241283658144
 30
0.0
 10
13.48000821099234
 20
29.92241283658144
 30
0.0
 10
13.48000821099234
 20
29.92241283658144
 30
0.0
 10
13.48000821099234
 20
29.92241283658144
 30
0.0
 10
13.50142647847035
 20
29.94829367908602
 30
0.0
 10
13.50142647847035
 20
29.94829367908602
 30
0.0
 10
13.50142647847035
 20
29.94829367908602
 30
0.0
 10
13.50142647847035
 20
29.94829367908602
 30
0.0
 10
13.50142647847035
 20
30.00719129883869
 30
0.0
 10
13.50142647847035
 20
30.00719129883869
 30
0.0
 10
13.50142647847035
 20
30.00719129883869
 30
0.0
 10
13.50142647847035
 20
30.00719129883869
 30
0.0
 10
13.31491386150441
 20
30.00630017893304
 30
0.0
 10
13.31491386150441
 20
30.00630017893304
 30
0.0
 10
13.31491386150441
 20
30.00630017893304
 30
0.0
 10
13.31491386150441
 20
30.00630017893304
 30
0.0
 10
13.31491386150441
 20
30.00630017893304
 30
0.0
 10
13.31491386150441
 20
30.00630017893304
 30
0.0
  0
SPLINE
  5
4608
330
1F
100
AcDbEntity
  8
Label
 62
     7
100
AcDbSpline
210
0.0
220
0.0
230
1.0
 70
    11
 71
     3
 72
    20
 73
    16
 74
     0
 42
0.000000001
 43
0.0000000001
 40
0.0
 40
0.0
 40
0.0
 40
0.0
 40
0.2
 40
0.2
 40
0.2
 40
0.20000001
 40
0.4
 40
0.4
 40
0.4
 40
0.4000000100000001
 40
0.6
 40
0.6
 40
0.6
 40
0.6000000100000001
 40
1.0
 40
1.0
 40
1.0
 40
1.0
 10
13.47554737984035
 20
29.9581099490448
 30
0.0
 10
13.47554737984035
 20
29.9581099490448
 30
0.0
 10
13.47554737984035
 20
29.97149593024991
 30
0.0
 10
13.47554737984035
 20
29.97149593024991
 30
0.0
 10
13.47554737984035
 20
29.97149593024991
 30
0.0
 10
13.47554737984035
 20
29.97149593024991
 30
0.0
 10
13.43181972497866
 20
29.97149593024991
 30
0.0
 10
13.43181972497866
 20
29.97149593024991
 30
0.0
 10
13.43181972497866
 20
29.97149593024991
 30
0.0
 10
13.43181972497866
 20
29.97149593024991
 30
0.0
 10
13.43181972497866
 20
29.9581099490448
 30
0.0
 10
13.43181972497866
 20
29.9581099490448
 30
0.0
 10
13.43181972497866
 20
29.9581099490448
 30
0.0
 10
13.43181972497866
 20
29.9581099490448
 30
0.0
 10
13.47554737984035
 20
29.9581099490448
 30
0.0
 10
13.47554737984035
 20
29.9581099490448
 30
0.0
  0
HATCH
  5
4609
330
1F
100
AcDbEntity
  8
Label
 62
     7
100
AcDbHatch
 10
0.0
 20
0.0
 30
0.0
210
0.0
220
0.0
230
1.0
  2
SOLID
 70
     1
 71
     1
 91
        2
 92
        1
 93
        1
 72
     4
 94
        3
 73
     0
 74
     0
 95
       48
 96
       44
 40
0.0
 40
0.0
 40
0.0
 40
0.0
 40
0.0833333333333333
 40
0.0833333333333333
 40
0.0833333333333333
 40
0.0833333433333333
 40
0.1666666666666666
 40
0.1666666666666666
 40
0.1666666666666666
 40
0.1666666766666667
 40
0.25
 40
0.25
 40
0.25
 40
0.25000001
 40
0.3333333333333333
 40
0.3333333333333333
 40
0.3333333333333333
 40
0.3333333433333333
 40
0.4166666666666667
 40
0.4166666666666667
 40
0.4166666666666667
 40
0.4166666766666668
 40
0.5
 40
0.5
 40
0.5
 40
0.5000000100000001
 40
0.5833333333333334
 40
0.5833333333333334
 40
0.5833333333333334
 40
0.5833333433333335
 40
0.6666666666666666
 40
0.6666666666666666
 40
0.6666666666666666
 40
0.6666666766666668
 40
0.75
 40
0.75
 40
0.75
 40
0.7500000100000001
 40
0.8333333333333333
 40
0.8333333333333333
 40
0.8333333333333333
 40
0.8333333433333333
 40
1.0
 40
1.0
 40
1.0
 40
1.0
 10
13.31491386150441
 20
30.00630017893304
 10
13.31491386150441
 20
30.00630017893304
 10
13.31491386150441
 20
29.98488191145503
 10
13.31491386150441
 20
29.98488191145503
 10
13.31491386150441
 20
29.98488191145503
 10
13.31491386150441
 20
29.98488191145503
 10
13.23638370183417
 20
30.00183760390648
 10
13.23638370183417
 20
30.00183760390648
 10
13.23638370183417
 20
30.00183760390648
 10
13.23638370183417
 20
30.00183760390648
 10
13.34704126272142
 20
29.94918654286625
 10
13.34704126272142
 20
29.94918654286625
 10
13.34704126272142
 20
29.94918654286625
 10
13.34704126272142
 20
29.94918654286625
 10
13.34704126272142
 20
29.97149593024991
 10
13.34704126272142
 20
29.97149593024991
 10
13.34704126272142
 20
29.97149593024991
 10
13.34704126272142
 20
29.97149593024991
 10
13.40326203500798
 20
29.97149593024991
 10
13.40326203500798
 20
29.97149593024991
 10
13.40326203500798
 20
29.97149593024991
 10
13.40326203500798
 20
29.97149593024991
 10
13.40326203500798
 20
29.94650795152556
 10
13.40326203500798
 20
29.94650795152556
 10
13.40326203500798
 20
29.94650795152556
 10
13.40326203500798
 20
29.94650795152556
 10
13.42468030248599
 20
29.92330570036168
 10
13.42468030248599
 20
29.92330570036168
 10
13.42468030248599
 20
29.92330570036168
 10
13.42468030248599
 20
29.92330570036168
 10
13.48000821099234
 20
29.92241283658144
 10
13.48000821099234
 20
29.92241283658144
 10
13.48000821099234
 20
29.92241283658144
 10
13.48000821099234
 20
29.92241283658144
 10
13.50142647847035
 20
29.94829367908602
 10
13.50142647847035
 20
29.94829367908602
 10
13.50142647847035
 20
29.94829367908602
 10
13.50142647847035
 20
29.94829367908602
 10
13.50142647847035
 20
30.00719129883869
 10
13.50142647847035
 20
30.00719129883869
 10
13.50142647847035
 20
30.00719129883869
 10
13.50142647847035
 20
30.00719129883869
 10
13.31491386150441
 20
30.00630017893304
 10
13.31491386150441
 20
30.00630017893304
 97
        1
330
460A
 92
       16
 93
        1
 72
     4
 94
        3
 73
     0
 74
     0
 95
       20
 96
       16
 40
0.0
 40
0.0
 40
0.0
 40
0.0
 40
0.2
 40
0.2
 40
0.2
 40
0.20000001
 40
0.4
 40
0.4
 40
0.4
 40
0.4000000100000001
 40
0.6
 40
0.6
 40
0.6
 40
0.6000000100000001
 40
1.0
 40
1.0
 40
1.0
 40
1.0
 10
13.47554737984035
 20
29.9581099490448
 10
13.47554737984035
 20
29.9581099490448
 10
13.47554737984035
 20
29.97149593024991
 10
13.47554737984035
 20
29.97149593024991
 10
13.47554737984035
 20
29.97149593024991
 10
13.47554737984035
 20
29.97149593024991
 10
13.43181972497866
 20
29.97149593024991
 10
13.43181972497866
 20
29.97149593024991
 10
13.43181972497866
 20
29.97149593024991
 10
13.43181972497866
 20
29.97149593024991
 10
13.43181972497866
 20
29.9581099490448
 10
13.43181972497866
 20
29.9581099490448
 10
13.43181972497866
 20
29.9581099490448
 10
13.43181972497866
 20
29.9581099490448
 10
13.47554737984035
 20
29.9581099490448
 10
13.47554737984035
 20
29.9581099490448
 97
        1
330
460B
 75
     1
 76
     1
 98
        1
 10
-0.6106456783851116
 20
6.586125361239663
1001
GradientColor1ACI
1070
     5
1001
GradientColor2ACI
1070
     2
1001
ACAD
1010
0.0
1020
0.0
1030
0.0
  0
SPLINE
  5
460A
102
{ACAD_REACTORS
330
4609
102
}
330
1F
100
AcDbEntity
  8
Label
 62
     7
100
AcDbSpline
210
0.0
220
0.0
230
1.0
 70
    11
 71
     3
 72
    48
 73
    44
 74
     0
 42
0.000000001
 43
0.0000000001
 40
0.0
 40
0.0
 40
0.0
 40
0.0
 40
0.0833333333333333
 40
0.0833333333333333
 40
0.0833333333333333
 40
0.0833333433333333
 40
0.1666666666666666
 40
0.1666666666666666
 40
0.1666666666666666
 40
0.1666666766666667
 40
0.25
 40
0.25
 40
0.25
 40
0.25000001
 40
0.3333333333333333
 40
0.3333333333333333
 40
0.3333333333333333
 40
0.3333333433333333
 40
0.4166666666666667
 40
0.4166666666666667
 40
0.4166666666666667
 40
0.4166666766666668
 40
0.5
 40
0.5
 40
0.5
 40
0.5000000100000001
 40
0.5833333333333334
 40
0.5833333333333334
 40
0.5833333333333334
 40
0.5833333433333335
 40
0.6666666666666666
 40
0.6666666666666666
 40
0.6666666666666666
 40
0.6666666766666668
 40
0.75
 40
0.75
 40
0.75
 40
0.7500000100000001
 40
0.8333333333333333
 40
0.8333333333333333
 40
0.8333333333333333
 40
0.8333333433333333
 40
1.0
 40
1.0
 40
1.0
 40
1.0
 10
13.31491386150441
 20
30.00630017893304
 30
0.0
 10
13.31491386150441
 20
30.00630017893304
 30
0.0
 10
13.31491386150441
 20
29.98488191145503
 30
0.0
 10
13.31491386150441
 20
29.98488191145503
 30
0.0
 10
13.31491386150441
 20
29.98488191145503
 30
0.0
 10
13.31491386150441
 20
29.98488191145503
 30
0.0
 10
13.23638370183417
 20
30.00183760390648
 30
0.0
 10
13.23638370183417
 20
30.00183760390648
 30
0.0
 10
13.23638370183417
 20
30.00183760390648
 30
0.0
 10
13.23638370183417
 20
30.00183760390648
 30
0.0
 10
13.34704126272142
 20
29.94918654286625
 30
0.0
 10
13.34704126272142
 20
29.94918654286625
 30
0.0
 10
13.34704126272142
 20
29.94918654286625
 30
0.0
 10
13.34704126272142
 20
29.94918654286625
 30
0.0
 10
13.34704126272142
 20
29.97149593024991
 30
0.0
 10
13.34704126272142
 20
29.97149593024991
 30
0.0
 10
13.34704126272142
 20
29.97149593024991
 30
0.0
 10
13.34704126272142
 20
29.97149593024991
 30
0.0
 10
13.40326203500798
 20
29.97149593024991
 30
0.0
 10
13.40326203500798
 20
29.97149593024991
 30
0.0
 10
13.40326203500798
 20
29.97149593024991
 30
0.0
 10
13.40326203500798
 20
29.97149593024991
 30
0.0
 10
13.40326203500798
 20
29.94650795152556
 30
0.0
 10
13.40326203500798
 20
29.94650795152556
 30
0.0
 10
13.40326203500798
 20
29.94650795152556
 30
0.0
 10
13.40326203500798
 20
29.94650795152556
 30
0.0
 10
13.42468030248599
 20
29.92330570036168
 30
0.0
 10
13.42468030248599
 20
29.92330570036168
 30
0.0
 10
13.42468030248599
 20
29.92330570036168
 30
0.0
 10
13.42468030248599
 20
29.92330570036168
 30
0.0
 10
13.48000821099234
 20
29.92241283658144
 30
0.0
 10
13.48000821099234
 20
29.92241283658144
 30
0.0
 10
13.48000821099234
 20
29.92241283658144
 30
0.0
 10
13.48000821099234
 20
29.92241283658144
 30
0.0
 10
13.50142647847035
 20
29.94829367908602
 30
0.0
 10
13.50142647847035
 20
29.94829367908602
 30
0.0
 10
13.50142647847035
 20
29.94829367908602
 30
0.0
 10
13.50142647847035
 20
29.94829367908602
 30
0.0
 10
13.50142647847035
 20
30.00719129883869
 30
0.0
 10
13.50142647847035
 20
30.00719129883869
 30
0.0
 10
13.50142647847035
 20
30.00719129883869
 30
0.0
 10
13.50142647847035
 20
30.00719129883869
 30
0.0
 10
13.31491386150441
 20
30.00630017893304
 30
0.0
 10
13.31491386150441
 20
30.00630017893304
 30
0.0
  0
SPLINE
  5
460B
102
{ACAD_REACTORS
330
4609
102
}
330
1F
100
AcDbEntity
  8
Label
 62
     7
100
AcDbSpline
210
0.0
220
0.0
230
1.0
 70
    11
 71
     3
 72
    20
 73
    16
 74
     0
 42
0.000000001
 43
0.0000000001
 40
0.0
 40
0.0
 40
0.0
 40
0.0
 40
0.2
 40
0.2
 40
0.2
 40
0.20000001
 40
0.4
 40
0.4
 40
0.4
 40
0.4000000100000001
 40
0.6
 40
0.6
 40
0.6
 40
0.6000000100000001
 40
1.0
 40
1.0
 40
1.0
 40
1.0
 10
13.47554737984035
 20
29.9581099490448
 30
0.0
 10
13.47554737984035
 20
29.9581099490448
 30
0.0
 10
13.47554737984035
 20
29.97149593024991
 30
0.0
 10
13.47554737984035
 20
29.97149593024991
 30
0.0
 10
13.47554737984035
 20
29.97149593024991
 30
0.0
 10
13.47554737984035
 20
29.97149593024991
 30
0.0
 10
13.43181972497866
 20
29.97149593024991
 30
0.0
 10
13.43181972497866
 20
29.97149593024991
 30
0.0
 10
13.43181972497866
 20
29.97149593024991
 30
0.0
 10
13.43181972497866
 20
29.97149593024991
 30
0.0
 10
13.43181972497866
 20
29.9581099490448
 30
0.0
 10
13.43181972497866
 20
29.9581099490448
 30
0.0
 10
13.43181972497866
 20
29.9581099490448
 30
0.0
 10
13.43181972497866
 20
29.9581099490448
 30
0.0
 10
13.47554737984035
 20
29.9581099490448
 30
0.0
 10
13.47554737984035
 20
29.9581099490448
 30
0.0
  0
HATCH
  5
460C
330
1F
100
AcDbEntity
  8
Label
 62
     7
100
AcDbHatch
 10
0.0
 20
0.0
 30
0.0
210
0.0
220
0.0
230
1.0
  2
SOLID
 70
     1
 71
     1
 91
        2
 92
        1
 93
        1
 72
     4
 94
        3
 73
     0
 74
     0
 95
       28
 96
       24
 40
0.0
 40
0.0
 40
0.0
 40
0.0
 40
0.1428571428571428
 40
0.1428571428571428
 40
0.1428571428571428
 40
0.1428571528571428
 40
0.2857142857142857
 40
0.2857142857142857
 40
0.2857142857142857
 40
0.2857142957142857
 40
0.4285714285714286
 40
0.4285714285714286
 40
0.4285714285714286
 40
0.4285714385714286
 40
0.5714285714285714
 40
0.5714285714285714
 40
0.5714285714285714
 40
0.5714285814285715
 40
0.7142857142857144
 40
0.7142857142857144
 40
0.7142857142857144
 40
0.7142857242857144
 40
1.0
 40
1.0
 40
1.0
 40
1.0
 10
13.40504776256844
 20
29.91933224838504
 10
13.40504776256844
 20
29.91933224838504
 10
13.40504776256844
 20
29.85329520613969
 10
13.40504776256844
 20
29.85329520613969
 10
13.40504776256844
 20
29.85329520613969
 10
13.40504776256844
 20
29.85329520613969
 10
13.38184551140455
 20
29.82741436363512
 10
13.38184551140455
 20
29.82741436363512
 10
13.38184551140455
 20
29.82741436363512
 10
13.38184551140455
 20
29.82741436363512
 10
13.27029508673707
 20
29.82741436363512
 10
13.27029508673707
 20
29.82741436363512
 10
13.27029508673707
 20
29.82741436363512
 10
13.27029508673707
 20
29.82741436363512
 10
13.24619997179295
 20
29.85240234235946
 10
13.24619997179295
 20
29.85240234235946
 10
13.24619997179295
 20
29.85240234235946
 10
13.24619997179295
 20
29.85240234235946
 10
13.24619997179295
 20
29.91933224838504
 10
13.24619997179295
 20
29.91933224838504
 10
13.24619997179295
 20
29.91933224838504
 10
13.24619997179295
 20
29.91933224838504
 10
13.40504776256844
 20
29.91933224838504
 10
13.40504776256844
 20
29.91933224838504
 97
        1
330
460D
 92
       16
 93
        1
 72
     4
 94
        3
 73
     0
 74
     0
 95
       20
 96
       16
 40
0.0
 40
0.0
 40
0.0
 40
0.0
 40
0.2
 40
0.2
 40
0.2
 40
0.20000001
 40
0.4
 40
0.4
 40
0.4
 40
0.4000000100000001
 40
0.6
 40
0.6
 40
0.6
 40
0.6000000100000001
 40
1.0
 40
1.0
 40
1.0
 40
1.0
 10
13.37649007259776
 20
29.8666811873448
 10
13.37649007259776
 20
29.8666811873448
 10
13.37649007259776
 20
29.88185115223581
 10
13.37649007259776
 20
29.88185115223581
 10
13.37649007259776
 20
29.88185115223581
 10
13.37649007259776
 20
29.88185115223581
 10
13.27743450922974
 20
29.88185115223581
 10
13.27743450922974
 20
29.88185115223581
 10
13.27743450922974
 20
29.88185115223581
 10
13.27743450922974
 20
29.88185115223581
 10
13.27743450922974
 20
29.8666811873448
 10
13.27743450922974
 20
29.8666811873448
 10
13.27743450922974
 20
29.8666811873448
 10
13.27743450922974
 20
29.8666811873448
 10
13.37649007259776
 20
29.8666811873448
 10
13.37649007259776
 20
29.8666811873448
 97
        1
330
460E
 75
     1
 76
     1
 98
        1
 10
-0.6106456783851116
 20
6.594645026687913
1001
GradientColor1ACI
1070
     5
1001
GradientColor2ACI
1070
     2
1001
ACAD
1010
0.0
1020
0.0
1030
0.0
  0
SPLINE
  5
460D
102
{ACAD_REACTORS
330
460C
102
}
330
1F
100
AcDbEntity
  8
Label
 62
     7
100
AcDbSpline
210
0.0
220
0.0
230
1.0
 70
    11
 71
     3
 72
    28
 73
    24
 74
     0
 42
0.000000001
 43
0.0000000001
 40
0.0
 40
0.0
 40
0.0
 40
0.0
 40
0.1428571428571428
 40
0.1428571428571428
 40
0.1428571428571428
 40
0.1428571528571428
 40
0.2857142857142857
 40
0.2857142857142857
 40
0.2857142857142857
 40
0.2857142957142857
 40
0.4285714285714286
 40
0.4285714285714286
 40
0.4285714285714286
 40
0.4285714385714286
 40
0.5714285714285714
 40
0.5714285714285714
 40
0.5714285714285714
 40
0.5714285814285715
 40
0.7142857142857144
 40
0.7142857142857144
 40
0.7142857142857144
 40
0.7142857242857144
 40
1.0
 40
1.0
 40
1.0
 40
1.0
 10
13.40504776256844
 20
29.91933224838504
 30
0.0
 10
13.40504776256844
 20
29.91933224838504
 30
0.0
 10
13.40504776256844
 20
29.85329520613969
 30
0.0
 10
13.40504776256844
 20
29.85329520613969
 30
0.0
 10
13.40504776256844
 20
29.85329520613969
 30
0.0
 10
13.40504776256844
 20
29.85329520613969
 30
0.0
 10
13.38184551140455
 20
29.82741436363512
 30
0.0
 10
13.38184551140455
 20
29.82741436363512
 30
0.0
 10
13.38184551140455
 20
29.82741436363512
 30
0.0
 10
13.38184551140455
 20
29.82741436363512
 30
0.0
 10
13.27029508673707
 20
29.82741436363512
 30
0.0
 10
13.27029508673707
 20
29.82741436363512
 30
0.0
 10
13.27029508673707
 20
29.82741436363512
 30
0.0
 10
13.27029508673707
 20
29.82741436363512
 30
0.0
 10
13.24619997179295
 20
29.85240234235946
 30
0.0
 10
13.24619997179295
 20
29.85240234235946
 30
0.0
 10
13.24619997179295
 20
29.85240234235946
 30
0.0
 10
13.24619997179295
 20
29.85240234235946
 30
0.0
 10
13.24619997179295
 20
29.91933224838504
 30
0.0
 10
13.24619997179295
 20
29.91933224838504
 30
0.0
 10
13.24619997179295
 20
29.91933224838504
 30
0.0
 10
13.24619997179295
 20
29.91933224838504
 30
0.0
 10
13.40504776256844
 20
29.91933224838504
 30
0.0
 10
13.40504776256844
 20
29.91933224838504
 30
0.0
  0
SPLINE
  5
460E
102
{ACAD_REACTORS
330
460C
102
}
330
1F
100
AcDbEntity
  8
Label
 62
     7
100
AcDbSpline
210
0.0
220
0.0
230
1.0
 70
    11
 71
     3
 72
    20
 73
    16
 74
     0
 42
0.000000001
 43
0.0000000001
 40
0.0
 40
0.0
 40
0.0
 40
0.0
 40
0.2
 40
0.2
 40
0.2
 40
0.20000001
 40
0.4
 40
0.4
 40
0.4
 40
0.4000000100000001
 40
0.6
 40
0.6
 40
0.6
 40
0.6000000100000001
 40
1.0
 40
1.0
 40
1.0
 40
1.0
 10
13.37649007259776
 20
29.8666811873448
 30
0.0
 10
13.37649007259776
 20
29.8666811873448
 30
0.0
 10
13.37649007259776
 20
29.88185115223581
 30
0.0
 10
13.37649007259776
 20
29.88185115223581
 30
0.0
 10
13.37649007259776
 20
29.88185115223581
 30
0.0
 10
13.37649007259776
 20
29.88185115223581
 30
0.0
 10
13.27743450922974
 20
29.88185115223581
 30
0.0
 10
13.27743450922974
 20
29.88185115223581
 30
0.0
 10
13.27743450922974
 20
29.88185115223581
 30
0.0
 10
13.27743450922974
 20
29.88185115223581
 30
0.0
 10
13.27743450922974
 20
29.8666811873448
 30
0.0
 10
13.27743450922974
 20
29.8666811873448
 30
0.0
 10
13.27743450922974
 20
29.8666811873448
 30
0.0
 10
13.27743450922974
 20
29.8666811873448
 30
0.0
 10
13.37649007259776
 20
29.8666811873448
 30
0.0
 10
13.37649007259776
 20
29.8666811873448
 30
0.0
  0
HATCH
  5
460F
330
1F
100
AcDbEntity
  8
Label
 62
     7
100
AcDbHatch
 10
0.0
 20
0.0
 30
0.0
210
0.0
220
0.0
230
1.0
  2
SOLID
 70
     1
 71
     1
 91
        2
 92
        1
 93
        1
 72
     4
 94
        3
 73
     0
 74
     0
 95
       36
 96
       32
 40
0.0
 40
0.0
 40
0.0
 40
0.0
 40
0.1111111111111111
 40
0.1111111111111111
 40
0.1111111111111111
 40
0.1111111211111111
 40
0.2222222222222222
 40
0.2222222222222222
 40
0.2222222222222222
 40
0.2222222322222222
 40
0.3333333333333333
 40
0.3333333333333333
 40
0.3333333333333333
 40
0.3333333433333333
 40
0.4444444444444445
 40
0.4444444444444445
 40
0.4444444444444445
 40
0.4444444544444444
 40
0.5555555555555556
 40
0.5555555555555556
 40
0.5555555555555556
 40
0.5555555655555557
 40
0.6666666666666666
 40
0.6666666666666666
 40
0.6666666666666666
 40
0.6666666766666668
 40
0.7777777777777778
 40
0.7777777777777778
 40
0.7777777777777778
 40
0.7777777877777778
 40
1.0
 40
1.0
 40
1.0
 40
1.0
 10
13.27743450922974
 20
30.05895123997326
 10
13.27743450922974
 20
30.05895123997326
 10
13.27743450922974
 20
30.07947664367105
 10
13.27743450922974
 20
30.07947664367105
 10
13.27743450922974
 20
30.07947664367105
 10
13.27743450922974
 20
30.07947664367105
 10
13.24619997179295
 20
30.08304635491739
 10
13.24619997179295
 20
30.08304635491739
 10
13.24619997179295
 20
30.08304635491739
 10
13.24619997179295
 20
30.08304635491739
 10
13.24619997179295
 20
30.11874172350617
 10
13.24619997179295
 20
30.11874172350617
 10
13.24619997179295
 20
30.11874172350617
 10
13.24619997179295
 20
30.11874172350617
 10
13.40504776256844
 20
30.09464660856205
 10
13.40504776256844
 20
30.09464660856205
 10
13.40504776256844
 20
30.09464660856205
 10
13.40504776256844
 20
30.09464660856205
 10
13.40504776256844
 20
30.04199554752182
 10
13.40504776256844
 20
30.04199554752182
 10
13.40504776256844
 20
30.04199554752182
 10
13.40504776256844
 20
30.04199554752182
 10
13.24619997179295
 20
30.0179004325777
 10
13.24619997179295
 20
30.0179004325777
 10
13.24619997179295
 20
30.0179004325777
 10
13.24619997179295
 20
30.0179004325777
 10
13.24619997179295
 20
30.05538152872694
 10
13.24619997179295
 20
30.05538152872694
 10
13.24619997179295
 20
30.05538152872694
 10
13.24619997179295
 20
30.05538152872694
 10
13.27743450922974
 20
30.05895123997326
 10
13.27743450922974
 20
30.05895123997326
 97
        1
330
4610
 92
       16
 93
        1
 72
     4
 94
        3
 73
     0
 74
     0
 95
       20
 96
       16
 40
0.0
 40
0.0
 40
0.0
 40
0.0
 40
0.2
 40
0.2
 40
0.2
 40
0.20000001
 40
0.4
 40
0.4
 40
0.4
 40
0.4000000100000001
 40
0.6
 40
0.6
 40
0.6
 40
0.6000000100000001
 40
1.0
 40
1.0
 40
1.0
 40
1.0
 10
13.37292036135142
 20
30.07055149361793
 10
13.37292036135142
 20
30.07055149361793
 10
13.30688331910607
 20
30.0776909161106
 10
13.30688331910607
 20
30.0776909161106
 10
13.30688331910607
 20
30.0776909161106
 10
13.30688331910607
 20
30.0776909161106
 10
13.30688331910607
 20
30.06073522365915
 10
13.30688331910607
 20
30.06073522365915
 10
13.30688331910607
 20
30.06073522365915
 10
13.30688331910607
 20
30.06073522365915
 10
13.37292036135142
 20
30.06698178237159
 10
13.37292036135142
 20
30.06698178237159
 10
13.37292036135142
 20
30.06698178237159
 10
13.37292036135142
 20
30.06698178237159
 10
13.37292036135142
 20
30.07055149361793
 10
13.37292036135142
 20
30.07055149361793
 97
        1
330
4611
 75
     1
 76
     1
 98
        1
 10
-0.6106456783851116
 20
6.586125361239663
1001
GradientColor1ACI
1070
     5
1001
GradientColor2ACI
1070
     2
1001
ACAD
1010
0.0
1020
0.0
1030
0.0
  0
SPLINE
  5
4610
102
{ACAD_REACTORS
330
460F
102
}
330
1F
100
AcDbEntity
  8
Label
 62
     7
100
AcDbSpline
210
0.0
220
0.0
230
1.0
 70
    11
 71
     3
 72
    36
 73
    32
 74
     0
 42
0.000000001
 43
0.0000000001
 40
0.0
 40
0.0
 40
0.0
 40
0.0
 40
0.1111111111111111
 40
0.1111111111111111
 40
0.1111111111111111
 40
0.1111111211111111
 40
0.2222222222222222
 40
0.2222222222222222
 40
0.2222222222222222
 40
0.2222222322222222
 40
0.3333333333333333
 40
0.3333333333333333
 40
0.3333333333333333
 40
0.3333333433333333
 40
0.4444444444444445
 40
0.4444444444444445
 40
0.4444444444444445
 40
0.4444444544444444
 40
0.5555555555555556
 40
0.5555555555555556
 40
0.5555555555555556
 40
0.5555555655555557
 40
0.6666666666666666
 40
0.6666666666666666
 40
0.6666666666666666
 40
0.6666666766666668
 40
0.7777777777777778
 40
0.7777777777777778
 40
0.7777777777777778
 40
0.7777777877777778
 40
1.0
 40
1.0
 40
1.0
 40
1.0
 10
13.27743450922974
 20
30.05895123997326
 30
0.0
 10
13.27743450922974
 20
30.05895123997326
 30
0.0
 10
13.27743450922974
 20
30.07947664367105
 30
0.0
 10
13.27743450922974
 20
30.07947664367105
 30
0.0
 10
13.27743450922974
 20
30.07947664367105
 30
0.0
 10
13.27743450922974
 20
30.07947664367105
 30
0.0
 10
13.24619997179295
 20
30.08304635491739
 30
0.0
 10
13.24619997179295
 20
30.08304635491739
 30
0.0
 10
13.24619997179295
 20
30.08304635491739
 30
0.0
 10
13.24619997179295
 20
30.08304635491739
 30
0.0
 10
13.24619997179295
 20
30.11874172350617
 30
0.0
 10
13.24619997179295
 20
30.11874172350617
 30
0.0
 10
13.24619997179295
 20
30.11874172350617
 30
0.0
 10
13.24619997179295
 20
30.11874172350617
 30
0.0
 10
13.40504776256844
 20
30.09464660856205
 30
0.0
 10
13.40504776256844
 20
30.09464660856205
 30
0.0
 10
13.40504776256844
 20
30.09464660856205
 30
0.0
 10
13.40504776256844
 20
30.09464660856205
 30
0.0
 10
13.40504776256844
 20
30.04199554752182
 30
0.0
 10
13.40504776256844
 20
30.04199554752182
 30
0.0
 10
13.40504776256844
 20
30.04199554752182
 30
0.0
 10
13.40504776256844
 20
30.04199554752182
 30
0.0
 10
13.24619997179295
 20
30.0179004325777
 30
0.0
 10
13.24619997179295
 20
30.0179004325777
 30
0.0
 10
13.24619997179295
 20
30.0179004325777
 30
0.0
 10
13.24619997179295
 20
30.0179004325777
 30
0.0
 10
13.24619997179295
 20
30.05538152872694
 30
0.0
 10
13.24619997179295
 20
30.05538152872694
 30
0.0
 10
13.24619997179295
 20
30.05538152872694
 30
0.0
 10
13.24619997179295
 20
30.05538152872694
 30
0.0
 10
13.27743450922974
 20
30.05895123997326
 30
0.0
 10
13.27743450922974
 20
30.05895123997326
 30
0.0
  0
SPLINE
  5
4611
102
{ACAD_REACTORS
330
460F
102
}
330
1F
100
AcDbEntity
  8
Label
 62
     7
100
AcDbSpline
210
0.0
220
0.0
230
1.0
 70
    11
 71
     3
 72
    20
 73
    16
 74
     0
 42
0.000000001
 43
0.0000000001
 40
0.0
 40
0.0
 40
0.0
 40
0.0
 40
0.2
 40
0.2
 40
0.2
 40
0.20000001
 40
0.4
 40
0.4
 40
0.4
 40
0.4000000100000001
 40
0.6
 40
0.6
 40
0.6
 40
0.6000000100000001
 40
1.0
 40
1.0
 40
1.0
 40
1.0
 10
13.37292036135142
 20
30.07055149361793
 30
0.0
 10
13.37292036135142
 20
30.07055149361793
 30
0.0
 10
13.30688331910607
 20
30.0776909161106
 30
0.0
 10
13.30688331910607
 20
30.0776909161106
 30
0.0
 10
13.30688331910607
 20
30.0776909161106
 30
0.0
 10
13.30688331910607
 20
30.0776909161106
 30
0.0
 10
13.30688331910607
 20
30.06073522365915
 30
0.0
 10
13.30688331910607
 20
30.06073522365915
 30
0.0
 10
13.30688331910607
 20
30.06073522365915
 30
0.0
 10
13.30688331910607
 20
30.06073522365915
 30
0.0
 10
13.37292036135142
 20
30.06698178237159
 30
0.0
 10
13.37292036135142
 20
30.06698178237159
 30
0.0
 10
13.37292036135142
 20
30.06698178237159
 30
0.0
 10
13.37292036135142
 20
30.06698178237159
 30
0.0
 10
13.37292036135142
 20
30.07055149361793
 30
0.0
 10
13.37292036135142
 20
30.07055149361793
 30
0.0
  0
MTEXT
  5
4612
102
{ACAD_XDICTIONARY
360
4613
102
}
330
1F
100
AcDbEntity
  8
Label
100
AcDbMText
 10
11.34789710957956
 20
29.09690794401827
 30
0.0
 40
0.05
 41
0.3312669726874446
 71
     5
 72
     5
  1
NC  6
 11
-1.0
 21
0.0000000000000001
 31
0.0
 73
     1
 44
1.0
1001
ACAD
1000
ACAD_MTEXT_COLUMN_INFO_BEGIN
1070
    75
1070
     2
1070
    79
1070
     0
1070
    76
1070
     1
1070
    78
1070
     0
1070
    48
1040
0.3312669726874446
1070
    49
1040
5.0
1070
    50
1070
     1
1040
0.0
1000
ACAD_MTEXT_COLUMN_INFO_END
1000
MTEXTBEGIN
1070
    73
1070
     1
1070
    44
1040
1.0
1070
    74
1070
     0
1000
MTEXTEND
  0
MTEXT
  5
4614
102
{ACAD_XDICTIONARY
360
4615
102
}
330
1F
100
AcDbEntity
  8
Label
100
AcDbMText
 10
11.34485098990205
 20
29.7253593955962
 30
0.0
 40
0.05
 41
0.3312669726874446
 71
     5
 72
     5
  1
GND  2
 11
-1.0
 21
0.0000000000000001
 31
0.0
 73
     1
 44
1.0
1001
ACAD
1000
ACAD_MTEXT_COLUMN_INFO_BEGIN
1070
    75
1070
     2
1070
    79
1070
     0
1070
    76
1070
     1
1070
    78
1070
     0
1070
    48
1040
0.3312669726874446
1070
    49
1040
5.0
1070
    50
1070
     1
1040
0.0
1000
ACAD_MTEXT_COLUMN_INFO_END
1000
MTEXTBEGIN
1070
    73
1070
     1
1070
    44
1040
1.0
1070
    74
1070
     0
1000
MTEXTEND
  0
MTEXT
  5
4616
102
{ACAD_XDICTIONARY
360
4617
102
}
330
1F
100
AcDbEntity
  8
Label
100
AcDbMText
 10
11.351831820288
 20
29.8825001536754
 30
0.0
 40
0.05
 41
0.3312669726874446
 71
     5
 72
     5
  1
+ IN  1
 11
-1.0
 21
0.0000000000000001
 31
0.0
 73
     1
 44
1.0
1001
ACAD
1000
ACAD_MTEXT_COLUMN_INFO_BEGIN
1070
    75
1070
     2
1070
    79
1070
     0
1070
    76
1070
     1
1070
    78
1070
     0
1070
    48
1040
0.3312669726874446
1070
    49
1040
5.0
1070
    50
1070
     1
1040
0.0
1000
ACAD_MTEXT_COLUMN_INFO_END
1000
MTEXTBEGIN
1070
    73
1070
     1
1070
    44
1040
1.0
1070
    74
1070
     0
1000
MTEXTEND
  0
MTEXT
  5
4618
102
{ACAD_XDICTIONARY
360
4619
102
}
330
1F
100
AcDbEntity
  8
Label
100
AcDbMText
 10
11.34902928078677
 20
29.25851720688142
 30
0.0
 40
0.05
 41
0.3312669726874446
 71
     5
 72
     5
  1
REF  5
 11
-1.0
 21
0.0000000000000001
 31
0.0
 73
     1
 44
1.0
1001
ACAD
1000
ACAD_MTEXT_COLUMN_INFO_BEGIN
1070
    75
1070
     2
1070
    79
1070
     0
1070
    76
1070
     1
1070
    78
1070
     0
1070
    48
1040
0.3312669726874446
1070
    49
1040
5.0
1070
    50
1070
     1
1040
0.0
1000
ACAD_MTEXT_COLUMN_INFO_END
1000
MTEXTBEGIN
1070
    73
1070
     1
1070
    44
1040
1.0
1070
    74
1070
     0
1000
MTEXTEND
  0
MTEXT
  5
461A
102
{ACAD_XDICTIONARY
360
461B
102
}
330
1F
100
AcDbEntity
  8
Label
100
AcDbMText
 10
11.34187873778095
 20
29.41437652180139
 30
0.0
 40
0.05
 41
0.3312669726874446
 71
     5
 72
     5
  1
CTRL  4
 11
-1.0
 21
0.0000000000000001
 31
0.0
 73
     1
 44
1.0
1001
ACAD
1000
ACAD_MTEXT_COLUMN_INFO_BEGIN
1070
    75
1070
     2
1070
    79
1070
     0
1070
    76
1070
     1
1070
    78
1070
     0
1070
    48
1040
0.3312669726874446
1070
    49
1040
5.0
1070
    50
1070
     1
1040
0.0
1000
ACAD_MTEXT_COLUMN_INFO_END
1000
MTEXTBEGIN
1070
    73
1070
     1
1070
    44
1040
1.0
1070
    74
1070
     0
1000
MTEXTEND
  0
MTEXT
  5
461C
102
{ACAD_XDICTIONARY
360
461D
102
}
330
1F
100
AcDbEntity
  8
Label
100
AcDbMText
 10
11.38735618971849
 20
28.94090794401827
 30
0.0
 40
0.05
 41
0.4208933087075195
 71
     5
 72
     5
  1
INT POT  7
 11
-1.0
 21
0.0000000000000001
 31
0.0
 73
     1
 44
1.0
1001
ACAD
1000
ACAD_MTEXT_COLUMN_INFO_BEGIN
1070
    75
1070
     2
1070
    79
1070
     0
1070
    76
1070
     1
1070
    78
1070
     0
1070
    48
1040
0.4208933087075195
1070
    49
1040
5.0
1070
    50
1070
     1
1040
0.0
1000
ACAD_MTEXT_COLUMN_INFO_END
1000
MTEXTBEGIN
1070
    73
1070
     1
1070
    44
1040
1.0
1070
    74
1070
     0
1000
MTEXTEND
  0
MTEXT
  5
461E
102
{ACAD_XDICTIONARY
360
461F
102
}
330
1F
100
AcDbEntity
  8
Label
100
AcDbMText
 10
11.45883570931938
 20
28.78490794401827
 30
0.0
 40
0.05
 41
0.5515983288223368
 71
     5
 72
     5
  1
V-MON  8
 11
-1.0
 21
0.0000000000000001
 31
0.0
 73
     1
 44
1.0
1001
ACAD
1000
ACAD_MTEXT_COLUMN_INFO_BEGIN
1070
    75
1070
     2
1070
    79
1070
     0
1070
    76
1070
     1
1070
    78
1070
     0
1070
    48
1040
0.5515983288223368
1070
    49
1040
5.0
1070
    50
1070
     1
1040
0.0
1000
ACAD_MTEXT_COLUMN_INFO_END
1000
MTEXTBEGIN
1070
    73
1070
     1
1070
    44
1040
1.0
1070
    74
1070
     0
1000
MTEXTEND
  0
MTEXT
  5
4620
330
1F
100
AcDbEntity
  8
Label
100
AcDbMText
 10
14.68857946977259
 20
28.78822962285059
 30
0.0
 40
0.1
 41
0.5703501484469485
 71
     5
 72
     5
  1
HIGH\PVOLTAGE
 11
0.0000000000000003
 21
1.0
 31
0.0
 73
     1
 44
1.0
1001
ACAD
1000
ACAD_MTEXT_COLUMN_INFO_BEGIN
1070
    75
1070
     2
1070
    79
1070
     0
1070
    76
1070
     1
1070
    78
1070
     0
1070
    48
1040
0.5703501484469485
1070
    49
1040
5.0
1070
    50
1070
     1
1040
0.0
1000
ACAD_MTEXT_COLUMN_INFO_END
1000
MTEXTBEGIN
1070
    73
1070
     1
1070
    44
1040
1.0
1070
    74
1070
     0
1000
MTEXTEND
  0
MTEXT
  5
4621
330
1F
100
AcDbEntity
  8
Label
100
AcDbMText
 10
11.55489677293162
 20
28.53493857630716
 30
0.0
 40
0.05
 41
0.5510245508775036
 71
     5
 72
     5
  1
INTERNAL POT
 11
-1.0
 21
0.0000000000000001
 31
0.0
 73
     1
 44
1.0
1001
ACAD
1000
ACAD_MTEXT_COLUMN_INFO_BEGIN
1070
    75
1070
     2
1070
    79
1070
     0
1070
    76
1070
     1
1070
    78
1070
     0
1070
    48
1040
0.5510245508775036
1070
    49
1040
5.0
1070
    50
1070
     1
1040
0.0
1000
ACAD_MTEXT_COLUMN_INFO_END
1000
MTEXTBEGIN
1070
    73
1070
     1
1070
    44
1040
1.0
1070
    74
1070
     0
1000
MTEXTEND
  0
ARC
  5
4622
330
1F
100
AcDbEntity
  8
Label
100
AcDbCircle
 10
11.1983651012288
 20
28.52753540484109
 30
0.0
 40
0.0616605400023872
100
AcDbArc
 50
293.2270984251932
 51
56.07904064875077
  0
HATCH
  5
4623
330
1F
100
AcDbEntity
  8
Label
 62
     7
100
AcDbHatch
 10
0.0
 20
0.0
 30
0.0
210
0.0
220
0.0
230
1.0
  2
SOLID
 70
     1
 71
     1
 91
        1
 92
        1
 93
        4
 72
     1
 10
11.2058641262108
 20
28.46917203068525
 11
11.22330924312832
 21
28.48918703041803
 72
     1
 10
11.22330924312832
 20
28.48918703041803
 11
11.22268257391672
 21
28.47087251826215
 72
     1
 10
11.22268257391672
 20
28.47087251826215
 11
11.22268257391672
 21
28.45458174979567
 72
     1
 10
11.22268257391672
 20
28.45458174979567
 11
11.2058641262108
 21
28.46917203068525
 97
        4
330
4626
330
4627
330
4624
330
4625
 75
     1
 76
     1
 98
        1
 10
-3.254996618555139
 20
-1.052469964776726
1001
GradientColor1ACI
1070
     5
1001
GradientColor2ACI
1070
     2
1001
ACAD
1010
0.0
1020
0.0
1030
0.0
  0
LINE
  5
4624
102
{ACAD_REACTORS
330
4623
102
}
330
1F
100
AcDbEntity
  8
Label
100
AcDbLine
 10
11.22268257391672
 20
28.47087251826215
 30
0.0
 11
11.22268257391672
 21
28.45458174979567
 31
0.0
  0
LINE
  5
4625
102
{ACAD_REACTORS
330
4623
102
}
330
1F
100
AcDbEntity
  8
Label
100
AcDbLine
 10
11.22268257391672
 20
28.45458174979567
 30
0.0
 11
11.2058641262108
 21
28.46917203068525
 31
0.0
  0
LINE
  5
4626
102
{ACAD_REACTORS
330
4623
102
}
330
1F
100
AcDbEntity
  8
Label
100
AcDbLine
 10
11.2058641262108
 20
28.46917203068525
 30
0.0
 11
11.22330924312832
 21
28.48918703041803
 31
0.0
  0
LINE
  5
4627
102
{ACAD_REACTORS
330
4623
102
}
330
1F
100
AcDbEntity
  8
Label
100
AcDbLine
 10
11.22330924312832
 20
28.48918703041803
 30
0.0
 11
11.22268257391672
 21
28.47087251826215
 31
0.0
  0
ARC
  5
4628
330
1F
100
AcDbEntity
  8
Label
100
AcDbCircle
 10
11.19953982793176
 20
28.52724550424373
 30
0.0
 40
0.0616605400023872
100
AcDbArc
 50
113.2270984251931
 51
236.0790406487506
  0
HATCH
  5
4629
330
1F
100
AcDbEntity
  8
Label
 62
     7
100
AcDbHatch
 10
0.0
 20
0.0
 30
0.0
210
0.0
220
0.0
230
1.0
  2
SOLID
 70
     1
 71
     1
 91
        1
 92
        1
 93
        4
 72
     1
 10
11.19204080294976
 20
28.58560887839957
 11
11.17459568603224
 21
28.5655938786668
 72
     1
 10
11.17459568603224
 20
28.5655938786668
 11
11.17522235524384
 21
28.58390839082267
 72
     1
 10
11.17522235524384
 20
28.58390839082267
 11
11.17522235524384
 21
28.60019915928915
 72
     1
 10
11.17522235524384
 20
28.60019915928915
 11
11.19204080294976
 21
28.58560887839957
 97
        4
330
462C
330
462D
330
462A
330
462B
 75
     1
 76
     1
 98
        1
 10
25.65290154771571
 20
58.10725087386155
1001
GradientColor1ACI
1070
     5
1001
GradientColor2ACI
1070
     2
1001
ACAD
1010
0.0
1020
0.0
1030
0.0
  0
LINE
  5
462A
102
{ACAD_REACTORS
330
4629
102
}
330
1F
100
AcDbEntity
  8
Label
100
AcDbLine
 10
11.17522235524384
 20
28.58390839082267
 30
0.0
 11
11.17522235524384
 21
28.60019915928915
 31
0.0
  0
LINE
  5
462B
102
{ACAD_REACTORS
330
4629
102
}
330
1F
100
AcDbEntity
  8
Label
100
AcDbLine
 10
11.17522235524384
 20
28.60019915928915
 30
0.0
 11
11.19204080294976
 21
28.58560887839957
 31
0.0
  0
LINE
  5
462C
102
{ACAD_REACTORS
330
4629
102
}
330
1F
100
AcDbEntity
  8
Label
100
AcDbLine
 10
11.19204080294976
 20
28.58560887839957
 30
0.0
 11
11.17459568603224
 21
28.5655938786668
 31
0.0
  0
LINE
  5
462D
102
{ACAD_REACTORS
330
4629
102
}
330
1F
100
AcDbEntity
  8
Label
100
AcDbLine
 10
11.17459568603224
 20
28.5655938786668
 30
0.0
 11
11.17522235524384
 21
28.58390839082267
 31
0.0
  0
LINE
  5
462E
330
1F
100
AcDbEntity
  8
Label
100
AcDbLine
 10
14.49591084408845
 20
28.50267922309245
 30
0.0
 11
14.49591084408845
 21
29.07235954379375
 31
0.0
  0
LINE
  5
462F
330
1F
100
AcDbEntity
  8
Label
100
AcDbLine
 10
14.49591084408845
 20
29.07235954379375
 30
0.0
 11
14.01082810707922
 21
28.7875193834431
 31
0.0
  0
LINE
  5
4630
330
1F
100
AcDbEntity
  8
Label
100
AcDbLine
 10
14.01082810707922
 20
28.7875193834431
 30
0.0
 11
14.49591084408845
 21
28.50267922309245
 31
0.0
  0
TEXT
  5
4631
330
1F
100
AcDbEntity
  8
Label
100
AcDbText
 10
14.44181303105861
 20
28.70990779667616
 30
0.0
 40
0.3092943971409952
  1
!
 50
90.0
 72
     1
 11
14.44181303105861
 21
28.78594917333448
 31
0.0
100
AcDbText
  0
MULTILEADER
  5
4632
102
{ACAD_XDICTIONARY
360
4939
102
}
330
1F
100
AcDbEntity
  8
Dimensions
 92
      808
310
28030000180000000C00000016000000000000C00C00000033000000000000000C00000013000000993A0000B00000000B000000B9301896C6B81C4093410C4D86613E40000000000000000000000000000000000000000000000000000000000000F03F000000000000F03F00000000000000000000000000000000494E50
310
555420434F4E4E4543544F52000F00000001000000000000000000C03F000000000000F03F0000000000000000000000000000F03F000000000000000000000000000000000000000054696D6573204E657720526F6D616E0000000000C00000000B0000002A8BDAFFCFDF1840313E833F622B3E4000000000000000000000
310
0000000000000000000000000000000000000000F03F000000000000F03F000000000000000000000000000000004D6174696E6720506C75673A2054452F414D5020312D313132333732322D38001F00000001000000000000000000C03F000000000000F03F0000000000000000000000000000F03F000000000000000000
310
000000000000000000000054696D6573204E657720526F6D616E00000000000C00000033000000000000000C00000010000000040000000C00000016000000000000C00C00000012000000FF7F00000C00000013000000010000000C000000140000000100000054000000070000000300000011B6407B5D4524405F3A90AC
310
86A83D400000000000000000B86D930DC27E2440D4F41ACEA9833D4000000000000000006D0F53768E30244036A36EFE399D3D4000000000000000000C00000013000000891300003C0000000600000002000000BFE2C9F8F53A2440CB6E7F55E0A23D400000000000000000C68580CD01B32240F09C7FBA53573E40000000
310
00000000000C00000013000000112700003C0000000600000002000000C68580CD01B32240F09C7FBA53573E4000000000000000000E67FBE1AFFA2140F09C7FBA53573E4000000000000000000C00000016000000000000C00C00000012000000FF7F00000C00000017000000000000000C000000130000009A3A00000C00
310
000016000000000000C00C00000012000000FF7F00000C00000017000000FFFFFFFF0C0000003300000000000000
100
AcDbMLeader
300
CONTEXT_DATA{
 40
1.0
 10
6.131631059618483
 20
30.34112134566834
 30
0.0
 41
0.125
140
0.18
145
0.09
174
     7
175
     7
176
     2
177
     0
290
     1
304
INPUT CONNECTOR\PMating Plug: TE/AMP 1-1123722-8
 11
0.0
 21
0.0
 31
1.0
340
11
 12
8.899623128832615
 22
30.50595552014563
 32
0.0
 13
1.0
 23
0.0
 33
0.0
 42
0.0
 43
0.0
 44
0.0
 45
1.0
170
     1
 90
-1073741824
171
     3
172
     5
 91
-1073741824
141
0.0
 92
        0
291
     0
292
     0
173
     0
293
     0
142
0.0
143
0.0
294
     0
295
     0
296
     0
110
9.872940936928616
120
29.80068166653282
130
0.0
111
1.0
121
0.0
131
0.0
112
0.0
122
1.0
132
0.0
297
     0
302
LEADER{
290
     1
291
     1
 10
9.349623128832615
 20
30.34112134566834
 30
0.0
 11
-1.0
 21
0.0
 31
0.0
 90
        0
 40
0.36
304
LEADER_LINE{
 10
10.2475742571322
 20
29.51430977018465
 30
0.0
 91
        0
305
}
303
}
301
}
340
285A
 90
 33903616
170
     1
 91
-1056964608
341
14
171
    -2
290
     1
291
     1
 41
0.36
 42
0.18
172
     2
343
11
173
     7
 95
        7
174
     1
175
     2
 92
-1056964608
292
     0
 93
-1056964608
 10
1.0
 20
1.0
 30
1.0
 43
0.0
176
     0
293
     0
294
     0
178
     3
179
     3
 45
1.0
1001
ACAD_MLEADERVER
1070
     2
  0
MTEXT
  5
4633
102
{ACAD_XDICTIONARY
360
4634
102
}
330
1F
100
AcDbEntity
  8
Dimensions
100
AcDbMText
 10
12.56867014297567
 20
20.88608136840893
 30
0.0
 40
0.18
 41
8.117165005772818
 71
     1
 72
     5
  1
{\W6.1549;  }MATING CONNECTOR: TE/AMP 1-1123722-8 (Supplied)\P{\W6.28736; }18-22 AWG CRIMP TERMINALS: TE/AMP 1123721-2 (Supplied)
 73
     1
 44
1.0
1001
ACAD
1000
MTEXTBEGIN
1070
    73
1070
     1
1070
    44
1040
1.0
1070
    74
1070
     0
1000
MTEXTEND
  0
LINE
  5
4635
330
1F
100
AcDbEntity
  8
Label
100
AcDbLine
 10
10.48348596690917
 20
29.88901938344309
 30
0.0
 11
10.48348596690917
 21
28.76601938344311
 31
0.0
  0
LINE
  5
4636
102
{ACAD_REACTORS
330
466A
102
}
330
1F
100
AcDbEntity
  8
Converter
100
AcDbLine
 10
10.20759103907153
 20
27.99751938344311
 30
0.0
 11
10.20759103907153
 21
28.5475193834431
 31
0.0
  0
LINE
  5
4637
330
1F
100
AcDbEntity
  8
Converter
100
AcDbLine
 10
10.20759103907154
 20
30.10751938344311
 30
0.0
 11
10.20759103907154
 21
30.6575193834431
 31
0.0
  0
LINE
  5
4638
330
1F
100
AcDbEntity
  8
Converter
100
AcDbLine
 10
15.32759103907153
 20
27.9775193834431
 30
0.0
 11
15.32759103907154
 21
28.5675193834431
 31
0.0
  0
LINE
  5
4639
102
{ACAD_REACTORS
330
4670
330
4677
102
}
330
1F
100
AcDbEntity
  8
Converter
100
AcDbLine
 10
15.32759103907154
 20
30.08751938344309
 30
0.0
 11
15.32759103907154
 21
30.67751938344309
 31
0.0
  0
LINE
  5
463A
102
{ACAD_REACTORS
330
4677
102
}
330
1F
100
AcDbEntity
  8
Converter
100
AcDbLine
 10
15.32759103907154
 20
30.08751938344309
 30
0.0
 11
14.93259103907153
 21
30.08751938344309
 31
0.0
  0
LINE
  5
463B
102
{ACAD_REACTORS
330
466D
102
}
330
1F
100
AcDbEntity
  8
Converter
100
AcDbLine
 10
10.60259103907154
 20
30.10751938344311
 30
0.0
 11
10.20759103907153
 21
30.1075193834431
 31
0.0
  0
LINE
  5
463C
102
{ACAD_REACTORS
330
4670
102
}
330
1F
100
AcDbEntity
  8
Converter
100
AcDbLine
 10
15.32759103907153
 20
28.5675193834431
 30
0.0
 11
14.93259103907153
 21
28.5675193834431
 31
0.0
  0
LINE
  5
463D
102
{ACAD_REACTORS
330
466D
102
}
330
1F
100
AcDbEntity
  8
Converter
100
AcDbLine
 10
10.60259103907153
 20
28.5475193834431
 30
0.0
 11
10.20759103907153
 21
28.5475193834431
 31
0.0
  0
LINE
  5
463E
102
{ACAD_REACTORS
330
4664
102
}
330
1F
100
AcDbEntity
  8
Converter
100
AcDbLine
 10
10.60259103907153
 20
27.99751938344309
 30
0.0
 11
10.20759103907153
 21
27.9975193834431
 31
0.0
  0
CIRCLE
  5
463F
102
{ACAD_REACTORS
330
4667
102
}
330
1F
100
AcDbEntity
  8
Label
100
AcDbCircle
 10
10.40559103907152
 20
28.2725193834431
 30
0.0
 40
0.0885
  0
CIRCLE
  5
4640
102
{ACAD_REACTORS
330
4826
102
}
330
1F
100
AcDbEntity
  8
Label
100
AcDbCircle
 10
10.40559103907153
 20
30.3825193834431
 30
0.0
 40
0.0885
  0
ARC
  5
4641
330
1F
100
AcDbEntity
  8
Label
100
AcDbCircle
 10
15.15909103907152
 20
28.2725193834431
 30
0.0
 40
0.0885
100
AcDbArc
 50
270.0
 51
90.0
  0
ARC
  5
4642
330
1F
100
AcDbEntity
  8
Label
100
AcDbCircle
 10
15.10059103907154
 20
28.2725193834431
 30
0.0
 40
0.0885
100
AcDbArc
 50
89.99999999999776
 51
270.0000000000022
  0
LINE
  5
4643
330
1F
100
AcDbEntity
  8
Label
100
AcDbLine
 10
15.10059103907154
 20
28.3610193834431
 30
0.0
 11
15.15909103907152
 21
28.3610193834431
 31
0.0
  0
LINE
  5
4644
330
1F
100
AcDbEntity
  8
Label
100
AcDbLine
 10
15.10059103907154
 20
28.1840193834431
 30
0.0
 11
15.15909103907152
 21
28.1840193834431
 31
0.0
  0
ARC
  5
4645
330
1F
100
AcDbEntity
  8
Label
100
AcDbCircle
 10
15.15859103907151
 20
30.3825193834431
 30
0.0
 40
0.0885
100
AcDbArc
 50
270.0
 51
90.0
  0
ARC
  5
4646
330
1F
100
AcDbEntity
  8
Label
100
AcDbCircle
 10
15.10009103907153
 20
30.3825193834431
 30
0.0
 40
0.0885
100
AcDbArc
 50
89.99999999999776
 51
270.0000000000022
  0
LINE
  5
4647
102
{ACAD_REACTORS
330
4844
102
}
330
1F
100
AcDbEntity
  8
Label
100
AcDbLine
 10
15.10009103907153
 20
30.47101938344309
 30
0.0
 11
15.15859103907151
 21
30.4710193834431
 31
0.0
  0
LINE
  5
4648
330
1F
100
AcDbEntity
  8
Label
100
AcDbLine
 10
15.10009103907153
 20
30.2940193834431
 30
0.0
 11
15.15859103907151
 21
30.2940193834431
 31
0.0
  0
LINE
  5
4649
330
1F
100
AcDbEntity
  8
Label
100
AcDbLine
 10
15.32759103907153
 20
22.61667807691138
 30
0.0
 11
15.32759103907153
 21
22.58167807691137
 31
0.0
  0
LINE
  5
464A
330
1F
100
AcDbEntity
  8
Label
100
AcDbLine
 10
10.20759103907153
 20
22.6166780769114
 30
0.0
 11
10.20759103907153
 21
22.5816780769114
 31
0.0
  0
LINE
  5
464B
330
1F
100
AcDbEntity
  8
Converter
100
AcDbLine
 10
10.20759103907153
 20
22.6166780769114
 30
0.0
 11
10.60259103907153
 21
22.61667807691139
 31
0.0
  0
LINE
  5
464C
330
1F
100
AcDbEntity
  8
Converter
100
AcDbLine
 10
14.93259103907153
 20
22.61667807691137
 30
0.0
 11
15.32759103907153
 21
22.61667807691137
 31
0.0
  0
LINE
  5
464D
330
1F
100
AcDbEntity
  8
Label
100
AcDbLine
 10
7.113704842360162
 20
23.58167807691138
 30
0.0
 11
4.213704842360165
 21
23.58167807691138
 31
0.0
  0
LINE
  5
464E
330
1F
100
AcDbEntity
  8
Converter
100
AcDbLine
 10
4.293704842360163
 20
22.62067807691139
 30
0.0
 11
4.883704842360163
 21
22.62067807691138
 31
0.0
  0
LINE
  5
464F
330
1F
100
AcDbEntity
  8
Converter
100
AcDbLine
 10
6.443704842360162
 20
22.62067807691138
 30
0.0
 11
6.993704842360163
 21
22.62067807691139
 31
0.0
  0
LINE
  5
4650
330
1F
100
AcDbEntity
  8
Label
100
AcDbLine
 10
4.883704842360163
 20
22.62067807691139
 30
0.0
 11
4.883704842360163
 21
22.58167807691139
 31
0.0
  0
LINE
  5
4651
330
1F
100
AcDbEntity
  8
Label
100
AcDbLine
 10
6.443704842360162
 20
22.62067807691139
 30
0.0
 11
6.443704842360162
 21
22.58167807691139
 31
0.0
  0
LINE
  5
4652
330
1F
100
AcDbEntity
  8
Label
100
AcDbLine
 10
6.993704842360163
 20
22.62067807691139
 30
0.0
 11
6.993704842360163
 21
22.58167807691139
 31
0.0
  0
LINE
  5
4653
330
1F
100
AcDbEntity
  8
Label
100
AcDbLine
 10
4.293704842360163
 20
22.62067807691139
 30
0.0
 11
4.293704842360163
 21
22.58167807691139
 31
0.0
  0
LINE
  5
4654
330
1F
100
AcDbEntity
  8
Converter
100
AcDbLine
 10
21.33858289095542
 20
23.58167807691138
 30
0.0
 11
21.33858289095542
 21
22.58167807691139
 31
0.0
  0
LINE
  5
4655
330
1F
100
AcDbEntity
  8
Converter
100
AcDbLine
 10
21.33858289095542
 20
22.58167807691139
 30
0.0
 11
18.43858289095542
 21
22.58167807691139
 31
0.0
  0
LINE
  5
4656
330
1F
100
AcDbEntity
  8
Converter
100
AcDbLine
 10
18.43858289095542
 20
22.58167807691139
 30
0.0
 11
18.43858289095542
 21
23.58167807691139
 31
0.0
  0
LINE
  5
4657
330
1F
100
AcDbEntity
  8
Label
100
AcDbLine
 10
18.43858289095542
 20
23.58167807691139
 30
0.0
 11
19.03766490331711
 21
23.58167807691138
 31
0.0
  0
LINE
  5
4658
330
1F
100
AcDbEntity
  8
Label
100
AcDbLine
 10
19.23950087859373
 20
23.58167807691139
 30
0.0
 11
21.33858289095542
 21
23.58167807691138
 31
0.0
  0
LINE
  5
4659
330
1F
100
AcDbEntity
  8
Converter
100
AcDbLine
 10
21.25858289095542
 20
22.62067807691139
 30
0.0
 11
20.66858289095542
 21
22.62067807691138
 31
0.0
  0
LINE
  5
465A
330
1F
100
AcDbEntity
  8
Converter
100
AcDbLine
 10
19.10858289095542
 20
22.62067807691138
 30
0.0
 11
18.55858289095542
 21
22.62067807691139
 31
0.0
  0
LINE
  5
465B
330
1F
100
AcDbEntity
  8
Label
100
AcDbLine
 10
20.66858289095542
 20
22.62067807691139
 30
0.0
 11
20.66858289095542
 21
22.58167807691139
 31
0.0
  0
LINE
  5
465C
330
1F
100
AcDbEntity
  8
Label
100
AcDbLine
 10
19.10858289095542
 20
22.62067807691139
 30
0.0
 11
19.10858289095542
 21
22.58167807691139
 31
0.0
  0
LINE
  5
465D
330
1F
100
AcDbEntity
  8
Label
100
AcDbLine
 10
18.55858289095542
 20
22.62067807691139
 30
0.0
 11
18.55858289095542
 21
22.58167807691139
 31
0.0
  0
LINE
  5
465E
330
1F
100
AcDbEntity
  8
Label
100
AcDbLine
 10
21.25858289095542
 20
22.62067807691139
 30
0.0
 11
21.25858289095542
 21
22.58167807691139
 31
0.0
  0
DIMENSION
  5
465F
102
{ACAD_XDICTIONARY
360
4660
102
}
102
{ACAD_REACTORS
330
4661
102
}
330
1F
100
AcDbEntity
  8
Dimensions
100
AcDbDimension
  2
*D9
 10
14.93259103907153
 20
27.45062314305107
 30
0.0
 11
12.84606840986855
 21
27.45062314305107
 31
0.0
 70
   160
 71
     5
 42
4.330000000000001
  3
Standard
100
AcDbAlignedDimension
 13
10.60259103907153
 23
27.87751938344309
 33
0.0
 14
14.93259103907153
 24
27.8775193834431
 34
0.0
100
AcDbRotatedDimension
  0
DIMENSION
  5
4662
102
{ACAD_XDICTIONARY
360
4663
102
}
102
{ACAD_REACTORS
330
4664
102
}
330
1F
100
AcDbEntity
  8
Dimensions
100
AcDbDimension
  2
*D10
 10
15.32759103907153
 20
26.69975582899436
 30
0.0
 11
12.87600865857656
 21
26.69975582899436
 31
0.0
 70
   160
 71
     5
 42
5.119999999999997
  3
Standard
100
AcDbAlignedDimension
 13
10.20759103907153
 23
27.9975193834431
 33
0.0
 14
15.32759103907153
 24
27.9775193834431
 34
0.0
100
AcDbRotatedDimension
  0
DIMENSION
  5
4665
102
{ACAD_XDICTIONARY
360
4666
102
}
102
{ACAD_REACTORS
330
4667
102
}
330
1F
100
AcDbEntity
  8
Dimensions
100
AcDbDimension
  2
*D11
 10
15.12984103907152
 20
27.01591044910401
 30
0.0
 11
12.87600865857656
 21
27.01591044910401
 31
0.0
 70
   160
 71
     5
 42
4.724250000000003
  3
Standard
100
AcDbAlignedDimension
 13
10.40559103907152
 23
28.2725193834431
 33
0.0
 14
15.12984103907152
 24
28.2725193834431
 34
0.0
100
AcDbRotatedDimension
  0
DIMENSION
  5
4668
102
{ACAD_XDICTIONARY
360
4669
102
}
102
{ACAD_REACTORS
330
466A
102
}
330
1F
100
AcDbEntity
  8
Dimensions
100
AcDbDimension
  2
*D12
 10
9.916751305073956
 20
28.5475193834431
 30
0.0
 11
9.212791319493561
 21
27.57402070389221
 31
0.0
 70
   160
 71
     5
 42
0.5499999999999901
  3
Standard
100
AcDbAlignedDimension
 13
10.20759103907153
 23
27.99751938344311
 33
0.0
 14
10.20759103907153
 24
28.5475193834431
 34
0.0
 50
90.0
100
AcDbRotatedDimension
  0
DIMENSION
  5
466B
102
{ACAD_XDICTIONARY
360
466C
102
}
102
{ACAD_REACTORS
330
466D
102
}
330
1F
100
AcDbEntity
  8
Dimensions
100
AcDbDimension
  2
*D13
 10
9.307989151898416
 20
30.1075193834431
 30
0.0
 11
9.307989151898411
 21
29.17042682957779
 31
0.0
 70
   160
 71
     5
 42
1.559999999999995
  3
Standard
100
AcDbAlignedDimension
 13
10.20759103907153
 23
28.5475193834431
 33
0.0
 14
10.20759103907153
 24
30.1075193834431
 34
0.0
 50
90.0
100
AcDbRotatedDimension
  0
DIMENSION
  5
466E
102
{ACAD_XDICTIONARY
360
466F
102
}
102
{ACAD_REACTORS
330
4670
102
}
330
1F
100
AcDbEntity
  8
Dimensions
100
AcDbDimension
  2
*D14
 10
16.57224661997776
 20
28.5675193834431
 30
0.0
 11
16.57224661997776
 21
29.28310072801822
 31
0.0
 70
   160
 71
     5
 42
1.519999999999996
  3
Standard
100
AcDbAlignedDimension
 13
15.32759103907154
 23
30.08751938344309
 33
0.0
 14
15.32759103907153
 24
28.5675193834431
 34
0.0
 50
90.0
100
AcDbRotatedDimension
  0
DIMENSION
  5
4671
330
1F
100
AcDbEntity
  8
Dimensions
100
AcDbDimension
  2
*D4
 10
17.4722460815109
 20
28.2725193834431
 30
0.0
 11
17.47224608151089
 21
29.56696125075985
 31
0.0
 70
   160
 71
     5
 42
2.109999999999999
  3
Standard
100
AcDbAlignedDimension
 13
15.12934103907152
 23
30.3825193834431
 33
0.0
 14
15.12984103907152
 24
28.2725193834431
 34
0.0
 50
90.0
100
AcDbRotatedDimension
  0
LINE
  5
4672
102
{ACAD_REACTORS
330
46B7
102
}
330
1F
100
AcDbEntity
  8
Converter
100
AcDbLine
 10
10.60259103907154
 20
30.6575193834431
 30
0.0
 11
10.20759103907154
 21
30.6575193834431
 31
0.0
  0
LINE
  5
4673
330
1F
100
AcDbEntity
  8
Converter
100
AcDbLine
 10
15.32759103907154
 20
30.6775193834431
 30
0.0
 11
14.93259103907153
 21
30.6775193834431
 31
0.0
  0
LINE
  5
4674
330
1F
100
AcDbEntity
  8
Converter
100
AcDbLine
 10
15.32759103907153
 20
27.9775193834431
 30
0.0
 11
14.93259103907153
 21
27.9775193834431
 31
0.0
  0
DIMENSION
  5
4675
102
{ACAD_XDICTIONARY
360
4676
102
}
102
{ACAD_REACTORS
330
4677
102
}
330
1F
100
AcDbEntity
  8
Dimensions
100
AcDbDimension
  2
*D15
 10
15.95430379532605
 20
30.67751938344309
 30
0.0
 11
16.65826378090644
 21
31.03387423893177
 31
0.0
 70
   160
 71
     5
 42
0.5899999999999963
  3
Standard
100
AcDbAlignedDimension
 13
15.32759103907154
 23
30.08751938344309
 33
0.0
 14
15.32759103907154
 24
30.67751938344309
 34
0.0
 50
90.0
100
AcDbRotatedDimension
  0
LINE
  5
4678
330
1F
100
AcDbEntity
  8
Converter
100
AcDbLine
 10
15.33045770425134
 20
28.88755714466113
 30
0.0
 11
14.99311084888116
 21
28.88755714466113
 31
0.0
  0
LINE
  5
4679
330
1F
100
AcDbEntity
  8
Converter
100
AcDbLine
 10
15.33255760911026
 20
28.68809455269364
 30
0.0
 11
14.99311084888116
 21
28.68809455269364
 31
0.0
  0
LINE
  5
467A
330
1F
100
AcDbEntity
  8
Converter
100
AcDbLine
 10
14.93259103907152
 20
28.94476677304821
 30
0.0
 11
14.93775976774016
 21
28.94476677304821
 31
0.0
  0
ARC
  5
467B
330
1F
100
AcDbEntity
  8
Converter
100
AcDbCircle
 10
14.93775976774016
 20
28.88941569190721
 30
0.0
 40
0.0553510811409984
100
AcDbArc
 50
359.9999999999998
 51
89.9999999999998
  0
LINE
  5
467C
330
1F
100
AcDbEntity
  8
Converter
100
AcDbLine
 10
14.99311084888116
 20
28.88941569190721
 30
0.0
 11
14.99311084888116
 21
28.88815771279037
 31
0.0
  0
LINE
  5
467D
330
1F
100
AcDbEntity
  8
Converter
100
AcDbLine
 10
14.99311084888116
 20
28.88815771279037
 30
0.0
 11
14.99311084888116
 21
28.7875193834431
 31
0.0
  0
LINE
  5
467E
330
1F
100
AcDbEntity
  8
Converter
100
AcDbLine
 10
14.99311084888116
 20
28.7875193834431
 30
0.0
 11
14.99311084888116
 21
28.68688105409583
 31
0.0
  0
LINE
  5
467F
330
1F
100
AcDbEntity
  8
Converter
100
AcDbLine
 10
14.99311084888116
 20
28.68688105409583
 30
0.0
 11
14.99311084888116
 21
28.68562307497898
 31
0.0
  0
ARC
  5
4680
330
1F
100
AcDbEntity
  8
Converter
100
AcDbCircle
 10
14.93775976774016
 20
28.68562307497898
 30
0.0
 40
0.0553510811409984
100
AcDbArc
 50
269.9999999999998
 51
359.9999999999998
  0
LINE
  5
4681
330
1F
100
AcDbEntity
  8
Converter
100
AcDbLine
 10
14.93775976774016
 20
28.63027199383799
 30
0.0
 11
14.93259103907152
 21
28.63027199383799
 31
0.0
  0
ELLIPSE
  5
4682
330
1F
100
AcDbEntity
  8
Converter
100
AcDbEllipse
 10
15.33153381277667
 20
28.83750022511009
 30
0.0
 11
-0.0010529139342188
 21
0.0500588287837342
 31
0.0
210
0.0
220
0.0
230
-1.0
 40
0.4743985434157973
 41
0.0
 42
6.283185307179586
  0
ELLIPSE
  5
4683
330
1F
100
AcDbEntity
  8
Converter
100
AcDbEllipse
 10
15.33152924576709
 20
28.73795528683539
 30
0.0
 11
-0.0010487242807173
 21
0.0498596395238365
 31
0.0
210
0.0
220
0.0
230
-1.0
 40
0.4743985434157972
 41
6.247442710384381
 42
9.442216002441965
  0
LINE
  5
4684
330
1F
100
AcDbEntity
  8
Converter
100
AcDbLine
 10
15.33045770425135
 20
23.08171583812942
 30
0.0
 11
14.99311084888118
 21
23.08171583812942
 31
0.0
  0
LINE
  5
4685
330
1F
100
AcDbEntity
  8
Converter
100
AcDbLine
 10
15.33255760911027
 20
22.88225324616193
 30
0.0
 11
14.99311084888118
 21
22.88225324616193
 31
0.0
  0
LINE
  5
4686
330
1F
100
AcDbEntity
  8
Converter
100
AcDbLine
 10
14.93259103907154
 20
23.1389254665165
 30
0.0
 11
14.93775976774017
 21
23.1389254665165
 31
0.0
  0
ARC
  5
4687
330
1F
100
AcDbEntity
  8
Converter
100
AcDbCircle
 10
14.93775976774017
 20
23.0835743853755
 30
0.0
 40
0.0553510811409984
100
AcDbArc
 50
359.9999999999998
 51
89.9999999999998
  0
LINE
  5
4688
330
1F
100
AcDbEntity
  8
Converter
100
AcDbLine
 10
14.99311084888118
 20
23.0835743853755
 30
0.0
 11
14.99311084888118
 21
23.08231640625866
 31
0.0
  0
LINE
  5
4689
330
1F
100
AcDbEntity
  8
Converter
100
AcDbLine
 10
14.99311084888118
 20
23.08231640625866
 30
0.0
 11
14.99311084888118
 21
22.98167807691139
 31
0.0
  0
LINE
  5
468A
330
1F
100
AcDbEntity
  8
Converter
100
AcDbLine
 10
14.99311084888118
 20
22.98167807691139
 30
0.0
 11
14.99311084888118
 21
22.88103974756412
 31
0.0
  0
LINE
  5
468B
330
1F
100
AcDbEntity
  8
Converter
100
AcDbLine
 10
14.99311084888118
 20
22.88103974756412
 30
0.0
 11
14.99311084888118
 21
22.87978176844728
 31
0.0
  0
ARC
  5
468C
330
1F
100
AcDbEntity
  8
Converter
100
AcDbCircle
 10
14.93775976774017
 20
22.87978176844728
 30
0.0
 40
0.0553510811409984
100
AcDbArc
 50
269.9999999999998
 51
359.9999999999998
  0
LINE
  5
468D
330
1F
100
AcDbEntity
  8
Converter
100
AcDbLine
 10
14.93775976774017
 20
22.82443068730628
 30
0.0
 11
14.93259103907154
 21
22.82443068730628
 31
0.0
  0
ELLIPSE
  5
468E
330
1F
100
AcDbEntity
  8
Converter
100
AcDbEllipse
 10
15.33153381277668
 20
23.03165891857837
 30
0.0
 11
-0.0010529139342188
 21
0.0500588287837342
 31
0.0
210
0.0
220
0.0
230
-1.0
 40
0.4743985434157973
 41
0.0
 42
6.283185307179586
  0
ELLIPSE
  5
468F
330
1F
100
AcDbEntity
  8
Converter
100
AcDbEllipse
 10
15.33152924576711
 20
22.93211398030368
 30
0.0
 11
-0.0010487242807173
 21
0.0498596395238365
 31
0.0
210
0.0
220
0.0
230
-1.0
 40
0.4743985434157972
 41
6.247442710384381
 42
9.442216002441965
  0
MTEXT
  5
4690
102
{ACAD_XDICTIONARY
360
4691
102
}
330
1F
100
AcDbEntity
  8
Dimensions
100
AcDbMText
 10
18.78009663816638
 20
25.10309918689886
 30
0.0
 40
0.125
 41
0.0
 71
     9
 72
     1
  1
\A1;HV OUTPUT WIRE 24.00 [609.6] Min. length\PSHIELDED CABLE (Unterminated)
 73
     1
 44
1.0
1001
ACAD
1000
MTEXTBEGIN
1070
    73
1070
     1
1070
    44
1040
1.0
1070
    74
1070
     0
1000
MTEXTEND
  0
LEADER
  5
4692
330
1F
100
AcDbEntity
  8
Dimensions
100
AcDbLeader
  3
Standard
 76
     3
 10
18.04209718643775
 20
24.86092514242024
 30
0.0
 10
18.51081176377042
 20
25.276179566015
 30
0.0
 10
18.71862464341501
 20
25.276179566015
 30
0.0
211
-1.0
221
0.0
231
0.0
213
-0.0099549141559443
223
-0.0661784013801707
233
0.0
1001
ACAD
1000
DSTYLE
1002
{
1070
   147
1040
0.09
1070
    77
1070
     0
1002
}
  0
ARC
  5
4693
330
1F
100
AcDbEntity
  8
Converter
100
AcDbCircle
 10
19.13858289095542
 20
22.98167807691138
 30
0.0
 40
0.1576843556848679
100
AcDbArc
 50
129.791819499557
 51
50.2081805004431
  0
ARC
  5
4694
330
1F
100
AcDbEntity
  8
Converter
100
AcDbCircle
 10
19.13858289095542
 20
22.98167807691138
 30
0.0
 40
0.1009179876383156
100
AcDbArc
 50
180.0
 51
0.0
  0
LINE
  5
4695
330
1F
100
AcDbEntity
  8
Converter
100
AcDbLine
 10
19.03766490331711
 20
22.98167807691138
 30
0.0
 11
19.03766490331711
 21
24.27245109033718
 31
0.0
  0
LINE
  5
4696
330
1F
100
AcDbEntity
  8
Converter
100
AcDbLine
 10
18.7853699342213
 20
24.52474605943296
 30
0.0
 11
17.64725162779103
 21
24.52474605943296
 31
0.0
  0
LINE
  5
4697
330
1F
100
AcDbEntity
  8
Converter
100
AcDbLine
 10
17.52550692798043
 20
24.52474605943296
 30
0.0
 11
16.29887232547861
 21
24.52474605943296
 31
0.0
  0
ARC
  5
4698
330
1F
100
AcDbEntity
  8
Converter
100
AcDbCircle
 10
18.7853699342213
 20
24.27245109033718
 30
0.0
 40
0.2522949690957887
100
AcDbArc
 50
0.0
 51
90.0
  0
LINE
  5
4699
330
1F
100
AcDbEntity
  8
Converter
100
AcDbLine
 10
19.23950087859373
 20
22.98167807691138
 30
0.0
 11
19.23950087859373
 21
24.27245109033717
 31
0.0
  0
LINE
  5
469A
330
1F
100
AcDbEntity
  8
Converter
100
AcDbLine
 10
18.7853699342213
 20
24.72658203470959
 30
0.0
 11
17.71156689834394
 21
24.72658203470958
 31
0.0
  0
LINE
  5
469B
330
1F
100
AcDbEntity
  8
Converter
100
AcDbLine
 10
17.58982219853334
 20
24.72658203470958
 30
0.0
 11
16.2988723254786
 21
24.72658203470959
 31
0.0
  0
ARC
  5
469C
330
1F
100
AcDbEntity
  8
Converter
100
AcDbCircle
 10
18.7853699342213
 20
24.27245109033717
 30
0.0
 40
0.4541309443724196
100
AcDbArc
 50
0.0
 51
90.0
  0
LINE
  5
469D
330
1F
100
AcDbEntity
  8
Converter
100
AcDbLine
 10
17.62895026924833
 20
24.95436577913314
 30
0.0
 11
17.72986825688664
 21
24.67612304089043
 31
0.0
  0
LINE
  5
469E
330
1F
100
AcDbEntity
  8
Converter
100
AcDbLine
 10
17.72986825688664
 20
24.67612304089043
 30
0.0
 11
17.62895026924833
 21
24.57520505325212
 31
0.0
  0
LINE
  5
469F
330
1F
100
AcDbEntity
  8
Converter
100
AcDbLine
 10
17.62895026924833
 20
24.57520505325212
 30
0.0
 11
17.72986825688664
 21
24.29696231500941
 31
0.0
  0
LINE
  5
46A0
330
1F
100
AcDbEntity
  8
Converter
100
AcDbLine
 10
17.50720556943773
 20
24.95436577913314
 30
0.0
 11
17.60812355707604
 21
24.67612304089043
 31
0.0
  0
LINE
  5
46A1
330
1F
100
AcDbEntity
  8
Converter
100
AcDbLine
 10
17.60812355707604
 20
24.67612304089043
 30
0.0
 11
17.50720556943773
 21
24.57520505325212
 31
0.0
  0
LINE
  5
46A2
330
1F
100
AcDbEntity
  8
Converter
100
AcDbLine
 10
17.50720556943773
 20
24.57520505325212
 30
0.0
 11
17.60812355707604
 21
24.29696231500941
 31
0.0
  0
HATCH
  5
46A3
330
1F
100
AcDbEntity
  8
Dimensions
 62
     7
100
AcDbHatch
 10
0.0
 20
0.0
 30
0.0
210
0.0
220
0.0
230
1.0
  2
AR-HBONE
 70
     0
 71
     1
 91
        1
 92
        7
 72
     0
 73
     1
 93
        4
 10
16.13465867484936
 20
24.69066404707128
 10
16.13465867484936
 20
24.56066404707128
 10
16.29887232547861
 20
24.56066404707128
 10
16.2988723254786
 20
24.69066404707128
 97
        4
330
46A8
330
46AA
330
46A9
330
46A4
 75
     1
 76
     1
 52
0.0
 41
0.01
 77
     0
 78
     2
 53
45.0
 43
-24.46605785811782
 44
0.8434443237245154
 45
0.0
 46
0.0565685424949238
 79
     2
 49
0.12
 49
-0.04
 53
135.0
 43
-24.43777358686782
 44
0.8717285949745168
 45
0.0
 46
0.0565685424949238
 79
     2
 49
0.12
 49
-0.04
 47
0.0013061718608649
 98
        1
 10
16.22165840723929
 20
24.64177789743914
1001
GradientColor1ACI
1070
     5
1001
GradientColor2ACI
1070
     2
1001
ACAD
1010
0.0
1020
0.0
1030
0.0
  0
LINE
  5
46A4
102
{ACAD_REACTORS
330
46A3
102
}
330
1F
100
AcDbEntity
  8
Converter
100
AcDbLine
 10
16.2988723254786
 20
24.72658203470959
 30
0.0
 11
16.29887232547861
 21
24.52474605943296
 31
0.0
  0
LINE
  5
46A5
330
1F
100
AcDbEntity
  8
Converter
100
AcDbLine
 10
16.13465867484935
 20
24.6369937425256
 30
0.0
 11
15.87953612966311
 21
24.6369937425256
 31
0.0
  0
LINE
  5
46A6
330
1F
100
AcDbEntity
  8
Converter
100
AcDbLine
 10
15.87953612966311
 20
24.6369937425256
 30
0.0
 11
15.87953612966311
 21
24.61433435161696
 31
0.0
  0
LINE
  5
46A7
330
1F
100
AcDbEntity
  8
Converter
100
AcDbLine
 10
15.87953612966311
 20
24.61433435161696
 30
0.0
 11
16.13465867484937
 21
24.61433435161696
 31
0.0
  0
LINE
  5
46A8
102
{ACAD_REACTORS
330
46A3
102
}
330
1F
100
AcDbEntity
  8
Converter
100
AcDbLine
 10
16.2988723254786
 20
24.69066404707128
 30
0.0
 11
16.13465867484935
 21
24.69066404707128
 31
0.0
  0
LINE
  5
46A9
102
{ACAD_REACTORS
330
46A3
102
}
330
1F
100
AcDbEntity
  8
Converter
100
AcDbLine
 10
16.2988723254786
 20
24.56066404707128
 30
0.0
 11
16.13465867484935
 21
24.56066404707128
 31
0.0
  0
LINE
  5
46AA
102
{ACAD_REACTORS
330
46A3
102
}
330
1F
100
AcDbEntity
  8
Converter
100
AcDbLine
 10
16.13465867484936
 20
24.69066404707128
 30
0.0
 11
16.13465867484936
 21
24.56066404707129
 31
0.0
  0
LINE
  5
46AB
330
1F
100
AcDbEntity
  8
Converter
100
AcDbLine
 10
10.43959103907153
 20
28.80115141474432
 30
0.0
 11
10.38850331503942
 21
28.80115141474433
 31
0.0
  0
LINE
  5
46AC
330
1F
100
AcDbEntity
  8
Converter
100
AcDbLine
 10
10.38850331503942
 20
28.80115141474433
 30
0.0
 11
10.37459103907154
 21
28.78590294519003
 31
0.0
  0
LINE
  5
46AD
330
1F
100
AcDbEntity
  8
Converter
100
AcDbLine
 10
10.37459103907154
 20
28.78590294519003
 30
0.0
 11
10.37459103907154
 21
28.77642384647602
 31
0.0
  0
LINE
  5
46AE
330
1F
100
AcDbEntity
  8
Converter
100
AcDbLine
 10
10.37459103907154
 20
28.77642384647602
 30
0.0
 11
10.38850331503942
 21
28.76117537692173
 31
0.0
  0
LINE
  5
46AF
330
1F
100
AcDbEntity
  8
Converter
100
AcDbLine
 10
10.38850331503942
 20
28.76117537692173
 30
0.0
 11
10.60259103907153
 21
28.76117537692173
 31
0.0
  0
LINE
  5
46B0
330
1F
100
AcDbEntity
  8
Converter
100
AcDbLine
 10
10.60259103907153
 20
28.6400193834431
 30
0.0
 11
10.32759103907153
 21
28.6400193834431
 31
0.0
  0
LINE
  5
46B1
330
1F
100
AcDbEntity
  8
Converter
100
AcDbLine
 10
10.60259103907154
 20
29.8890193834431
 30
0.0
 11
10.43959103907154
 21
29.88901938344309
 31
0.0
  0
LINE
  5
46B2
330
1F
100
AcDbEntity
  8
Converter
100
AcDbLine
 10
10.60259103907153
 20
28.76601938344311
 30
0.0
 11
10.43959103907154
 21
28.76601938344311
 31
0.0
  0
LINE
  5
46B3
330
1F
100
AcDbEntity
  8
Converter
100
AcDbLine
 10
10.60259103907154
 20
29.9850193834431
 30
0.0
 11
10.32759103907153
 21
29.9850193834431
 31
0.0
  0
LINE
  5
46B4
330
1F
100
AcDbEntity
  8
Converter
100
AcDbLine
 10
10.60259103907153
 20
28.6700193834431
 30
0.0
 11
10.32759103907153
 21
28.6700193834431
 31
0.0
  0
DIMENSION
  5
46B5
102
{ACAD_XDICTIONARY
360
46B6
102
}
102
{ACAD_REACTORS
330
46B7
102
}
330
1F
100
AcDbEntity
  8
Dimensions
100
AcDbDimension
  2
*D16
 10
9.891376704442604
 20
30.6575193834431
 30
0.0
 11
9.73304023258764
 21
31.04058762258615
 31
0.0
 70
   160
 71
     5
 42
0.5499999999999972
  3
Standard
100
AcDbAlignedDimension
 13
10.20759103907154
 23
30.10751938344311
 33
0.0
 14
10.20759103907154
 24
30.6575193834431
 34
0.0
 50
90.0
100
AcDbRotatedDimension
1001
ACAD
1000
DSTYLE
1002
{
1070
   279
1070
     1
1002
}
  0
LINE
  5
46B8
330
1F
100
AcDbEntity
  8
Converter
100
AcDbLine
 10
10.32759103907153
 20
30.0150193834431
 30
0.0
 11
10.32759103907153
 21
28.6400193834431
 31
0.0
  0
LINE
  5
46B9
330
1F
100
AcDbEntity
  8
Converter
100
AcDbLine
 10
10.32759103907153
 20
22.95461037570978
 30
0.0
 11
10.32759103907153
 21
22.6526780769114
 31
0.0
  0
LINE
  5
46BA
330
1F
100
AcDbEntity
  8
Converter
100
AcDbLine
 10
10.60259103907153
 20
22.65276846918381
 30
0.0
 11
10.32759103907153
 21
22.6526780769114
 31
0.0
  0
LINE
  5
46BB
330
1F
100
AcDbEntity
  8
Converter
100
AcDbLine
 10
10.42903552729521
 20
23.00972948198289
 30
0.0
 11
10.42902239120258
 21
23.0297114173129
 31
0.0
  0
LINE
  5
46BC
330
1F
100
AcDbEntity
  8
Converter
100
AcDbLine
 10
10.60259103907153
 20
23.00978652953598
 30
0.0
 11
10.42903552729521
 21
23.00972948198289
 31
0.0
  0
LINE
  5
46BD
330
1F
100
AcDbEntity
  8
Converter
100
AcDbLine
 10
10.60259103907153
 20
22.95470076798219
 30
0.0
 11
10.32759103907153
 21
22.95461037570978
 31
0.0
  0
LWPOLYLINE
  5
46BE
330
1F
100
AcDbEntity
  8
Converter
100
AcDbPolyline
 90
        4
 70
     1
 43
0.0
 10
5.296204842360165
 20
22.8591780769114
 10
5.251204842360166
 20
22.8591780769114
 10
5.251204842360166
 20
22.9041780769114
 10
5.296204842360165
 20
22.9041780769114
  0
LWPOLYLINE
  5
46BF
330
1F
100
AcDbEntity
  8
Converter
100
AcDbPolyline
 90
        4
 70
     1
 43
0.0
 10
5.452204842360163
 20
22.8591780769114
 10
5.407204842360165
 20
22.8591780769114
 10
5.407204842360165
 20
22.9041780769114
 10
5.452204842360163
 20
22.9041780769114
  0
LWPOLYLINE
  5
46C0
330
1F
100
AcDbEntity
  8
Converter
100
AcDbPolyline
 90
        4
 70
     1
 43
0.0
 10
5.608204842360162
 20
22.8591780769114
 10
5.563204842360164
 20
22.8591780769114
 10
5.563204842360164
 20
22.9041780769114
 10
5.608204842360162
 20
22.9041780769114
  0
LWPOLYLINE
  5
46C1
330
1F
100
AcDbEntity
  8
Converter
100
AcDbPolyline
 90
        4
 70
     1
 43
0.0
 10
5.764204842360161
 20
22.8591780769114
 10
5.719204842360163
 20
22.8591780769114
 10
5.719204842360163
 20
22.9041780769114
 10
5.764204842360161
 20
22.9041780769114
  0
LWPOLYLINE
  5
46C2
330
1F
100
AcDbEntity
  8
Converter
100
AcDbPolyline
 90
        4
 70
     1
 43
0.0
 10
5.92020484236016
 20
22.8591780769114
 10
5.875204842360162
 20
22.8591780769114
 10
5.875204842360162
 20
22.9041780769114
 10
5.92020484236016
 20
22.9041780769114
  0
LWPOLYLINE
  5
46C3
330
1F
100
AcDbEntity
  8
Converter
100
AcDbPolyline
 90
        4
 70
     1
 43
0.0
 10
6.076204842360159
 20
22.8591780769114
 10
6.03120484236016
 20
22.8591780769114
 10
6.03120484236016
 20
22.9041780769114
 10
6.076204842360159
 20
22.9041780769114
  0
LWPOLYLINE
  5
46C4
330
1F
100
AcDbEntity
  8
Converter
100
AcDbPolyline
 90
        4
 70
     1
 43
0.0
 10
6.232204842360157
 20
22.8591780769114
 10
6.187204842360159
 20
22.8591780769114
 10
6.187204842360159
 20
22.9041780769114
 10
6.232204842360157
 20
22.9041780769114
  0
LWPOLYLINE
  5
46C5
330
1F
100
AcDbEntity
  8
Converter
100
AcDbPolyline
 90
        4
 70
     1
 43
0.0
 10
5.140204842360166
 20
22.8591780769114
 10
5.095204842360168
 20
22.8591780769114
 10
5.095204842360168
 20
22.9041780769114
 10
5.140204842360166
 20
22.9041780769114
  0
LINE
  5
46C6
330
1F
100
AcDbEntity
  8
Converter
100
AcDbLine
 10
4.976204842360161
 20
22.95461037570978
 30
0.0
 11
4.976204842360161
 21
22.6526780769114
 31
0.0
  0
LINE
  5
46C7
330
1F
100
AcDbEntity
  8
Converter
100
AcDbLine
 10
6.225204842360163
 20
23.02971141731289
 30
0.0
 11
6.225204842360163
 21
22.95461037570978
 31
0.0
  0
LINE
  5
46C8
330
1F
100
AcDbEntity
  8
Converter
100
AcDbLine
 10
5.102204842360162
 20
23.02971141731291
 30
0.0
 11
5.102204842360162
 21
22.95461037570978
 31
0.0
  0
LINE
  5
46C9
330
1F
100
AcDbEntity
  8
Converter
100
AcDbLine
 10
5.006204842360162
 20
22.95461037570978
 30
0.0
 11
5.006204842360162
 21
22.6826780769114
 31
0.0
  0
LINE
  5
46CA
330
1F
100
AcDbEntity
  8
Converter
100
AcDbLine
 10
6.321204842360161
 20
22.95461037570978
 30
0.0
 11
6.321204842360161
 21
22.6826780769114
 31
0.0
  0
LINE
  5
46CB
330
1F
100
AcDbEntity
  8
Converter
100
AcDbLine
 10
5.006204842360162
 20
22.6826780769114
 30
0.0
 11
6.321204842360161
 21
22.6826780769114
 31
0.0
  0
DIMENSION
  5
46CC
330
1F
100
AcDbEntity
  8
Dimensions
100
AcDbDimension
  2
*D5
 10
7.887919077771298
 20
22.8816780769114
 30
0.0
 11
6.823153396444691
 21
22.33167807691138
 31
0.0
 70
   160
  1
<> REF Only
 71
     5
 42
0.3000000000000149
  3
Standard
100
AcDbAlignedDimension
 13
7.433704842360162
 23
22.58167807691139
 33
0.0
 14
6.232204842360157
 24
22.8816780769114
 34
0.0
 50
90.0
100
AcDbRotatedDimension
  0
ACAD_TABLE
  5
46CD
102
{ACAD_XDICTIONARY
360
493C
102
}
330
1F
100
AcDbEntity
  8
Dimensions
 92
     5180
310
3C14000082000000880000001D000000000000000000F03F00000000000000000000000000000000E0C29636A8040A400000000000000000000000000000F03F0000000000000000EC80230F8A59344000000000000000000000000000000000000000000000F03F0000000000000000000000000000000000000000000000
310
000000000000000000000000000000F03F0C00000016000000010000C30C00000017000000FDFFFFFF0C0000001200000000000000A40000000B0000009A8EFFD397E9D83F80EBBAA4D7B6E0BF000000000000000000000000000000000000000000000000000000000000F03F000000000000F03F00000000000000000000
310
00000000000023003A2A0100000001000000333333333333D33F000000000000F03F0000000000000000000000000000F03F000000000000000000000000000000000000000054696D6573204E657720526F6D616E00008C3A2A0C00000016000000010000C30C00000017000000FDFFFFFF0C0000001200000000000000AC
310
0000000B000000FEE4F4A07668004047EBA4704CB3E0BF000000000000000000000000000000000000000000000000000000000000F03F000000000000F03F0000000000000000000000000000000046554E4354494F4E004E45430800000001000000333333333333D33F000000000000F03F000000000000000000000000
310
0000F03F000000000000000000000000000000000000000054696D6573204E657720526F6D616E0000616E000C00000016000000010000C30C00000017000000FDFFFFFF0C0000001200000000000000A40000000B0000006C890EB5FCC9DB3F2288F103C7B3EFBF0000000000000000000000000000000000000000000000
310
00000000000000F03F000000000000F03F000000000000000000000000000000003100999901000000010000000AD7A3703D0AC73F000000000000F03F0000000000000000000000000000F03F000000000000000000000000000000000000000054696D6573204E657720526F6D616E0000883A2A0C000000160000000100
310
00C30C00000017000000FDFFFFFF0C0000001200000000000000A80000000B000000C3C7E1CF9A6105402288F103C7B3EFBF000000000000000000000000000000000000000000000000000000000000F03F000000000000F03F000000000000000000000000000000002B20494E5055540007000000010000000AD7A3703D
310
0AC73F000000000000F03F0000000000000000000000000000F03F000000000000000000000000000000000000000054696D6573204E657720526F6D616E00000000000C00000016000000010000C30C00000017000000FDFFFFFF0C0000001200000000000000A40000000B00000049580EB3F1EADB3F516B06F6BD1AF7BF
310
000000000000000000000000000000000000000000000000000000000000F03F000000000000F03F000000000000000000000000000000003200000001000000010000000AD7A3703D0AC73F000000000000F03F0000000000000000000000000000F03F000000000000000000000000000000000000000054696D6573204E
310
657720526F6D616E00000000000C00000016000000010000C30C00000017000000FDFFFFFF0C0000001200000000000000AC0000000B000000C16E692EAF0403407BEC79C7582DF7BF000000000000000000000000000000000000000000000000000000000000F03F000000000000F03F0000000000000000000000000000
310
00002D20494E5055542F474E44000B000000010000000AD7A3703D0AC73F000000000000F03F0000000000000000000000000000F03F000000000000000000000000000000000000000054696D6573204E657720526F6D616E00000052000C00000016000000010000C30C00000017000000FDFFFFFF0C0000001200000000
310
000000A40000000B0000002528711BD91BDC3F9112146A985BFEBF000000000000000000000000000000000000000000000000000000000000F03F000000000000F03F0000000000000000000000000000000033003A2A01000000010000000AD7A3703D0AC73F000000000000F03F0000000000000000000000000000F03F
310
000000000000000000000000000000000000000054696D6573204E657720526F6D616E00000A2B2E0C00000016000000010000C30C00000017000000FDFFFFFF0C0000001200000000000000AC0000000B00000046BE8843D0C902409112146A985BFEBF000000000000000000000000000000000000000000000000000000
310
000000F03F000000000000F03F000000000000000000000000000000005349474E414C2D474E4400000A000000010000000AD7A3703D0AC73F000000000000F03F0000000000000000000000000000F03F000000000000000000000000000000000000000054696D6573204E657720526F6D616E0000531C2A0C0000001600
310
0000010000C30C00000017000000FDFFFFFF0C0000001200000000000000A40000000B0000008DBE9A60D1E8DB3FE9DC106F39CE02C0000000000000000000000000000000000000000000000000000000000000F03F000000000000F03F000000000000000000000000000000003400000001000000010000000AD7A3703D
310
0AC73F000000000000F03F0000000000000000000000000000F03F000000000000000000000000000000000000000054696D6573204E657720526F6D616E00000000000C00000016000000010000C30C00000017000000FDFFFFFF0C0000001200000000000000B40000000B000000F8A6CB072D07FD3F7E9DCAD786D702C0
310
000000000000000000000000000000000000000000000000000000000000F03F000000000000F03F00000000000000000000000000000000434F4E54524F4C2F2050524F4752414D0000650010000000010000000AD7A3703D0AC73F000000000000F03F0000000000000000000000000000F03F0000000000000000000000
310
00000000000000000054696D6573204E657720526F6D616E00000065000C00000016000000010000C30C00000017000000FDFFFFFF0C0000001200000000000000A40000000B000000D124270EB1E6DB3F89B017A9A66E06C0000000000000000000000000000000000000000000000000000000000000F03F000000000000
310
F03F0000000000000000000000000000000035009F4301000000010000000AD7A3703D0AC73F000000000000F03F0000000000000000000000000000F03F000000000000000000000000000000000000000054696D6573204E657720526F6D616E0000C0A1430C00000016000000010000C30C00000017000000FDFFFFFF0C
310
0000001200000000000000B40000000B00000058F065B28103FC3F89B017A9A66E06C0000000000000000000000000000000000000000000000000000000000000F03F000000000000F03F000000000000000000000000000000005245464552454E434520564F4C5441474500650011000000010000000AD7A3703D0AC73F
310
000000000000F03F0000000000000000000000000000F03F000000000000000000000000000000000000000054696D6573204E657720526F6D616E00000000000C00000016000000010000C30C00000017000000FDFFFFFF0C0000001200000000000000A40000000B000000F654C4A5C9B5DB3F29841EE3130F0AC0000000
310
000000000000000000000000000000000000000000000000000000F03F000000000000F03F000000000000000000000000000000003600B44301000000010000000AD7A3703D0AC73F000000000000F03F0000000000000000000000000000F03F000000000000000000000000000000000000000054696D6573204E657720
310
526F6D616E000040B2430C00000016000000010000C30C00000017000000FDFFFFFF0C0000001200000000000000A40000000B000000F0760DA1F7ED074029841EE3130F0AC0000000000000000000000000000000000000000000000000000000000000F03F000000000000F03F000000000000000000000000000000004E
310
43004302000000010000000AD7A3703D0AC73F000000000000F03F0000000000000000000000000000F03F000000000000000000000000000000000000000054696D6573204E657720526F6D616E0000C0B3430C00000016000000010000C30C00000017000000FDFFFFFF0C0000001200000000000000A40000000B000000
310
C2892F834DCFDB3FC957251D81AF0DC0000000000000000000000000000000000000000000000000000000000000F03F000000000000F03F000000000000000000000000000000003700B24301000000010000000AD7A3703D0AC73F000000000000F03F0000000000000000000000000000F03F0000000000000000000000
310
00000000000000000054696D6573204E657720526F6D616E0000C0B4430C00000016000000010000C30C00000017000000FDFFFFFF0C0000001200000000000000B00000000B0000008EF42031DFC70140C957251D81AF0DC0000000000000000000000000000000000000000000000000000000000000F03F000000000000
310
F03F00000000000000000000000000000000494E5445524E414C20504F54000020000C000000010000000AD7A3703D0AC73F000000000000F03F0000000000000000000000000000F03F000000000000000000000000000000000000000054696D6573204E657720526F6D616E00000062000C00000016000000010000C30C
310
00000017000000FDFFFFFF0C0000001200000000000000A40000000B00000090BB7121FAB8DB3FB415962BF7A710C0000000000000000000000000000000000000000000000000000000000000F03F000000000000F03F000000000000000000000000000000003800B94301000000010000000AD7A3703D0AC73F00000000
310
0000F03F0000000000000000000000000000F03F000000000000000000000000000000000000000054696D6573204E657720526F6D616E0000C0B9430C00000016000000010000C30C00000017000000FDFFFFFF0C0000001200000000000000B00000000B0000007AD387D8A235FE3FB415962BF7A710C000000000000000
310
0000000000000000000000000000000000000000000000F03F000000000000F03F00000000000000000000000000000000564F4C54414745204D4F4E49544F52000F000000010000000AD7A3703D0AC73F000000000000F03F0000000000000000000000000000F03F00000000000000000000000000000000000000005469
310
6D6573204E657720526F6D616E00000029000C00000016000000010000C30C00000017000000FDFFFFFF0C00000012000000000000003C000000060000000200000000000000000000000000000000000000000000000000000060B417789B5E1540000000000000000000000000000000000C00000016000000010000C30C
310
00000017000000FDFFFFFF0C00000012000000000000003C0000000600000002000000000000000000000080401089B205E8BF000000000000000060B417789B5E154080401089B205E8BF00000000000000000C00000016000000010000C30C00000017000000FDFFFFFF0C00000012000000000000003C00000006000000
310
02000000000000000000000080C795B8B343F3BF000000000000000060B417789B5E154080C795B8B343F3BF00000000000000000C00000016000000010000C30C00000017000000FDFFFFFF0C00000012000000000000003C00000006000000020000000000000000000000C06EA32C8E84FABF000000000000000060B417
310
789B5E1540C06EA32C8E84FABF00000000000000000C00000016000000010000C30C00000017000000FDFFFFFF0C00000012000000000000003C00000006000000020000000000000000000000008B5850B4E200C0000000000000000060B417789B5E1540008B5850B4E200C000000000000000000C000000160000000100
310
00C30C00000017000000FDFFFFFF0C00000012000000000000003C00000006000000020000000000000000000000A05E5F8A218304C0000000000000000060B417789B5E1540A05E5F8A218304C000000000000000000C00000016000000010000C30C00000017000000FDFFFFFF0C00000012000000000000003C00000006
310
000000020000000000000000000000403266C48E2308C0000000000000000060B417789B5E1540403266C48E2308C000000000000000000C00000016000000010000C30C00000017000000FDFFFFFF0C00000012000000000000003C00000006000000020000000000000000000000E0056DFEFBC30BC00000000000000000
310
60B417789B5E1540E0056DFEFBC30BC000000000000000000C00000016000000010000C30C00000017000000FDFFFFFF0C00000012000000000000003C0000000600000002000000000000000000000080D9733869640FC0000000000000000060B417789B5E154080D9733869640FC000000000000000000C000000160000
310
00010000C30C00000017000000FDFFFFFF0C00000012000000000000003C0000000600000002000000000000000000000090563D396B8211C0000000000000000060B417789B5E154090563D396B8211C000000000000000000C00000016000000010000C30C00000017000000FDFFFFFF0C00000012000000000000003C00
310
00000600000002000000000000000000000000000000000000000000000000000000000000000000000090563D396B8211C000000000000000000C00000016000000010000C30C00000017000000FDFFFFFF0C00000012000000000000003C0000000600000002000000000000000000F03F00000000000000000000000000
310
000000000000000000F03F90563D396B8211C000000000000000000C00000016000000010000C30C00000017000000FDFFFFFF0C00000012000000000000003C000000060000000200000060B417789B5E15400000000000000000000000000000000060B417789B5E154090563D396B8211C000000000000000000C000000
310
16000000080000C30C00000017000000000000000C00000012000000000000003C0000000600000002000000000000000000000000000000000000000000000000000000000000000000000000000000000000000000000000000000080000001F000000
100
AcDbBlockReference
  2
*T6
 10
3.252273966289394
 20
20.34976286522662
 30
0.0
100
AcDbTable
342
2846
343
46F7
 11
1.0
 21
0.0
 31
0.0
 90
       22
 91
        9
 92
        2
 93
        1
 94
        0
 95
        0
 96
        0
280
     1
141
0.7506954838772946
141
0.4533333333333334
141
0.4533333333333334
141
0.4533333333333334
141
0.4533333333333334
141
0.4533333333333334
141
0.4533333333333334
141
0.4533333333333334
141
0.4533333333333334
142
1.0
142
4.342389942595303
171
     1
172
     0
173
     0
174
     0
175
     1
176
     1
177
    32
178
     0
145
0.0
  1
#
140
0.3
171
     1
172
     0
173
     0
174
     0
175
     1
176
     1
177
    32
178
     0
145
0.0
  1
FUNCTION
140
0.3
171
     1
172
     0
173
     0
174
     0
175
     1
176
     1
177
     0
178
     0
145
0.0
  1
1
171
     1
172
     0
173
     0
174
     0
175
     1
176
     1
177
     0
178
     0
145
0.0
  1
+ INPUT
171
     1
172
     0
173
     0
174
     0
175
     1
176
     1
177
     0
178
     0
145
0.0
  1
2
171
     1
172
     0
173
     0
174
     0
175
     1
176
     1
177
     0
178
     0
145
0.0
  1
- INPUT/GND
171
     1
172
     0
173
     0
174
     0
175
     1
176
     1
177
     0
178
     0
145
0.0
  1
3
171
     1
172
     0
173
     0
174
     0
175
     1
176
     1
177
     0
178
     0
145
0.0
  1
SIGNAL-GND
171
     1
172
     0
173
     0
174
     0
175
     1
176
     1
177
     0
178
     0
145
0.0
  1
4
171
     1
172
     0
173
     0
174
     0
175
     1
176
     1
177
     0
178
     0
145
0.0
  1
CONTROL/ PROGRAM
171
     1
172
     0
173
     0
174
     0
175
     1
176
     1
177
     0
178
     0
145
0.0
  1
5
171
     1
172
     0
173
     0
174
     0
175
     1
176
     1
177
     0
178
     0
145
0.0
  1
REFERENCE VOLTAGE
171
     1
172
     0
173
     0
174
     0
175
     1
176
     1
177
     0
178
     0
145
0.0
  1
6
171
     1
172
     0
173
     0
174
     0
175
     1
176
     1
177
     0
178
     0
145
0.0
  1
NC
171
     1
172
     0
173
     0
174
     0
175
     1
176
     1
177
     0
178
     0
145
0.0
  1
7
171
     1
172
     0
173
     0
174
     0
175
     1
176
     1
177
     0
178
     0
145
0.0
  1
INTERNAL POT
171
     1
172
     0
173
     0
174
     0
175
     1
176
     1
177
     0
178
     0
145
0.0
  1
8
171
     1
172
     0
173
     0
174
     0
175
     1
176
     1
177
     0
178
     0
145
0.0
  1
VOLTAGE MONITOR
  0
MTEXT
  5
46CE
102
{ACAD_XDICTIONARY
360
46CF
102
}
330
1F
100
AcDbEntity
  8
Label
100
AcDbMText
 10
11.3896641579121
 20
29.56492499722427
 30
0.0
 40
0.05
 41
0.4171588247922103
 71
     5
 72
     5
  1
SIG-GND  3
 11
-1.0
 21
0.0000000000000001
 31
0.0
 73
     1
 44
1.0
1001
ACAD
1000
ACAD_MTEXT_COLUMN_INFO_BEGIN
1070
    75
1070
     2
1070
    79
1070
     0
1070
    76
1070
     1
1070
    78
1070
     0
1070
    48
1040
0.4171588247922103
1070
    49
1040
5.0
1070
    50
1070
     1
1040
0.0
1000
ACAD_MTEXT_COLUMN_INFO_END
1000
MTEXTBEGIN
1070
    73
1070
     1
1070
    44
1040
1.0
1070
    74
1070
     0
1000
MTEXTEND
  0
CIRCLE
  5
46D0
330
1F
100
AcDbEntity
  8
Converter
100
AcDbCircle
 10
11.19296865257878
 20
29.88434405987777
 30
0.0
 40
0.0467328058409464
  0
CIRCLE
  5
46D1
330
1F
100
AcDbEntity
  8
Converter
100
AcDbCircle
 10
11.19296865257878
 20
29.72843999730474
 30
0.0
 40
0.0467328058409464
  0
CIRCLE
  5
46D2
330
1F
100
AcDbEntity
  8
Converter
100
AcDbCircle
 10
11.19296865257878
 20
29.56294407292471
 30
0.0
 40
0.0467328058409464
  0
CIRCLE
  5
46D3
330
1F
100
AcDbEntity
  8
Converter
100
AcDbCircle
 10
11.19296865257878
 20
29.41147742667725
 30
0.0
 40
0.0467328058409464
  0
CIRCLE
  5
46D4
330
1F
100
AcDbEntity
  8
Converter
100
AcDbCircle
 10
11.19296865257878
 20
29.25471602646619
 30
0.0
 40
0.0467328058409464
  0
CIRCLE
  5
46D5
330
1F
100
AcDbEntity
  8
Converter
100
AcDbCircle
 10
11.19296865257878
 20
29.09327227670941
 30
0.0
 40
0.0467328058409464
  0
CIRCLE
  5
46D6
330
1F
100
AcDbEntity
  8
Converter
100
AcDbCircle
 10
11.19296865257878
 20
28.93421341431213
 30
0.0
 40
0.0467328058409464
  0
CIRCLE
  5
46D7
330
1F
100
AcDbEntity
  8
Converter
100
AcDbCircle
 10
11.19296865257878
 20
28.78521886649497
 30
0.0
 40
0.0467328058409464
  0
LINE
  5
46D8
330
1F
100
AcDbEntity
  8
Converter
100
AcDbLine
 10
6.834226297972891
 20
23.05288875361608
 30
0.0
 11
6.924064645393867
 21
23.01739010738644
 31
0.0
  0
LINE
  5
46D9
330
1F
100
AcDbEntity
  8
Converter
100
AcDbLine
 10
6.843345039326477
 20
23.07596604643637
 30
0.0
 11
6.933183386747449
 21
23.04046740020672
 31
0.0
  0
CIRCLE
  5
46DA
330
1F
100
AcDbEntity
  8
Converter
100
AcDbCircle
 10
6.883704842360168
 20
23.0466780769114
 30
0.0
 40
0.049866811205589
  0
CIRCLE
  5
46DB
330
1F
100
AcDbEntity
  8
Converter
100
AcDbCircle
 10
6.883704842360168
 20
23.0466780769114
 30
0.0
 40
0.125
  0
DIMENSION
  5
4811
102
{ACAD_XDICTIONARY
360
481D
102
}
102
{ACAD_REACTORS
330
4826
102
}
330
1F
100
AcDbEntity
  8
Dimensions
100
AcDbDimension
  2
*D19
 10
10.42124259414318
 20
30.29541439607821
 30
0.0
 11
9.212809054169976
 21
31.57996777284594
 31
0.0
 70
   163
  1
<> 2plc
 71
     5
 42
0.1770000000000031
  3
Standard
100
AcDbDiametricDimension
 15
10.38993948399989
 25
30.46962437080801
 35
0.0
 40
0.0
1001
ACAD_DSTYLE_DIMRADIAL_EXTENSION
1070
   387
1070
     1
1070
   388
1040
0.0
1070
   390
1040
0.0
  0
MULTILEADER
  5
4842
102
{ACAD_XDICTIONARY
360
4843
102
}
102
{ACAD_REACTORS
330
4844
102
}
330
1F
100
AcDbEntity
  8
Dimensions
 92
      856
310
58030000190000000C00000016000000000000C00C00000033000000000000000C00000013000000993A0000A80000000B0000002EBB5864B6B73040F25598C75C923F40000000000000000000000000000000000000000000000000000000000000F03F000000000000F03F00000000000000000000000000000000325820
310
52000000000400000001000000000000000000C03F000000000000F03F0000000000000000000000000000F03F000000000000000000000000000000000000000054696D6573204E657720526F6D616E0000E00044BC0000000B000000236F2C3405B730409D004372075D3F40000000000000000000000000000000000000
310
000000000000000000000000F03F000000000000F03F00000000000000000000000000000000302E323336205B362E305D207820302E313737205B342E355D0000001900000001000000000000000000C03F000000000000F03F0000000000000000000000000000F03F000000000000000000000000000000000000000054
310
696D6573204E657720526F6D616E00000000000C00000033000000000000000C00000010000000040000000C00000016000000000000C00C00000012000000FF7F00000C00000013000000010000000C0000001400000001000000540000000700000003000000D5D4B68D20902E40317870B15E923E400000000000000000
310
8AAF19FD38422E4091ABEFB994783E40000000000000000055398B2A307B2E4073B1F1EB9B9D3E4000000000000000000C00000013000000891300003C00000006000000020000001507215CA8852E40D214B14EFD973E4000000000000000000B806611874530405C5F3FEDF8883F4000000000000000000C000000130000
310
00112700003C00000006000000020000000B806611874530405C5F3FEDF8883F400000000000000000670F2907B0A130405C5F3FEDF8883F4000000000000000000C00000016000000000000C00C00000012000000FF7F00000C00000017000000000000000C000000130000009A3A00003C0000000600000002000000670F
310
2907B0A130405C5F3FEDF8883F4000000000000000009E1DE7B25C8932405C5F3FEDF8883F4000000000000000000C00000016000000000000C00C00000012000000FF7F00000C00000017000000FFFFFFFF0C0000003300000000000000
100
AcDbMLeader
300
CONTEXT_DATA{
 40
1.0
 10
16.63159222366758
 20
31.53504832074337
 30
0.0
 41
0.125
140
0.18
145
0.09
174
     6
175
     6
176
     0
177
     0
290
     1
304
2X R\P0.236 [6.0] x 0.177 [4.5]
 11
0.0
 21
0.0
 31
1.0
340
11
 12
16.72159222366758
 22
31.69672820538649
 32
0.0
 13
1.0
 23
0.0
 33
0.0
 42
0.0
 43
1.814978498363757
 44
0.0
 45
1.0
170
     1
 90
-1073741824
171
     1
172
     5
 91
-1073741824
141
0.0
 92
        0
291
     0
292
     0
173
     0
293
     0
142
0.0
143
0.0
294
     0
295
     0
296
     0
110
15.12934103907152
120
30.4710193834431
130
0.0
111
1.0
121
0.0
131
0.0
112
0.0
122
1.0
132
0.0
297
     0
302
LEADER{
290
     1
291
     1
 10
16.27159222366758
 20
31.53504832074337
 30
0.0
 11
1.0
 21
0.0
 31
0.0
 90
        0
 40
0.36
304
LEADER_LINE{
 10
15.12934103907152
 20
30.4710193834431
 30
0.0
 91
        0
305
}
303
}
301
}
340
285A
 90
   349184
170
     1
 91
-1056964608
341
14
171
    -2
290
     1
291
     1
 41
0.36
 42
0.18
172
     2
343
11
173
     6
 95
        6
174
     1
175
     0
 92
-1056964608
292
     0
 93
-1056964608
 10
1.0
 20
1.0
 30
1.0
 43
0.0
176
     0
293
     0
294
     0
178
     1
179
     1
 45
1.0
1001
ACAD_MLEADERVER
1070
     2
  0
ENDSEC
  0
SECTION
  2
OBJECTS
  0
DICTIONARY
  5
C
330
0
100
AcDbDictionary
281
     1
  3
ACAD_CIP_PREVIOUS_PRODUCT_INFO
350
2863
  3
ACAD_COLOR
350
73
  3
ACAD_DETAILVIEWSTYLE
350
285E
  3
ACAD_GROUP
350
D
  3
ACAD_LAYOUT
350
1A
  3
ACAD_MATERIAL
350
72
  3
ACAD_MLEADERSTYLE
350
2859
  3
ACAD_MLINESTYLE
350
17
  3
ACAD_PLOTSETTINGS
350
19
  3
ACAD_PLOTSTYLENAME
350
E
  3
ACAD_SCALELIST
350
2847
  3
ACAD_SECTIONVIEWSTYLE
350
285B
  3
ACAD_TABLESTYLE
350
2845
  3
ACAD_VISUALSTYLE
350
282C
  3
ACDB_RECOMPOSE_DATA
350
48F2
  3
AcDbVariableDictionary
350
66
  3
AcDsDecomposeData
350
48F9
  3
ASE_INDEX_DICTIONARY
350
3B8
  3
DWGPROPS
350
48F3
  0
DICTIONARY
  5
2A48
330
2
100
AcDbDictionary
280
     1
281
     1
  3
ACAD_LAYERSTATES
360
2A49
  0
DICTIONARY
  5
3553
330
10
100
AcDbDictionary
280
     1
281
     1
  3
ADSK_XREC_LAYER_RECONCILED
360
3554
  0
DICTIONARY
  5
3555
330
89
100
AcDbDictionary
280
     1
281
     1
  3
ADSK_XREC_LAYER_RECONCILED
360
3556
  0
DICTIONARY
  5
3557
330
FB
100
AcDbDictionary
280
     1
281
     1
  3
ADSK_XREC_LAYER_RECONCILED
360
3558
  0
DICTIONARY
  5
3559
330
2EF
100
AcDbDictionary
280
     1
281
     1
  3
ADSK_XREC_LAYER_RECONCILED
360
355A
  0
DICTIONARY
  5
355B
330
3BC
100
AcDbDictionary
280
     1
281
     1
  3
ADSK_XREC_LAYER_RECONCILED
360
355C
  0
DICTIONARY
  5
355D
330
608
100
AcDbDictionary
280
     1
281
     1
  3
ADSK_XREC_LAYER_RECONCILED
360
355E
  0
DICTIONARY
  5
355F
330
609
100
AcDbDictionary
280
     1
281
     1
  3
ADSK_XREC_LAYER_RECONCILED
360
3560
  0
DICTIONARY
  5
3561
330
EBF
100
AcDbDictionary
280
     1
281
     1
  3
ADSK_XREC_LAYER_RECONCILED
360
3562
  0
DICTIONARY
  5
3563
330
17A0
100
AcDbDictionary
280
     1
281
     1
  3
ADSK_XREC_LAYER_RECONCILED
360
3564
  0
DICTIONARY
  5
3565
330
19D4
100
AcDbDictionary
280
     1
281
     1
  3
ADSK_XREC_LAYER_RECONCILED
360
3566
  0
DICTIONARY
  5
2A46
330
2A45
100
AcDbDictionary
280
     1
281
     1
  3
ADSK_XREC_LAYER_RECONCILED
360
3567
  0
DICTIONARY
  5
383E
330
383D
100
AcDbDictionary
280
     1
281
     1
  0
DICTIONARY
  5
413B
330
413A
100
AcDbDictionary
280
     1
281
     1
  0
DICTIONARY
  5
3BAF
330
1F
100
AcDbDictionary
280
     1
281
     1
  3
ACAD_SORTENTS
360
3BB0
  0
DICTIONARY
  5
4952
330
4885
100
AcDbDictionary
280
     1
281
     1
  3
ACAD_MTEXT_RT
360
4953
  0
DICTIONARY
  5
45B5
330
45B4
100
AcDbDictionary
280
     1
281
     1
  3
ACAD_DIMASSOC
360
45B6
  0
DICTIONARY
  5
45B9
330
45B8
100
AcDbDictionary
280
     1
281
     1
  3
ACAD_DIMASSOC
360
45BA
  0
DICTIONARY
  5
45BE
330
45BD
100
AcDbDictionary
280
     1
281
     1
  3
ACAD_MTEXT_2008_RT
360
48E7
  0
DICTIONARY
  5
4613
330
4612
100
AcDbDictionary
280
     1
281
     1
  3
ACAD_MTEXT_2008_RT
360
48E8
  0
DICTIONARY
  5
4615
330
4614
100
AcDbDictionary
280
     1
281
     1
  3
ACAD_MTEXT_2008_RT
360
48E9
  0
DICTIONARY
  5
4617
330
4616
100
AcDbDictionary
280
     1
281
     1
  3
ACAD_MTEXT_2008_RT
360
48EA
  0
DICTIONARY
  5
4619
330
4618
100
AcDbDictionary
280
     1
281
     1
  3
ACAD_MTEXT_2008_RT
360
48EB
  0
DICTIONARY
  5
461B
330
461A
100
AcDbDictionary
280
     1
281
     1
  3
ACAD_MTEXT_2008_RT
360
48EC
  0
DICTIONARY
  5
461D
330
461C
100
AcDbDictionary
280
     1
281
     1
  3
ACAD_MTEXT_2008_RT
360
48ED
  0
DICTIONARY
  5
461F
330
461E
100
AcDbDictionary
280
     1
281
     1
  3
ACAD_MTEXT_2008_RT
360
48EE
  0
DICTIONARY
  5
4939
330
4632
100
AcDbDictionary
280
     1
281
     1
  3
ACAD_XREC_ROUNDTRIP
360
493A
  0
DICTIONARY
  5
4634
330
4633
100
AcDbDictionary
280
     1
281
     1
  3
ACAD_MTEXT_2008_RT
360
48EF
  3
ACAD_MTEXT_RT
360
493B
  0
DICTIONARY
  5
4660
330
465F
100
AcDbDictionary
280
     1
281
     1
  3
ACAD_DIMASSOC
360
4661
  0
DICTIONARY
  5
4663
330
4662
100
AcDbDictionary
280
     1
281
     1
  3
ACAD_DIMASSOC
360
4664
  0
DICTIONARY
  5
4666
330
4665
100
AcDbDictionary
280
     1
281
     1
  3
ACAD_DIMASSOC
360
4667
  0
DICTIONARY
  5
4669
330
4668
100
AcDbDictionary
280
     1
281
     1
  3
ACAD_DIMASSOC
360
466A
  0
DICTIONARY
  5
466C
330
466B
100
AcDbDictionary
280
     1
281
     1
  3
ACAD_DIMASSOC
360
466D
  0
DICTIONARY
  5
466F
330
466E
100
AcDbDictionary
280
     1
281
     1
  3
ACAD_DIMASSOC
360
4670
  0
DICTIONARY
  5
4676
330
4675
100
AcDbDictionary
280
     1
281
     1
  3
ACAD_DIMASSOC
360
4677
  0
DICTIONARY
  5
4691
330
4690
100
AcDbDictionary
280
     1
281
     1
  3
ACAD_MTEXT_2008_RT
360
48F0
  0
DICTIONARY
  5
46B6
330
46B5
100
AcDbDictionary
280
     1
281
     1
  3
ACAD_DIMASSOC
360
46B7
  0
DICTIONARY
  5
493C
330
46CD
100
AcDbDictionary
280
     1
281
     1
  3
ACAD_XREC_ROUNDTRIP
360
493D
  0
DICTIONARY
  5
46CF
330
46CE
100
AcDbDictionary
280
     1
281
     1
  3
ACAD_MTEXT_2008_RT
360
48F1
  0
DICTIONARY
  5
481D
330
4811
100
AcDbDictionary
280
     1
281
     1
  3
ACAD_DIMASSOC
360
4826
  0
DICTIONARY
  5
4843
330
4842
100
AcDbDictionary
280
     1
281
     1
  3
ACAD_DIMASSOC
360
4844
  3
ACAD_XREC_ROUNDTRIP
360
4951
  0
XRECORD
  5
2863
102
{ACAD_REACTORS
330
C
102
}
330
C
100
AcDbXrecord
280
     1
300
ACDLT
300
2013
300
ACDLT_F_S
  0
DICTIONARY
  5
73
102
{ACAD_REACTORS
330
C
102
}
330
C
100
AcDbDictionary
281
     1
  0
DICTIONARY
  5
285E
102
{ACAD_REACTORS
330
C
102
}
330
C
100
AcDbDictionary
281
     1
  3
Imperial24
350
285F
  0
DICTIONARY
  5
D
102
{ACAD_REACTORS
330
C
102
}
330
C
100
AcDbDictionary
281
     1
  0
DICTIONARY
  5
1A
102
{ACAD_REACTORS
330
C
102
}
330
C
100
AcDbDictionary
281
     1
  3
Layout1
350
59
  3
Layout2
350
5E
  3
Model
350
22
  0
DICTIONARY
  5
72
102
{ACAD_REACTORS
330
C
102
}
330
C
100
AcDbDictionary
281
     1
  3
ByBlock
350
281C
  3
ByLayer
350
2814
  3
Global
350
2824
  0
DICTIONARY
  5
2859
102
{ACAD_REACTORS
330
C
102
}
330
C
100
AcDbDictionary
281
     1
  3
Standard
350
285A
  0
DICTIONARY
  5
17
102
{ACAD_REACTORS
330
C
102
}
330
C
100
AcDbDictionary
281
     1
  3
Standard
350
18
  0
DICTIONARY
  5
19
102
{ACAD_REACTORS
330
C
102
}
330
C
100
AcDbDictionary
281
     1
  0
ACDBDICTIONARYWDFLT
  5
E
102
{ACAD_REACTORS
330
C
102
}
330
C
100
AcDbDictionary
281
     1
  3
Normal
350
F
100
AcDbDictionaryWithDefault
340
F
  0
DICTIONARY
  5
2847
102
{ACAD_REACTORS
330
C
102
}
330
C
100
AcDbDictionary
281
     1
  3
A0
350
2848
  3
A1
350
2849
  3
A2
350
284A
  3
A3
350
284B
  3
A4
350
284C
  3
A5
350
284D
  3
A6
350
284E
  3
A7
350
284F
  3
A8
350
2850
  3
A9
350
2851
  3
B0
350
2852
  3
B1
350
2853
  3
B2
350
2854
  3
B3
350
2855
  3
B4
350
2856
  3
B5
350
2857
  3
B6
350
2858
  0
DICTIONARY
  5
285B
102
{ACAD_REACTORS
330
C
102
}
330
C
100
AcDbDictionary
281
     1
  3
Imperial24
350
285D
  0
DICTIONARY
  5
2845
102
{ACAD_REACTORS
330
C
102
}
330
C
100
AcDbDictionary
281
     1
  3
Standard
350
2846
  0
DICTIONARY
  5
282C
102
{ACAD_REACTORS
330
C
102
}
330
C
100
AcDbDictionary
281
     1
  3
2dWireframe
350
2832
  3
Basic
350
2831
  3
Brighten
350
2838
  3
ColorChange
350
283C
  3
Conceptual
350
2835
  3
Dim
350
2837
  3
EdgeColorOff
350
2844
  3
Facepattern
350
283B
  3
Flat
350
282D
  3
FlatWithEdges
350
282E
  3
Gouraud
350
282F
  3
GouraudWithEdges
350
2830
  3
Hidden
350
2834
  3
JitterOff
350
2842
  3
Linepattern
350
283A
  3
OverhangOff
350
2843
  3
Realistic
350
2836
  3
Shaded
350
2841
  3
Shaded with edges
350
2840
  3
Shades of Gray
350
283D
  3
Sketchy
350
283E
  3
Thicken
350
2839
  3
Wireframe
350
2833
  3
X-Ray
350
283F
  0
XRECORD
  5
48F2
102
{ACAD_REACTORS
330
C
102
}
330
C
100
AcDbXrecord
280
     1
 90
        1
330
2846
330
45BD
330
4612
330
4614
330
4616
330
4618
330
461A
330
461C
330
461E
330
4620
330
4621
330
4633
330
4690
330
46CE
  0
DICTIONARY
  5
66
102
{ACAD_REACTORS
330
C
102
}
330
C
100
AcDbDictionary
281
     1
  3
CANNOSCALE
350
35FF
  3
CMLEADERSTYLE
350
35FB
  3
CTABLESTYLE
350
35FA
  3
CVIEWDETAILSTYLE
350
35FC
  3
CVIEWSECTIONSTYLE
350
35FD
  3
DIMASSOC
350
67
  3
HIDETEXT
350
6B
  3
HPCOLOR
350
41A6
  3
INDEXCTL
350
48E3
  3
LAYEREVAL
350
3601
  3
LAYERNOTIFY
350
3602
  3
LIGHTINGUNITS
350
3600
  3
MSLTSCALE
350
35FE
  3
SORTENTS
350
48E2
  3
XCLIPFRAME
350
48E4
  0
DICTIONARY
  5
48F9
102
{ACAD_REACTORS
330
C
102
}
330
C
100
AcDbDictionary
281
     1
  3
AcDsRecords
350
48FB
  3
AcDsSchemas
350
48FA
1001
ACAD
1070
     2
  0
DICTIONARY
  5
3B8
102
{ACAD_REACTORS
330
C
102
}
330
C
100
AcDbDictionary
281
     1
  3
ASEBlockHierarchyIndexRecord
350
3BA
1001
DCO15
1040
1708757302.563
  0
XRECORD
  5
48F3
102
{ACAD_REACTORS
330
C
102
}
330
C
100
AcDbXrecord
280
     1
  1
DWGPROPS COOKIE
  2

  3

  4

  6

  7

  8
Randy
  9

300
=
301
=
302
=
303
=
304
=
305
=
306
=
307
=
308
=
309
=
 40
0.7502267476851852
 41
2455580.464364746
 42
2458248.387162222
  1

 90
        0
  0
DICTIONARY
  5
2A49
102
{ACAD_REACTORS
330
2A48
102
}
330
2A48
100
AcDbDictionary
281
     1
  0
XRECORD
  5
3554
102
{ACAD_REACTORS
330
3553
102
}
330
3553
100
AcDbXrecord
280
     1
290
     1
  0
XRECORD
  5
3556
102
{ACAD_REACTORS
330
3555
102
}
330
3555
100
AcDbXrecord
280
     1
290
     1
  0
XRECORD
  5
3558
102
{ACAD_REACTORS
330
3557
102
}
330
3557
100
AcDbXrecord
280
     1
290
     1
  0
XRECORD
  5
355A
102
{ACAD_REACTORS
330
3559
102
}
330
3559
100
AcDbXrecord
280
     1
290
     1
  0
XRECORD
  5
355C
102
{ACAD_REACTORS
330
355B
102
}
330
355B
100
AcDbXrecord
280
     1
290
     1
  0
XRECORD
  5
355E
102
{ACAD_REACTORS
330
355D
102
}
330
355D
100
AcDbXrecord
280
     1
290
     1
  0
XRECORD
  5
3560
102
{ACAD_REACTORS
330
355F
102
}
330
355F
100
AcDbXrecord
280
     1
290
     1
  0
XRECORD
  5
3562
102
{ACAD_REACTORS
330
3561
102
}
330
3561
100
AcDbXrecord
280
     1
290
     1
  0
XRECORD
  5
3564
102
{ACAD_REACTORS
330
3563
102
}
330
3563
100
AcDbXrecord
280
     1
290
     1
  0
XRECORD
  5
3566
102
{ACAD_REACTORS
330
3565
102
}
330
3565
100
AcDbXrecord
280
     1
290
     1
  0
XRECORD
  5
3567
102
{ACAD_REACTORS
330
2A46
102
}
330
2A46
100
AcDbXrecord
280
     1
290
     1
  0
SORTENTSTABLE
  5
3BB0
102
{ACAD_REACTORS
330
3BAF
102
}
330
3BAF
100
AcDbSortentsTable
330
1F
331
D4
  5
D4
331
CC
  5
CC
331
1415
  5
1415
331
C4
  5
C4
331
F3
  5
F3
331
E3
  5
E3
331
DB
  5
DB
331
EB
  5
EB
331
CB
  5
CB
331
1414
  5
1414
331
4D9
  5
4D9
331
4C9
  5
4C9
331
F2
  5
F2
331
EA
  5
EA
331
DA
  5
DA
331
E2
  5
E2
331
CA
  5
CA
331
1413
  5
1413
331
4D0
  5
4D0
331
F1
  5
F1
331
E1
  5
E1
331
5DF
  5
5DF
331
D9
  5
D9
331
D1
  5
D1
331
C9
  5
C9
331
42F6
  5
42FB
331
F0
  5
F0
331
E8
  5
E8
331
D8
  5
D8
331
E0
  5
E0
331
D0
  5
D0
331
C8
  5
C8
331
F7
  5
F7
331
E7
  5
E7
331
DF
  5
DF
331
EF
  5
EF
331
126
  5
126
331
CF
  5
CF
331
D7
  5
D7
331
C7
  5
C7
331
F6
  5
F6
331
EE
  5
EE
331
DE
  5
DE
331
E6
  5
E6
331
5EC
  5
5EC
331
D6
  5
D6
331
CE
  5
CE
331
584
  5
584
331
12DF
  5
12DF
331
C6
  5
C6
331
F5
  5
F5
331
ED
  5
ED
331
DD
  5
DD
331
E5
  5
E5
331
D5
  5
D5
331
CD
  5
CD
331
C5
  5
C5
331
4DB
  5
4DB
331
F4
  5
F4
331
EC
  5
EC
331
DC
  5
DC
331
E4
  5
E4
  0
XRECORD
  5
4953
102
{ACAD_REACTORS
330
4952
102
}
330
4952
100
AcDbXrecord
280
     1
 40
40299.0
  1
\A1;\U+22050.177 [\U+22054.50] 2plc
  0
DIMASSOC
  5
45B6
102
{ACAD_REACTORS
330
45B5
102
}
330
45B5
100
AcDbDimAssoc
330
45B4
 90
        2
 70
     0
 71
     0
  1
AcDbOsnapPointRef
 72
    13
331
45A9
 73
     2
 91
        0
 40
0.0
 10
0.0
 20
0.0
 30
2.000000000000000E+50
 75
     0
  0
DIMASSOC
  5
45BA
102
{ACAD_REACTORS
330
45B9
102
}
330
45B9
100
AcDbDimAssoc
330
45B8
 90
        2
 70
     0
 71
     0
  1
AcDbOsnapPointRef
 72
    13
331
45A8
 73
     2
 91
        0
 40
0.0
 10
0.0
 20
0.0
 30
2.000000000000000E+50
 75
     0
  0
XRECORD
  5
48E7
102
{ACAD_REACTORS
330
45BE
102
}
330
45BE
100
AcDbXrecord
280
     1
 40
9788.0
  1
\A1;\pxql;INTERNAL POT
  0
XRECORD
  5
48E8
102
{ACAD_REACTORS
330
4613
102
}
330
4613
100
AcDbXrecord
280
     1
 40
706.0
  1
\pxqr;NC  6
  0
XRECORD
  5
48E9
102
{ACAD_REACTORS
330
4615
102
}
330
4615
100
AcDbXrecord
280
     1
 40
1019.0
  1
\pxqr;GND  2
  0
XRECORD
  5
48EA
102
{ACAD_REACTORS
330
4617
102
}
330
4617
100
AcDbXrecord
280
     1
 40
1333.0
  1
\pxqr;+ IN  1
  0
XRECORD
  5
48EB
102
{ACAD_REACTORS
330
4619
102
}
330
4619
100
AcDbXrecord
280
     1
 40
1036.0
  1
\pxqr;REF  5
  0
XRECORD
  5
48EC
102
{ACAD_REACTORS
330
461B
102
}
330
461B
100
AcDbXrecord
280
     1
 40
1501.0
  1
\pxqr;CTRL  4
  0
XRECORD
  5
48ED
102
{ACAD_REACTORS
330
461D
102
}
330
461D
100
AcDbXrecord
280
     1
 40
3165.0
  1
\pxqr;INT POT  7
  0
XRECORD
  5
48EE
102
{ACAD_REACTORS
330
461F
102
}
330
461F
100
AcDbXrecord
280
     1
 40
1977.0
  1
\pxqr;V-MON  8
  0
XRECORD
  5
493A
102
{ACAD_REACTORS
330
4939
102
}
330
4939
100
AcDbXrecord
280
     1
102
ACAD_ROUNDTRIP_2012_MLEADER
295
     1
  0
XRECORD
  5
48EF
102
{ACAD_REACTORS
330
4634
102
}
330
4634
100
AcDbXrecord
280
     1
 40
533352.0
  1
\pxqc;MATING CONNECTOR: TE/AMP 1-1123722-8 (Supplied)\P18-22 AWG CRIMP TERMINALS: TE/AMP 1123721-2 (Supplied)
  0
XRECORD
  5
493B
102
{ACAD_REACTORS
330
4634
102
}
330
4634
100
AcDbXrecord
280
     1
 40
569226.0
  1
\pi0.81793;MATING CONNECTOR: TE/AMP 1-1123722-8 (Supplied)\P\pi0.41777;18-22 AWG CRIMP TERMINALS: TE/AMP 1123721-2 (Supplied)
  0
DIMASSOC
  5
4661
102
{ACAD_REACTORS
330
4660
102
}
330
4660
100
AcDbDimAssoc
330
465F
 90
        1
 70
     0
 71
     0
  1
AcDbOsnapPointRef
 72
    13
331
45A6
 73
     2
 91
        0
 40
0.0
 10
0.0
 20
0.0
 30
2.000000000000000E+50
 75
     0
  0
DIMASSOC
  5
4664
102
{ACAD_REACTORS
330
4663
102
}
330
4663
100
AcDbDimAssoc
330
4662
 90
        1
 70
     0
 71
     0
  1
AcDbOsnapPointRef
 72
     1
331
463E
 73
     2
 91
        0
 40
0.9999999999999998
 10
0.0
 20
0.0
 30
2.000000000000000E+50
 75
     0
  0
DIMASSOC
  5
4667
102
{ACAD_REACTORS
330
4666
102
}
330
4666
100
AcDbDimAssoc
330
4665
 90
        1
 70
     0
 71
     0
  1
AcDbOsnapPointRef
 72
     3
331
463F
 73
     2
 91
        0
 40
0.0
 10
0.0
 20
0.0
 30
0.0
 75
     0
  0
DIMASSOC
  5
466A
102
{ACAD_REACTORS
330
4669
102
}
330
4669
100
AcDbDimAssoc
330
4668
 90
        3
 70
     0
 71
     0
  1
AcDbOsnapPointRef
 72
    13
331
4636
 73
     2
 91
        0
 40
0.0
 10
0.0
 20
0.0
 30
2.000000000000000E+50
 75
     0
  1
AcDbOsnapPointRef
 72
     1
331
4636
 73
     2
 91
        0
 40
1.0
 10
0.0
 20
0.0
 30
2.000000000000000E+50
 75
     0
  0
DIMASSOC
  5
466D
102
{ACAD_REACTORS
330
466C
102
}
330
466C
100
AcDbDimAssoc
330
466B
 90
        3
 70
     0
 71
     0
  1
AcDbOsnapPointRef
 72
     1
331
463D
 73
     2
 91
        0
 40
0.9999999999999998
 10
0.0
 20
0.0
 30
2.000000000000000E+50
 75
     0
  1
AcDbOsnapPointRef
 72
     1
331
463B
 73
     2
 91
        0
 40
1.0
 10
0.0
 20
0.0
 30
2.000000000000000E+50
 75
     0
  0
DIMASSOC
  5
4670
102
{ACAD_REACTORS
330
466F
102
}
330
466F
100
AcDbDimAssoc
330
466E
 90
        3
 70
     0
 71
     0
  1
AcDbOsnapPointRef
 72
    13
331
4639
 73
     2
 91
        0
 40
0.0
 10
0.0
 20
0.0
 30
2.000000000000000E+50
 75
     0
  1
AcDbOsnapPointRef
 72
    13
331
463C
 73
     2
 91
        0
 40
0.0
 10
0.0
 20
0.0
 30
2.000000000000000E+50
 75
     0
  0
DIMASSOC
  5
4677
102
{ACAD_REACTORS
330
4676
102
}
330
4676
100
AcDbDimAssoc
330
4675
 90
        3
 70
     0
 71
     0
  1
AcDbOsnapPointRef
 72
    13
331
463A
 73
     2
 91
        0
 40
0.0
 10
0.0
 20
0.0
 30
2.000000000000000E+50
 75
     0
  1
AcDbOsnapPointRef
 72
     1
331
4639
 73
     2
 91
        0
 40
1.0
 10
0.0
 20
0.0
 30
2.000000000000000E+50
 75
     0
  0
XRECORD
  5
48F0
102
{ACAD_REACTORS
330
4691
102
}
330
4691
100
AcDbXrecord
280
     1
 40
225718.0
  1
\A1;\pxql;HV OUTPUT WIRE 24.00 [609.6] Min. length\PSHIELDED CABLE (Unterminated)
  0
DIMASSOC
  5
46B7
102
{ACAD_REACTORS
330
46B6
102
}
330
46B6
100
AcDbDimAssoc
330
46B5
 90
        2
 70
     0
 71
     0
  1
AcDbOsnapPointRef
 72
     1
331
4672
 73
     2
 91
        0
 40
1.0
 10
0.0
 20
0.0
 30
2.000000000000000E+50
 75
     0
  0
XRECORD
  5
493D
102
{ACAD_REACTORS
330
493C
102
}
330
493C
100
AcDbXrecord
280
     1
102
ACAD_ROUNDTRIP_PRE2007_TABLE
 90
        9
 91
        2
102
ACAD_ROUNDTRIP_PRE2007_TABLECELL
360
493E
  0
XRECORD
  5
48F1
102
{ACAD_REACTORS
330
46CF
102
}
330
46CF
100
AcDbXrecord
280
     1
 40
2975.0
  1
\pxqr;SIG-GND  3
  0
DIMASSOC
  5
4826
102
{ACAD_REACTORS
330
481D
102
}
330
481D
100
AcDbDimAssoc
330
4811
 90
        2
 70
     0
 71
     0
  1
AcDbOsnapPointRef
 72
     3
331
4640
 73
     2
 91
        0
 40
0.0
 10
0.0
 20
0.0
 30
0.0
 75
     0
  0
DIMASSOC
  5
4844
102
{ACAD_REACTORS
330
4843
102
}
330
4843
100
AcDbDimAssoc
330
4842
 90
        1
 70
     0
 71
     0
  1
AcDbOsnapPointRef
 72
     2
331
4647
 73
     2
 91
        0
 40
0.5
 10
0.0
 20
0.0
 30
0.0
 75
     0
  0
XRECORD
  5
4951
102
{ACAD_REACTORS
330
4843
102
}
330
4843
100
AcDbXrecord
280
     1
102
ACAD_ROUNDTRIP_2012_MLEADER
295
     1
  0
ACDBDETAILVIEWSTYLE
  5
285F
102
{ACAD_REACTORS
330
285E
102
}
330
285E
100
AcDbModelDocViewStyle
 70
     0
  3
Imperial24
290
     0
100
AcDbDetailViewStyle
 70
     0
 71
     0
 90
        3
 71
     1
340
11
 40
0.24
340
0
 40
0.24
300

 40
0.36
280
     3
 71
     2
340
16
 90
       25
 71
     3
340
11
 40
0.24
 90
        1
 40
0.75
 90
        1
300
%<\AcVar ViewType \f "%tc1">% %<\AcVar ViewDetailId>%\PSCALE %<\AcVar ViewScale \f "%sn">%
 71
     4
340
16
 90
       25
340
16
 90
       25
280
     0
  0
LAYOUT
  5
59
102
{ACAD_XDICTIONARY
360
48FD
102
}
102
{ACAD_REACTORS
330
1A
102
}
330
1A
100
AcDbPlotSettings
  1

  2
None
  4

  6

 40
0.0
 41
0.0
 42
0.0
 43
0.0
 44
0.0
 45
0.0
 46
0.0
 47
0.0
 48
0.0
 49
0.0
140
0.0
141
0.0
142
1.0
143
1.0
 70
   688
 72
     0
 73
     0
 74
     5
  7

 75
    16
147
1.0
148
0.0
149
0.0
100
AcDbLayout
  1
Layout1
 70
     1
 71
     1
 10
0.0
 20
0.0
 11
12.0
 21
9.0
 12
0.0
 22
0.0
 32
0.0
 14
0.0
 24
0.0
 34
0.0
 15
0.0
 25
0.0
 35
0.0
146
0.0
 13
0.0
 23
0.0
 33
0.0
 16
1.0
 26
0.0
 36
0.0
 17
0.0
 27
1.0
 37
0.0
 76
     0
330
58
  0
LAYOUT
  5
5E
102
{ACAD_XDICTIONARY
360
48FF
102
}
102
{ACAD_REACTORS
330
1A
102
}
330
1A
100
AcDbPlotSettings
  1

  2
None
  4

  6

 40
0.0
 41
0.0
 42
0.0
 43
0.0
 44
0.0
 45
0.0
 46
0.0
 47
0.0
 48
0.0
 49
0.0
140
0.0
141
0.0
142
1.0
143
1.0
 70
   688
 72
     0
 73
     0
 74
     5
  7

 75
    16
147
1.0
148
0.0
149
0.0
100
AcDbLayout
  1
Layout2
 70
     1
 71
     2
 10
0.0
 20
0.0
 11
12.0
 21
9.0
 12
0.0
 22
0.0
 32
0.0
 14
0.0
 24
0.0
 34
0.0
 15
0.0
 25
0.0
 35
0.0
146
0.0
 13
0.0
 23
0.0
 33
0.0
 16
1.0
 26
0.0
 36
0.0
 17
0.0
 27
1.0
 37
0.0
 76
     0
330
5D
  0
LAYOUT
  5
22
102
{ACAD_XDICTIONARY
360
35C6
102
}
102
{ACAD_REACTORS
330
1A
102
}
330
1A
100
AcDbPlotSettings
  1

  2
Default Windows System Printer.pc3
  4
Letter
  6

 40
3.174999952316284
 41
3.174999952316284
 42
3.175003051757812
 43
3.17498779296875
 44
215.8000030517578
 45
279.3000183105469
 46
0.0
 47
0.0
 48
0.0
 49
0.0
140
0.0
141
0.0
142
1.0
143
1.582151301325831
 70
 11952
 72
     0
 73
     1
 74
     1
  7

 75
     0
147
0.6320508027026286
148
-346.5951922913693
149
-322.1262933349904
100
AcDbLayout
  1
Model
 70
     1
 71
     0
 10
0.0
 20
0.0
 11
12.0
 21
9.0
 12
0.0
 22
0.0
 32
0.0
 14
0.0
 24
0.0
 34
0.0
 15
0.0
 25
0.0
 35
0.0
146
0.0
 13
0.0
 23
0.0
 33
0.0
 16
1.0
 26
0.0
 36
0.0
 17
0.0
 27
1.0
 37
0.0
 76
     0
330
1F
331
2812
  0
MATERIAL
  5
281C
102
{ACAD_XDICTIONARY
360
281D
102
}
102
{ACAD_REACTORS
330
72
102
}
330
72
100
AcDbMaterial
  1
ByBlock
 72
     0
 43
0.0208333333333333
 43
0.0
 43
0.0
 43
0.0
 43
0.0
 43
0.0208333333333333
 43
0.0
 43
0.0
 43
0.0
 43
0.0
 43
1.0
 43
0.0
 43
0.0
 43
0.0
 43
0.0
 43
1.0
 77
     0
 47
0.0208333333333333
 47
0.0
 47
0.0
 47
0.0
 47
0.0
 47
0.0208333333333333
 47
0.0
 47
0.0
 47
0.0
 47
0.0
 47
1.0
 47
0.0
 47
0.0
 47
0.0
 47
0.0
 47
1.0
171
     0
 49
0.0208333333333333
 49
0.0
 49
0.0
 49
0.0
 49
0.0
 49
0.0208333333333333
 49
0.0
 49
0.0
 49
0.0
 49
0.0
 49
1.0
 49
0.0
 49
0.0
 49
0.0
 49
0.0
 49
1.0
175
     0
142
0.0208333333333333
142
0.0
142
0.0
142
0.0
142
0.0
142
0.0208333333333333
142
0.0
142
0.0
142
0.0
142
0.0
142
1.0
142
0.0
142
0.0
142
0.0
142
0.0
142
1.0
179
     0
144
0.0208333333333333
144
0.0
144
0.0
144
0.0
144
0.0
144
0.0208333333333333
144
0.0
144
0.0
144
0.0
144
0.0
144
1.0
144
0.0
144
0.0
144
0.0
144
0.0
144
1.0
147
0.0208333333333333
147
0.0
147
0.0
147
0.0
147
0.0
147
0.0208333333333333
147
0.0
147
0.0
147
0.0
147
0.0
147
1.0
147
0.0
147
0.0
147
0.0
147
0.0
147
1.0
  0
MATERIAL
  5
2814
102
{ACAD_XDICTIONARY
360
2815
102
}
102
{ACAD_REACTORS
330
72
102
}
330
72
100
AcDbMaterial
  1
ByLayer
 72
     0
 43
0.0208333333333333
 43
0.0
 43
0.0
 43
0.0
 43
0.0
 43
0.0208333333333333
 43
0.0
 43
0.0
 43
0.0
 43
0.0
 43
1.0
 43
0.0
 43
0.0
 43
0.0
 43
0.0
 43
1.0
 77
     0
 47
0.0208333333333333
 47
0.0
 47
0.0
 47
0.0
 47
0.0
 47
0.0208333333333333
 47
0.0
 47
0.0
 47
0.0
 47
0.0
 47
1.0
 47
0.0
 47
0.0
 47
0.0
 47
0.0
 47
1.0
171
     0
 49
0.0208333333333333
 49
0.0
 49
0.0
 49
0.0
 49
0.0
 49
0.0208333333333333
 49
0.0
 49
0.0
 49
0.0
 49
0.0
 49
1.0
 49
0.0
 49
0.0
 49
0.0
 49
0.0
 49
1.0
175
     0
142
0.0208333333333333
142
0.0
142
0.0
142
0.0
142
0.0
142
0.0208333333333333
142
0.0
142
0.0
142
0.0
142
0.0
142
1.0
142
0.0
142
0.0
142
0.0
142
0.0
142
1.0
179
     0
144
0.0208333333333333
144
0.0
144
0.0
144
0.0
144
0.0
144
0.0208333333333333
144
0.0
144
0.0
144
0.0
144
0.0
144
1.0
144
0.0
144
0.0
144
0.0
144
0.0
144
1.0
147
0.0208333333333333
147
0.0
147
0.0
147
0.0
147
0.0
147
0.0208333333333333
147
0.0
147
0.0
147
0.0
147
0.0
147
1.0
147
0.0
147
0.0
147
0.0
147
0.0
147
1.0
  0
MATERIAL
  5
2824
102
{ACAD_XDICTIONARY
360
2825
102
}
102
{ACAD_REACTORS
330
72
102
}
330
72
100
AcDbMaterial
  1
Global
 72
     0
 43
0.0208333333333333
 43
0.0
 43
0.0
 43
0.0
 43
0.0
 43
0.0208333333333333
 43
0.0
 43
0.0
 43
0.0
 43
0.0
 43
1.0
 43
0.0
 43
0.0
 43
0.0
 43
0.0
 43
1.0
 77
     0
 47
0.0208333333333333
 47
0.0
 47
0.0
 47
0.0
 47
0.0
 47
0.0208333333333333
 47
0.0
 47
0.0
 47
0.0
 47
0.0
 47
1.0
 47
0.0
 47
0.0
 47
0.0
 47
0.0
 47
1.0
171
     0
 49
0.0208333333333333
 49
0.0
 49
0.0
 49
0.0
 49
0.0
 49
0.0208333333333333
 49
0.0
 49
0.0
 49
0.0
 49
0.0
 49
1.0
 49
0.0
 49
0.0
 49
0.0
 49
0.0
 49
1.0
175
     0
142
0.0208333333333333
142
0.0
142
0.0
142
0.0
142
0.0
142
0.0208333333333333
142
0.0
142
0.0
142
0.0
142
0.0
142
1.0
142
0.0
142
0.0
142
0.0
142
0.0
142
1.0
179
     0
144
0.0208333333333333
144
0.0
144
0.0
144
0.0
144
0.0
144
0.0208333333333333
144
0.0
144
0.0
144
0.0
144
0.0
144
1.0
144
0.0
144
0.0
144
0.0
144
0.0
144
1.0
147
0.0208333333333333
147
0.0
147
0.0
147
0.0
147
0.0
147
0.0208333333333333
147
0.0
147
0.0
147
0.0
147
0.0
147
1.0
147
0.0
147
0.0
147
0.0
147
0.0
147
1.0
  0
MLEADERSTYLE
  5
285A
102
{ACAD_XDICTIONARY
360
4936
102
}
102
{ACAD_REACTORS
330
2859
330
4632
330
4842
102
}
330
2859
100
AcDbMLeaderStyle
170
     2
171
     1
172
     0
 90
        2
 40
0.0
 41
0.0
173
     1
 91
-1056964608
340
14
 92
       -2
290
     1
 42
0.09
291
     1
 43
0.36
  3
Standard
 44
0.18
300

342
11
174
     1
178
     6
175
     1
176
     0
 93
-1056964608
 45
0.18
292
     0
297
     0
 46
0.18
 94
-1056964608
 47
1.0
 49
1.0
140
1.0
293
     1
141
0.0
294
     1
177
     0
142
1.0
295
     0
296
     0
143
0.125
1001
ACAD_MLEADERVER
1070
     2
  0
MLINESTYLE
  5
18
102
{ACAD_REACTORS
330
17
102
}
330
17
100
AcDbMlineStyle
  2
STANDARD
 70
     0
  3

 62
   256
 51
90.0
 52
90.0
 71
     2
 49
0.5
 62
   256
  6
BYLAYER
 49
-0.5
 62
   256
  6
BYLAYER
  0
ACDBPLACEHOLDER
  5
F
102
{ACAD_REACTORS
330
E
102
}
330
E
  0
SCALE
  5
2848
102
{ACAD_REACTORS
330
2847
102
}
330
2847
100
AcDbScale
 70
     0
300
1:1
140
1.0
141
1.0
290
     1
  0
SCALE
  5
2849
102
{ACAD_REACTORS
330
2847
102
}
330
2847
100
AcDbScale
 70
     0
300
1/128" = 1'-0"
140
0.0078125
141
12.0
290
     0
  0
SCALE
  5
284A
102
{ACAD_REACTORS
330
2847
102
}
330
2847
100
AcDbScale
 70
     0
300
1/64" = 1'-0"
140
0.015625
141
12.0
290
     0
  0
SCALE
  5
284B
102
{ACAD_REACTORS
330
2847
102
}
330
2847
100
AcDbScale
 70
     0
300
1/32" = 1'-0"
140
0.03125
141
12.0
290
     0
  0
SCALE
  5
284C
102
{ACAD_REACTORS
330
2847
102
}
330
2847
100
AcDbScale
 70
     0
300
1/16" = 1'-0"
140
0.0625
141
12.0
290
     0
  0
SCALE
  5
284D
102
{ACAD_REACTORS
330
2847
102
}
330
2847
100
AcDbScale
 70
     0
300
3/32" = 1'-0"
140
0.09375
141
12.0
290
     0
  0
SCALE
  5
284E
102
{ACAD_REACTORS
330
2847
102
}
330
2847
100
AcDbScale
 70
     0
300
1/8" = 1'-0"
140
0.125
141
12.0
290
     0
  0
SCALE
  5
284F
102
{ACAD_REACTORS
330
2847
102
}
330
2847
100
AcDbScale
 70
     0
300
3/16" = 1'-0"
140
0.1875
141
12.0
290
     0
  0
SCALE
  5
2850
102
{ACAD_REACTORS
330
2847
102
}
330
2847
100
AcDbScale
 70
     0
300
1/4" = 1'-0"
140
0.25
141
12.0
290
     0
  0
SCALE
  5
2851
102
{ACAD_REACTORS
330
2847
102
}
330
2847
100
AcDbScale
 70
     0
300
3/8" = 1'-0"
140
0.375
141
12.0
290
     0
  0
SCALE
  5
2852
102
{ACAD_REACTORS
330
2847
102
}
330
2847
100
AcDbScale
 70
     0
300
1/2" = 1'-0"
140
0.5
141
12.0
290
     0
  0
SCALE
  5
2853
102
{ACAD_REACTORS
330
2847
102
}
330
2847
100
AcDbScale
 70
     0
300
3/4" = 1'-0"
140
0.75
141
12.0
290
     0
  0
SCALE
  5
2854
102
{ACAD_REACTORS
330
2847
102
}
330
2847
100
AcDbScale
 70
     0
300
1" = 1'-0"
140
1.0
141
12.0
290
     0
  0
SCALE
  5
2855
102
{ACAD_REACTORS
330
2847
102
}
330
2847
100
AcDbScale
 70
     0
300
1-1/2" = 1'-0"
140
1.5
141
12.0
290
     0
  0
SCALE
  5
2856
102
{ACAD_REACTORS
330
2847
102
}
330
2847
100
AcDbScale
 70
     0
300
3" = 1'-0"
140
3.0
141
12.0
290
     0
  0
SCALE
  5
2857
102
{ACAD_REACTORS
330
2847
102
}
330
2847
100
AcDbScale
 70
     0
300
6" = 1'-0"
140
6.0
141
12.0
290
     0
  0
SCALE
  5
2858
102
{ACAD_REACTORS
330
2847
102
}
330
2847
100
AcDbScale
 70
     0
300
1'-0" = 1'-0"
140
12.0
141
12.0
290
     0
  0
ACDBSECTIONVIEWSTYLE
  5
285D
102
{ACAD_REACTORS
330
285B
102
}
330
285B
100
AcDbModelDocViewStyle
 70
     0
  3
Imperial24
290
     0
100
AcDbSectionViewStyle
 70
     0
 71
     0
 90
       78
 71
     1
340
11
 40
0.24
340
0
340
0
 40
0.24
300
I, O, Q, S, X, Z
 40
0.48
 90
        3
 40
0.18
 90
        1
 71
     2
340
285C
 90
       25
340
16
 90
       50
 40
0.24
 40
0.0
 40
0.24
 71
     3
340
11
 40
0.24
 90
        1
 40
0.75
 90
        1
300
%<\AcVar ViewType \f "%tc1">% %<\AcVar ViewSectionStartId>%-%<\AcVar ViewSectionEndId>%\PSCALE %<\AcVar ViewScale \f "%sn">%
 71
     4
300
ANSI31
 40
1.0
 90
        0
290
     0
290
     0
 90
        6
 40
0.0
 40
1.570796326794896
 40
0.2617993877991494
 40
1.308996938995747
 40
-0.2617993877991494
 40
1.832595714594046
  0
TABLESTYLE
  5
2846
102
{ACAD_XDICTIONARY
360
48E5
102
}
102
{ACAD_REACTORS
330
2845
330
46CD
102
}
330
2845
100
AcDbTableStyle
  3
Standard
 70
     0
 71
     0
 40
0.06
 41
0.06
280
     0
281
     0
  7
Standard
140
0.18
170
     2
 62
     0
 63
     7
283
     0
274
    -2
284
     1
 64
     0
275
    -2
285
     1
 65
     0
276
    -2
286
     1
 66
     0
277
    -2
287
     1
 67
     0
278
    -2
288
     1
 68
     0
279
    -2
289
     1
 69
     0
  7
Standard
140
0.25
170
     5
 62
     0
 63
     7
283
     0
274
    -2
284
     1
 64
     0
275
    -2
285
     1
 65
     0
276
    -2
286
     1
 66
     0
277
    -2
287
     1
 67
     0
278
    -2
288
     1
 68
     0
279
    -2
289
     1
 69
     0
  7
Standard
140
0.18
170
     5
 62
     0
 63
     7
283
     0
274
    -2
284
     1
 64
     0
275
    -2
285
     1
 65
     0
276
    -2
286
     1
 66
     0
277
    -2
287
     1
 67
     0
278
    -2
288
     1
 68
     0
279
    -2
289
     1
 69
     0
  0
VISUALSTYLE
  5
2832
102
{ACAD_XDICTIONARY
360
490E
102
}
102
{ACAD_REACTORS
330
282C
102
}
330
282C
100
AcDbVisualStyle
  2
2dWireframe
 70
     4
 71
     0
 72
     2
 73
     0
 90
        0
 40
-0.6
 41
-30.0
 62
     5
 63
     7
 74
     1
 91
        4
 64
     7
 65
   257
 75
     1
175
     1
 42
1.0
 92
        0
 66
   257
 43
1.0
 76
     1
 77
     6
 78
     2
 67
     7
 79
     5
170
     0
171
     0
290
     0
174
     0
 93
        1
 44
0.0
173
     0
291
     0
 45
0.0
1001
ACAD
1000
AcDbSavedByObjectVersion
1070
     0
  0
VISUALSTYLE
  5
2831
102
{ACAD_XDICTIONARY
360
490C
102
}
102
{ACAD_REACTORS
330
282C
102
}
330
282C
100
AcDbVisualStyle
  2
Basic
 70
     7
 71
     1
 72
     0
 73
     1
 90
        0
 40
-0.6
 41
-30.0
 62
     5
 63
     7
 74
     0
 91
        4
 64
     7
 65
   257
 75
     1
175
     1
 42
1.0
 92
        8
 66
     7
 43
1.0
 76
     1
 77
     6
 78
     2
 67
     7
 79
     5
170
     0
171
     0
290
     0
174
     0
 93
        1
 44
0.0
173
     0
291
     1
 45
0.0
1001
ACAD
1000
AcDbSavedByObjectVersion
1070
     0
  0
VISUALSTYLE
  5
2838
102
{ACAD_XDICTIONARY
360
491A
102
}
102
{ACAD_REACTORS
330
282C
102
}
330
282C
100
AcDbVisualStyle
  2
Brighten
 70
    12
 71
     2
 72
     2
 73
     0
 90
        0
 40
-0.6
 41
-30.0
 62
     5
 63
     7
 74
     1
 91
        4
 64
     7
 65
   257
 75
     1
175
     1
 42
1.0
 92
        8
 66
     7
 43
1.0
 76
     1
 77
     6
 78
     2
 67
     7
 79
     5
170
     0
171
     0
290
     0
174
     0
 93
        1
 44
50.0
173
     0
291
     1
 45
0.0
1001
ACAD
1000
AcDbSavedByObjectVersion
1070
     0
  0
VISUALSTYLE
  5
283C
102
{ACAD_XDICTIONARY
360
4922
102
}
102
{ACAD_REACTORS
330
282C
102
}
330
282C
100
AcDbVisualStyle
  2
ColorChange
 70
    16
 71
     2
 72
     2
 73
     3
 90
        0
 40
-0.6
 41
-30.0
 62
     5
 63
     8
 74
     1
 91
        4
 64
     7
 65
   257
 75
     1
175
     1
 42
1.0
 92
        8
 66
     8
 43
1.0
 76
     1
 77
     6
 78
     2
 67
     7
 79
     5
170
     0
171
     0
290
     0
174
     0
 93
        1
 44
0.0
173
     0
291
     1
 45
0.0
1001
ACAD
1000
AcDbSavedByObjectVersion
1070
     0
  0
VISUALSTYLE
  5
2835
102
{ACAD_XDICTIONARY
360
4914
102
}
102
{ACAD_REACTORS
330
282C
102
}
330
282C
100
AcDbVisualStyle
  2
Conceptual
 70
     9
 71
     3
 72
     2
 73
     0
 90
        0
 40
-0.6
 41
-30.0
 62
     5
 63
     7
 74
     2
 91
        2
 64
     7
 65
   257
 75
     1
175
     1
 42
179.0
 92
        8
 66
     7
 43
1.0
 76
     1
 77
     6
 78
     2
 67
     7
 79
     3
170
     0
171
     0
290
     0
174
     0
 93
        1
 44
0.0
173
     0
291
     0
 45
0.0
1001
ACAD
1000
AcDbSavedByObjectVersion
1070
     0
  0
VISUALSTYLE
  5
2837
102
{ACAD_XDICTIONARY
360
4918
102
}
102
{ACAD_REACTORS
330
282C
102
}
330
282C
100
AcDbVisualStyle
  2
Dim
 70
    11
 71
     2
 72
     2
 73
     0
 90
        0
 40
-0.6
 41
-30.0
 62
     5
 63
     7
 74
     1
 91
        4
 64
     7
 65
   257
 75
     1
175
     1
 42
1.0
 92
        8
 66
     7
 43
1.0
 76
     1
 77
     6
 78
     2
 67
     7
 79
     5
170
     0
171
     0
290
     0
174
     0
 93
        1
 44
-50.0
173
     0
291
     1
 45
0.0
1001
ACAD
1000
AcDbSavedByObjectVersion
1070
     0
  0
VISUALSTYLE
  5
2844
102
{ACAD_XDICTIONARY
360
4932
102
}
102
{ACAD_REACTORS
330
282C
102
}
330
282C
100
AcDbVisualStyle
  2
EdgeColorOff
 70
    22
 71
     2
 72
     2
 73
     0
 90
        0
 40
-0.6
 41
-30.0
 62
     5
 63
     7
 74
     1
 91
        4
 64
     7
 65
   257
 75
     1
175
     1
 42
1.0
 92
        8
 66
     7
 43
1.0
 76
     1
 77
     6
 78
     2
 67
     7
 79
     5
170
     0
171
     0
290
     0
174
     0
 93
        1
 44
0.0
173
     0
291
     1
 45
0.0
1001
ACAD
1000
AcDbSavedByObjectVersion
1070
     0
  0
VISUALSTYLE
  5
283B
102
{ACAD_XDICTIONARY
360
4920
102
}
102
{ACAD_REACTORS
330
282C
102
}
330
282C
100
AcDbVisualStyle
  2
Facepattern
 70
    15
 71
     2
 72
     2
 73
     0
 90
        0
 40
-0.6
 41
-30.0
 62
     5
 63
     7
 74
     1
 91
        4
 64
     7
 65
   257
 75
     1
175
     1
 42
1.0
 92
        8
 66
     7
 43
1.0
 76
     1
 77
     6
 78
     2
 67
     7
 79
     5
170
     0
171
     0
290
     0
174
     0
 93
        1
 44
0.0
173
     0
291
     1
 45
0.0
1001
ACAD
1000
AcDbSavedByObjectVersion
1070
     0
  0
VISUALSTYLE
  5
282D
102
{ACAD_XDICTIONARY
360
4904
102
}
102
{ACAD_REACTORS
330
282C
102
}
330
282C
100
AcDbVisualStyle
  2
Flat
 70
     0
 71
     2
 72
     1
 73
     1
 90
        2
 40
-0.6
 41
30.0
 62
     5
 63
     7
 74
     0
 91
        0
 64
     7
 65
   257
 75
     1
175
     1
 42
1.0
 92
        8
 66
     7
 43
1.0
 76
     1
 77
     6
 78
     2
 67
     7
 79
     5
170
     0
171
     0
290
     0
174
     0
 93
       13
 44
0.0
173
     0
291
     1
 45
0.0
1001
ACAD
1000
AcDbSavedByObjectVersion
1070
     0
  0
VISUALSTYLE
  5
282E
102
{ACAD_XDICTIONARY
360
4906
102
}
102
{ACAD_REACTORS
330
282C
102
}
330
282C
100
AcDbVisualStyle
  2
FlatWithEdges
 70
     1
 71
     2
 72
     1
 73
     1
 90
        2
 40
-0.6
 41
30.0
 62
     5
 63
     7
 74
     1
 91
        0
 64
     7
 65
   257
 75
     1
175
     1
 42
1.0
 92
        0
 66
   257
 43
1.0
 76
     1
 77
     6
 78
     2
 67
     7
 79
     5
170
     0
171
     0
290
     0
174
     0
 93
       13
 44
0.0
173
     0
291
     1
 45
0.0
1001
ACAD
1000
AcDbSavedByObjectVersion
1070
     0
  0
VISUALSTYLE
  5
282F
102
{ACAD_XDICTIONARY
360
4908
102
}
102
{ACAD_REACTORS
330
282C
102
}
330
282C
100
AcDbVisualStyle
  2
Gouraud
 70
     2
 71
     2
 72
     2
 73
     1
 90
        2
 40
-0.6
 41
30.0
 62
     5
 63
     7
 74
     0
 91
        0
 64
     7
 65
   257
 75
     1
175
     1
 42
1.0
 92
        0
 66
     7
 43
1.0
 76
     1
 77
     6
 78
     2
 67
     7
 79
     5
170
     0
171
     0
290
     0
174
     0
 93
       13
 44
0.0
173
     0
291
     1
 45
0.0
1001
ACAD
1000
AcDbSavedByObjectVersion
1070
     0
  0
VISUALSTYLE
  5
2830
102
{ACAD_XDICTIONARY
360
490A
102
}
102
{ACAD_REACTORS
330
282C
102
}
330
282C
100
AcDbVisualStyle
  2
GouraudWithEdges
 70
     3
 71
     2
 72
     2
 73
     1
 90
        2
 40
-0.6
 41
30.0
 62
     5
 63
     7
 74
     1
 91
        0
 64
     7
 65
   257
 75
     1
175
     1
 42
1.0
 92
        0
 66
   257
 43
1.0
 76
     1
 77
     6
 78
     2
 67
     7
 79
     5
170
     0
171
     0
290
     0
174
     0
 93
       13
 44
0.0
173
     0
291
     1
 45
0.0
1001
ACAD
1000
AcDbSavedByObjectVersion
1070
     0
  0
VISUALSTYLE
  5
2834
102
{ACAD_XDICTIONARY
360
4912
102
}
102
{ACAD_REACTORS
330
282C
102
}
330
282C
100
AcDbVisualStyle
  2
Hidden
 70
     6
 71
     1
 72
     2
 73
     2
 90
        0
 40
-0.6
 41
-30.0
 62
     5
 63
     7
 74
     2
 91
        2
 64
     7
 65
   257
 75
     2
175
     1
 42
40.0
 92
        0
 66
   257
 43
1.0
 76
     1
 77
     6
 78
     2
 67
     7
 79
     3
170
     0
171
     0
290
     0
174
     0
 93
        1
 44
0.0
173
     0
291
     0
 45
0.0
1001
ACAD
1000
AcDbSavedByObjectVersion
1070
     0
  0
VISUALSTYLE
  5
2842
102
{ACAD_XDICTIONARY
360
492E
102
}
102
{ACAD_REACTORS
330
282C
102
}
330
282C
100
AcDbVisualStyle
  2
JitterOff
 70
    20
 71
     2
 72
     2
 73
     0
 90
        0
 40
-0.6
 41
-30.0
 62
     5
 63
     7
 74
     1
 91
        4
 64
     7
 65
   257
 75
     1
175
     1
 42
1.0
 92
       10
 66
     7
 43
1.0
 76
     1
 77
     6
 78
     2
 67
     7
 79
     5
170
     0
171
     0
290
     0
174
     0
 93
        1
 44
0.0
173
     0
291
     1
 45
0.0
1001
ACAD
1000
AcDbSavedByObjectVersion
1070
     0
  0
VISUALSTYLE
  5
283A
102
{ACAD_XDICTIONARY
360
491E
102
}
102
{ACAD_REACTORS
330
282C
102
}
330
282C
100
AcDbVisualStyle
  2
Linepattern
 70
    14
 71
     2
 72
     2
 73
     0
 90
        0
 40
-0.6
 41
-30.0
 62
     5
 63
     7
 74
     1
 91
        4
 64
     7
 65
   257
 75
     7
175
     7
 42
1.0
 92
        8
 66
     7
 43
1.0
 76
     1
 77
     6
 78
     2
 67
     7
 79
     5
170
     0
171
     0
290
     0
174
     0
 93
        1
 44
0.0
173
     0
291
     1
 45
0.0
1001
ACAD
1000
AcDbSavedByObjectVersion
1070
     0
  0
VISUALSTYLE
  5
2843
102
{ACAD_XDICTIONARY
360
4930
102
}
102
{ACAD_REACTORS
330
282C
102
}
330
282C
100
AcDbVisualStyle
  2
OverhangOff
 70
    21
 71
     2
 72
     2
 73
     0
 90
        0
 40
-0.6
 41
-30.0
 62
     5
 63
     7
 74
     1
 91
        4
 64
     7
 65
   257
 75
     1
175
     1
 42
1.0
 92
        9
 66
     7
 43
1.0
 76
     1
 77
     6
 78
     2
 67
     7
 79
     5
170
     0
171
     0
290
     0
174
     0
 93
        1
 44
0.0
173
     0
291
     1
 45
0.0
1001
ACAD
1000
AcDbSavedByObjectVersion
1070
     0
  0
VISUALSTYLE
  5
2836
102
{ACAD_XDICTIONARY
360
4916
102
}
102
{ACAD_REACTORS
330
282C
102
}
330
282C
100
AcDbVisualStyle
  2
Realistic
 70
     8
 71
     2
 72
     3
 73
     0
 90
        2
 40
-0.6
 41
30.0
 62
     5
 63
     7
 74
     0
 91
        0
 64
     7
 65
   257
 75
     1
175
     1
 42
1.0
 92
        8
 66
   257
 43
1.0
 76
     1
 77
     6
 78
     2
 67
     7
 79
     3
170
     0
171
     0
290
     0
174
     0
 93
       13
 44
0.0
173
     0
291
     0
 45
0.0
1001
ACAD
1000
AcDbSavedByObjectVersion
1070
     0
  0
VISUALSTYLE
  5
2841
102
{ACAD_XDICTIONARY
360
492C
102
}
102
{ACAD_REACTORS
330
282C
102
}
330
282C
100
AcDbVisualStyle
  2
Shaded
 70
    27
 71
     2
 72
     2
 73
     1
 90
        2
 40
-0.6
 41
30.0
 62
     5
 63
     7
 74
     0
 91
        4
 64
     7
 65
   257
 75
     1
175
     1
 42
1.0
 92
        8
 66
   257
 43
1.0
 76
     1
 77
     6
 78
     2
 67
     8
 79
     3
170
     0
171
     0
290
     0
174
     0
 93
        5
 44
0.0
173
     0
291
     0
 45
0.0
1001
ACAD
1000
AcDbSavedByObjectVersion
1070
     0
  0
VISUALSTYLE
  5
2840
102
{ACAD_XDICTIONARY
360
492A
102
}
102
{ACAD_REACTORS
330
282C
102
}
330
282C
100
AcDbVisualStyle
  2
Shaded with edges
 70
    26
 71
     2
 72
     2
 73
     1
 90
        2
 40
-0.6
 41
30.0
 62
     5
 63
     7
 74
     1
 91
       10
 64
     7
 65
   257
 75
     2
175
     1
 42
1.0
 92
        8
 66
   257
 43
1.0
 76
     1
 77
     6
 78
     2
 67
     7
 79
     3
170
     0
171
     0
290
     0
174
     0
 93
        5
 44
0.0
173
     0
291
     0
 45
0.0
1001
ACAD
1000
AcDbSavedByObjectVersion
1070
     0
  0
VISUALSTYLE
  5
283D
102
{ACAD_XDICTIONARY
360
4924
102
}
102
{ACAD_REACTORS
330
282C
102
}
330
282C
100
AcDbVisualStyle
  2
Shades of Gray
 70
    23
 71
     2
 72
     2
 73
     3
 90
        0
 40
-0.6
 41
-30.0
 62
     5
 63
     7
 74
     2
 91
        2
 64
     7
 65
     7
 75
     1
175
     1
 42
40.0
 92
        8
 66
     7
 43
1.0
 76
     1
 77
     6
 78
     2
 67
     7
 79
     3
170
     0
171
     0
290
     0
174
     0
 93
        1
 44
0.0
173
     0
291
     0
 45
0.0
1001
ACAD
1000
AcDbSavedByObjectVersion
1070
     0
  0
VISUALSTYLE
  5
283E
102
{ACAD_XDICTIONARY
360
4926
102
}
102
{ACAD_REACTORS
330
282C
102
}
330
282C
100
AcDbVisualStyle
  2
Sketchy
 70
    24
 71
     1
 72
     2
 73
     2
 90
        0
 40
-0.6
 41
-30.0
 62
     5
 63
     7
 74
     2
 91
        2
 64
     7
 65
     7
 75
     1
175
     1
 42
40.0
 92
       11
 66
     7
 43
1.0
 76
     1
 77
     6
 78
     2
 67
     7
 79
     6
170
     0
171
     0
290
     0
174
     0
 93
        1
 44
0.0
173
     0
291
     0
 45
0.0
1001
ACAD
1000
AcDbSavedByObjectVersion
1070
     0
  0
VISUALSTYLE
  5
2839
102
{ACAD_XDICTIONARY
360
491C
102
}
102
{ACAD_REACTORS
330
282C
102
}
330
282C
100
AcDbVisualStyle
  2
Thicken
 70
    13
 71
     2
 72
     2
 73
     0
 90
        0
 40
-0.6
 41
-30.0
 62
     5
 63
     7
 74
     1
 91
        4
 64
     7
 65
   257
 75
     1
175
     1
 42
1.0
 92
       12
 66
     7
 43
1.0
 76
     1
 77
     6
 78
     2
 67
     7
 79
     5
170
     0
171
     0
290
     0
174
     0
 93
        1
 44
0.0
173
     0
291
     1
 45
0.0
1001
ACAD
1000
AcDbSavedByObjectVersion
1070
     0
  0
VISUALSTYLE
  5
2833
102
{ACAD_XDICTIONARY
360
4910
102
}
102
{ACAD_REACTORS
330
282C
102
}
330
282C
100
AcDbVisualStyle
  2
Wireframe
 70
     5
 71
     0
 72
     2
 73
     0
 90
        0
 40
-0.6
 41
-30.0
 62
     5
 63
     7
 74
     1
 91
        4
 64
     7
 65
   257
 75
     1
175
     1
 42
1.0
 92
        0
 66
   257
 43
1.0
 76
     1
 77
     6
 78
     2
 67
     7
 79
     3
170
     0
171
     0
290
     0
174
     0
 93
        1
 44
0.0
173
     0
291
     0
 45
0.0
1001
ACAD
1000
AcDbSavedByObjectVersion
1070
     0
  0
VISUALSTYLE
  5
283F
102
{ACAD_XDICTIONARY
360
4928
102
}
102
{ACAD_REACTORS
330
282C
102
}
330
282C
100
AcDbVisualStyle
  2
X-Ray
 70
    25
 71
     2
 72
     2
 73
     1
 90
        1
 40
0.5
 41
-30.0
 62
     5
 63
     7
 74
     1
 91
        0
 64
     7
 65
   257
 75
     1
175
     1
 42
1.0
 92
        8
 66
     7
 43
1.0
 76
     1
 77
     6
 78
     2
 67
     7
 79
     3
170
     0
171
     0
290
     0
174
     0
 93
       13
 44
0.0
173
     0
291
     0
 45
0.0
1001
ACAD
1000
AcDbSavedByObjectVersion
1070
     0
  0
DICTIONARYVAR
  5
35FF
102
{ACAD_REACTORS
330
66
102
}
330
66
100
DictionaryVariables
280
     0
  1
1:1
  0
DICTIONARYVAR
  5
35FB
102
{ACAD_REACTORS
330
66
102
}
330
66
100
DictionaryVariables
280
     0
  1
STANDARD
  0
DICTIONARYVAR
  5
35FA
102
{ACAD_REACTORS
330
66
102
}
330
66
100
DictionaryVariables
280
     0
  1
STANDARD
  0
DICTIONARYVAR
  5
35FC
102
{ACAD_REACTORS
330
66
102
}
330
66
100
DictionaryVariables
280
     0
  1
Imperial24
  0
DICTIONARYVAR
  5
35FD
102
{ACAD_REACTORS
330
66
102
}
330
66
100
DictionaryVariables
280
     0
  1
Imperial24
  0
DICTIONARYVAR
  5
67
102
{ACAD_REACTORS
330
66
102
}
330
66
100
DictionaryVariables
280
     0
  1
2
  0
DICTIONARYVAR
  5
6B
102
{ACAD_REACTORS
330
66
102
}
330
66
100
DictionaryVariables
280
     0
  1
1
  0
DICTIONARYVAR
  5
41A6
102
{ACAD_REACTORS
330
66
102
}
330
66
100
DictionaryVariables
280
     0
  1
7
  0
DICTIONARYVAR
  5
48E3
102
{ACAD_REACTORS
330
66
102
}
330
66
100
DictionaryVariables
280
     0
  1
0
  0
DICTIONARYVAR
  5
3601
102
{ACAD_REACTORS
330
66
102
}
330
66
100
DictionaryVariables
280
     0
  1
1
  0
DICTIONARYVAR
  5
3602
102
{ACAD_REACTORS
330
66
102
}
330
66
100
DictionaryVariables
280
     0
  1
15
  0
DICTIONARYVAR
  5
3600
102
{ACAD_REACTORS
330
66
102
}
330
66
100
DictionaryVariables
280
     0
  1
0
  0
DICTIONARYVAR
  5
35FE
102
{ACAD_REACTORS
330
66
102
}
330
66
100
DictionaryVariables
280
     0
  1
0
  0
DICTIONARYVAR
  5
48E2
102
{ACAD_REACTORS
330
66
102
}
330
66
100
DictionaryVariables
280
     0
  1
127
  0
DICTIONARYVAR
  5
48E4
102
{ACAD_REACTORS
330
66
102
}
330
66
100
DictionaryVariables
280
     0
  1
0
  0
DICTIONARY
  5
48FB
102
{ACAD_REACTORS
330
48F9
102
}
330
48F9
100
AcDbDictionary
281
     1
  0
DICTIONARY
  5
48FA
102
{ACAD_REACTORS
330
48F9
102
}
330
48F9
100
AcDbDictionary
281
     1
  3
8796085323968
350
48F4
  3
8796085323984
350
48F5
  3
8796085324000
350
48F6
  3
8796085324016
350
48F7
  3
8796085324032
350
48F8
  0
XRECORD
  5
3BA
102
{ACAD_REACTORS
330
3B8
102
}
330
3B8
100
AcDbXrecord
280
     1
  0
ACDBDATATABLE
  5
493E
330
493D
100
ACDBDATATABLE
 70
     2
 90
        4
 91
       18
  1

 92
        2
  2

 40
35.0
 40
2777.0
 40
49.0
 40
2136.0
 40
50.0
 40
4681.0
 40
51.0
 40
3800.0
 40
52.0
 40
9803.0
 40
53.0
 40
10895.0
 40
54.0
 40
212.0
 40
55.0
 40
5663.0
 40
56.0
 40
8943.0
 92
        1
  2

 93
        0
 93
        0
 93
        0
 93
        0
 93
        0
 93
        0
 93
        0
 93
        0
 93
        0
 93
        0
 93
        0
 93
        0
 93
        0
 93
        0
 93
        0
 93
        0
 93
        0
 93
        0
 92
        1
  2

 93
        0
 93
        0
 93
        0
 93
        0
 93
        0
 93
        0
 93
        0
 93
        0
 93
        0
 93
        0
 93
        0
 93
        0
 93
        0
 93
        0
 93
        0
 93
        0
 93
        0
 93
        0
 92
        6
  2

360
493F
360
4940
360
4941
360
4942
360
4943
360
4944
360
4945
360
4946
360
4947
360
4948
360
4949
360
494A
360
494B
360
494C
360
494D
360
494E
360
494F
360
4950
  0
DICTIONARY
  5
48FD
330
59
100
AcDbDictionary
280
     1
281
     1
  3
ACAD_XREC_ROUNDTRIP
360
48FE
  0
DICTIONARY
  5
48FF
330
5E
100
AcDbDictionary
280
     1
281
     1
  3
ACAD_XREC_ROUNDTRIP
360
4900
  0
DICTIONARY
  5
35C6
330
22
100
AcDbDictionary
280
     1
281
     1
  3
ACAD_XREC_ROUNDTRIP
360
48FC
  0
DICTIONARY
  5
281D
330
281C
100
AcDbDictionary
280
     1
281
     1
  3
ACAD_XREC_ROUNDTRIP
360
4902
  3
BUMPTILE
360
281F
  3
DIFFUSETILE
360
281E
  3
OPACITYTILE
360
2822
  3
REFLECTIONTILE
360
2821
  3
REFRACTIONTILE
360
2823
  3
SPECULARTILE
360
2820
  0
DICTIONARY
  5
2815
330
2814
100
AcDbDictionary
280
     1
281
     1
  3
ACAD_XREC_ROUNDTRIP
360
4901
  3
BUMPTILE
360
2817
  3
DIFFUSETILE
360
2816
  3
OPACITYTILE
360
281A
  3
REFLECTIONTILE
360
2819
  3
REFRACTIONTILE
360
281B
  3
SPECULARTILE
360
2818
  0
DICTIONARY
  5
2825
330
2824
100
AcDbDictionary
280
     1
281
     1
  3
ACAD_XREC_ROUNDTRIP
360
4903
  3
BUMPTILE
360
2827
  3
DIFFUSETILE
360
2826
  3
OPACITYTILE
360
282A
  3
REFLECTIONTILE
360
2829
  3
REFRACTIONTILE
360
282B
  3
SPECULARTILE
360
2828
  0
DICTIONARY
  5
4936
330
285A
100
AcDbDictionary
280
     1
281
     1
  3
ACAD_XREC_ROUNDTRIP
360
4937
  0
DICTIONARY
  5
48E5
330
2846
100
AcDbDictionary
280
     1
281
     1
  3
ACAD_ROUNDTRIP_2008_TABLESTYLE_CELLSTYLEMAP
360
48E6
  3
ACAD_XREC_ROUNDTRIP
360
4934
  0
DICTIONARY
  5
490E
330
2832
100
AcDbDictionary
280
     1
281
     1
  3
ACAD_XREC_ROUNDTRIP
360
490F
  0
DICTIONARY
  5
490C
330
2831
100
AcDbDictionary
280
     1
281
     1
  3
ACAD_XREC_ROUNDTRIP
360
490D
  0
DICTIONARY
  5
491A
330
2838
100
AcDbDictionary
280
     1
281
     1
  3
ACAD_XREC_ROUNDTRIP
360
491B
  0
DICTIONARY
  5
4922
330
283C
100
AcDbDictionary
280
     1
281
     1
  3
ACAD_XREC_ROUNDTRIP
360
4923
  0
DICTIONARY
  5
4914
330
2835
100
AcDbDictionary
280
     1
281
     1
  3
ACAD_XREC_ROUNDTRIP
360
4915
  0
DICTIONARY
  5
4918
330
2837
100
AcDbDictionary
280
     1
281
     1
  3
ACAD_XREC_ROUNDTRIP
360
4919
  0
DICTIONARY
  5
4932
330
2844
100
AcDbDictionary
280
     1
281
     1
  3
ACAD_XREC_ROUNDTRIP
360
4933
  0
DICTIONARY
  5
4920
330
283B
100
AcDbDictionary
280
     1
281
     1
  3
ACAD_XREC_ROUNDTRIP
360
4921
  0
DICTIONARY
  5
4904
330
282D
100
AcDbDictionary
280
     1
281
     1
  3
ACAD_XREC_ROUNDTRIP
360
4905
  0
DICTIONARY
  5
4906
330
282E
100
AcDbDictionary
280
     1
281
     1
  3
ACAD_XREC_ROUNDTRIP
360
4907
  0
DICTIONARY
  5
4908
330
282F
100
AcDbDictionary
280
     1
281
     1
  3
ACAD_XREC_ROUNDTRIP
360
4909
  0
DICTIONARY
  5
490A
330
2830
100
AcDbDictionary
280
     1
281
     1
  3
ACAD_XREC_ROUNDTRIP
360
490B
  0
DICTIONARY
  5
4912
330
2834
100
AcDbDictionary
280
     1
281
     1
  3
ACAD_XREC_ROUNDTRIP
360
4913
  0
DICTIONARY
  5
492E
330
2842
100
AcDbDictionary
280
     1
281
     1
  3
ACAD_XREC_ROUNDTRIP
360
492F
  0
DICTIONARY
  5
491E
330
283A
100
AcDbDictionary
280
     1
281
     1
  3
ACAD_XREC_ROUNDTRIP
360
491F
  0
DICTIONARY
  5
4930
330
2843
100
AcDbDictionary
280
     1
281
     1
  3
ACAD_XREC_ROUNDTRIP
360
4931
  0
DICTIONARY
  5
4916
330
2836
100
AcDbDictionary
280
     1
281
     1
  3
ACAD_XREC_ROUNDTRIP
360
4917
  0
DICTIONARY
  5
492C
330
2841
100
AcDbDictionary
280
     1
281
     1
  3
ACAD_XREC_ROUNDTRIP
360
492D
  0
DICTIONARY
  5
492A
330
2840
100
AcDbDictionary
280
     1
281
     1
  3
ACAD_XREC_ROUNDTRIP
360
492B
  0
DICTIONARY
  5
4924
330
283D
100
AcDbDictionary
280
     1
281
     1
  3
ACAD_XREC_ROUNDTRIP
360
4925
  0
DICTIONARY
  5
4926
330
283E
100
AcDbDictionary
280
     1
281
     1
  3
ACAD_XREC_ROUNDTRIP
360
4927
  0
DICTIONARY
  5
491C
330
2839
100
AcDbDictionary
280
     1
281
     1
  3
ACAD_XREC_ROUNDTRIP
360
491D
  0
DICTIONARY
  5
4910
330
2833
100
AcDbDictionary
280
     1
281
     1
  3
ACAD_XREC_ROUNDTRIP
360
4911
  0
DICTIONARY
  5
4928
330
283F
100
AcDbDictionary
280
     1
281
     1
  3
ACAD_XREC_ROUNDTRIP
360
4929
  0
XRECORD
  5
48F4
102
{ACAD_REACTORS
330
48FA
102
}
330
48FA
100
AcDbXrecord
280
     1
  1
AcDb_Thumbnail_Schema
102
{ATTRRECORD
341
48F5
  2
AcDbDs::TreatedAsObjectData
280
     1
291
     1
102
ATTRRECORD}
102
{ATTRRECORD
341
48F6
  2
AcDbDs::Legacy
280
     1
291
     1
102
ATTRRECORD}
  2
AcDbDs::ID
280
    10
 91
        8
102
{ATTRRECORD
341
48F7
  2
AcDs:Indexable
280
     1
291
     1
102
ATTRRECORD}
102
{ATTRRECORD
341
48F8
  2
AcDbDs::HandleAttribute
280
     7
282
     1
102
ATTRRECORD}
  2
Thumbnail_Data
280
    15
 91
        0
  0
XRECORD
  5
48F5
102
{ACAD_REACTORS
330
48FA
102
}
330
48FA
100
AcDbXrecord
280
     1
  1
AcDbDs::TreatedAsObjectDataSchema
  2
AcDbDs::TreatedAsObjectData
280
     1
 91
        0
  0
XRECORD
  5
48F6
102
{ACAD_REACTORS
330
48FA
102
}
330
48FA
100
AcDbXrecord
280
     1
  1
AcDbDs::LegacySchema
  2
AcDbDs::Legacy
280
     1
 91
        0
  0
XRECORD
  5
48F7
102
{ACAD_REACTORS
330
48FA
102
}
330
48FA
100
AcDbXrecord
280
     1
  1
AcDbDs::IndexedPropertySchema
  2
AcDs:Indexable
280
     1
 91
        0
  0
XRECORD
  5
48F8
102
{ACAD_REACTORS
330
48FA
102
}
330
48FA
100
AcDbXrecord
280
     1
  1
AcDbDs::HandleAttributeSchema
  2
AcDbDs::HandleAttribute
280
     7
 91
        1
284
     1
  0
XRECORD
  5
493F
330
493E
100
AcDbXrecord
280
     1
 93
        6
 90
        4
  1
#
 94
        0
300

302
#
  0
XRECORD
  5
4940
330
493E
100
AcDbXrecord
280
     1
 93
        6
 90
        4
  1
FUNCTION
 94
        0
300

302
FUNCTION
  0
XRECORD
  5
4941
330
493E
100
AcDbXrecord
280
     1
 93
        6
 90
        1
 91
        1
 94
        0
300

302
1
  0
XRECORD
  5
4942
330
493E
100
AcDbXrecord
280
     1
 93
        6
 90
        4
  1
+ INPUT
 94
        0
300

302
+ INPUT
  0
XRECORD
  5
4943
330
493E
100
AcDbXrecord
280
     1
 93
        6
 90
        1
 91
        2
 94
        0
300

302
2
  0
XRECORD
  5
4944
330
493E
100
AcDbXrecord
280
     1
 93
        6
 90
        4
  1
- INPUT/GND
 94
        0
300

302
- INPUT/GND
  0
XRECORD
  5
4945
330
493E
100
AcDbXrecord
280
     1
 93
        6
 90
        1
 91
        3
 94
        0
300

302
3
  0
XRECORD
  5
4946
330
493E
100
AcDbXrecord
280
     1
 93
        6
 90
        4
  1
SIGNAL-GND
 94
        0
300

302
SIGNAL-GND
  0
XRECORD
  5
4947
330
493E
100
AcDbXrecord
280
     1
 93
        6
 90
        1
 91
        4
 94
        0
300

302
4
  0
XRECORD
  5
4948
330
493E
100
AcDbXrecord
280
     1
 93
        6
 90
        4
  1
CONTROL/ PROGRAM
 94
        0
300

302
CONTROL/ PROGRAM
  0
XRECORD
  5
4949
330
493E
100
AcDbXrecord
280
     1
 93
        6
 90
        1
 91
        5
 94
        0
300

302
5
  0
XRECORD
  5
494A
330
493E
100
AcDbXrecord
280
     1
 93
        6
 90
        4
  1
REFERENCE VOLTAGE
 94
        0
300

302
REFERENCE VOLTAGE
  0
XRECORD
  5
494B
330
493E
100
AcDbXrecord
280
     1
 93
        6
 90
        1
 91
        6
 94
        0
300

302
6
  0
XRECORD
  5
494C
330
493E
100
AcDbXrecord
280
     1
 93
        6
 90
        4
  1
NC
 94
        0
300

302
NC
  0
XRECORD
  5
494D
330
493E
100
AcDbXrecord
280
     1
 93
        6
 90
        1
 91
        7
 94
        0
300

302
7
  0
XRECORD
  5
494E
330
493E
100
AcDbXrecord
280
     1
 93
        6
 90
        4
  1
INTERNAL POT
 94
        0
300

302
INTERNAL POT
  0
XRECORD
  5
494F
330
493E
100
AcDbXrecord
280
     1
 93
        6
 90
        1
 91
        8
 94
        0
300

302
8
  0
XRECORD
  5
4950
330
493E
100
AcDbXrecord
280
     1
 93
        6
 90
        4
  1
VOLTAGE MONITOR
 94
        0
300

302
VOLTAGE MONITOR
  0
XRECORD
  5
48FE
102
{ACAD_REACTORS
330
48FD
102
}
330
48FD
100
AcDbXrecord
280
     1
102
SHADEPLOT
 70
     0
102
SHADEPLOTRESLEVEL
 70
     2
102
SHADEPLOTCUSTOMDPI
 70
   300
  0
XRECORD
  5
4900
102
{ACAD_REACTORS
330
48FF
102
}
330
48FF
100
AcDbXrecord
280
     1
102
SHADEPLOT
 70
     0
102
SHADEPLOTRESLEVEL
 70
     2
102
SHADEPLOTCUSTOMDPI
 70
   300
  0
XRECORD
  5
48FC
102
{ACAD_REACTORS
330
35C6
102
}
330
35C6
100
AcDbXrecord
280
     1
102
SHADEPLOT
 70
     0
102
SHADEPLOTRESLEVEL
 70
     2
102
SHADEPLOTCUSTOMDPI
 70
   300
  0
XRECORD
  5
4902
102
{ACAD_REACTORS
330
281D
102
}
330
281D
100
AcDbXrecord
280
     1
102
MATERIAL
148
0.0
149
0.0
149
0.0
 93
        0
 94
      127
282
     0
 72
     0
 77
     0
171
     0
175
     0
179
     0
273
     0
  0
XRECORD
  5
281F
102
{ACAD_REACTORS
330
281D
102
}
330
281D
100
AcDbXrecord
280
     1
270
     1
271
     1
  0
XRECORD
  5
281E
102
{ACAD_REACTORS
330
281D
102
}
330
281D
100
AcDbXrecord
280
     1
270
     1
271
     1
  0
XRECORD
  5
2822
102
{ACAD_REACTORS
330
281D
102
}
330
281D
100
AcDbXrecord
280
     1
270
     1
271
     1
  0
XRECORD
  5
2821
102
{ACAD_REACTORS
330
281D
102
}
330
281D
100
AcDbXrecord
280
     1
270
     1
271
     1
  0
XRECORD
  5
2823
102
{ACAD_REACTORS
330
281D
102
}
330
281D
100
AcDbXrecord
280
     1
270
     1
271
     1
  0
XRECORD
  5
2820
102
{ACAD_REACTORS
330
281D
102
}
330
281D
100
AcDbXrecord
280
     1
270
     1
271
     1
  0
XRECORD
  5
4901
102
{ACAD_REACTORS
330
2815
102
}
330
2815
100
AcDbXrecord
280
     1
102
MATERIAL
148
0.0
149
0.0
149
0.0
 93
        0
 94
      127
282
     0
 72
     0
 77
     0
171
     0
175
     0
179
     0
273
     0
  0
XRECORD
  5
2817
102
{ACAD_REACTORS
330
2815
102
}
330
2815
100
AcDbXrecord
280
     1
270
     1
271
     1
  0
XRECORD
  5
2816
102
{ACAD_REACTORS
330
2815
102
}
330
2815
100
AcDbXrecord
280
     1
270
     1
271
     1
  0
XRECORD
  5
281A
102
{ACAD_REACTORS
330
2815
102
}
330
2815
100
AcDbXrecord
280
     1
270
     1
271
     1
  0
XRECORD
  5
2819
102
{ACAD_REACTORS
330
2815
102
}
330
2815
100
AcDbXrecord
280
     1
270
     1
271
     1
  0
XRECORD
  5
281B
102
{ACAD_REACTORS
330
2815
102
}
330
2815
100
AcDbXrecord
280
     1
270
     1
271
     1
  0
XRECORD
  5
2818
102
{ACAD_REACTORS
330
2815
102
}
330
2815
100
AcDbXrecord
280
     1
270
     1
271
     1
  0
XRECORD
  5
4903
102
{ACAD_REACTORS
330
2825
102
}
330
2825
100
AcDbXrecord
280
     1
102
MATERIAL
148
0.0
149
0.0
149
0.0
 93
        0
 94
      127
282
     0
 72
     0
 77
     0
171
     0
175
     0
179
     0
273
     0
  0
XRECORD
  5
2827
102
{ACAD_REACTORS
330
2825
102
}
330
2825
100
AcDbXrecord
280
     1
270
     1
271
     1
  0
XRECORD
  5
2826
102
{ACAD_REACTORS
330
2825
102
}
330
2825
100
AcDbXrecord
280
     1
270
     1
271
     1
  0
XRECORD
  5
282A
102
{ACAD_REACTORS
330
2825
102
}
330
2825
100
AcDbXrecord
280
     1
270
     1
271
     1
  0
XRECORD
  5
2829
102
{ACAD_REACTORS
330
2825
102
}
330
2825
100
AcDbXrecord
280
     1
270
     1
271
     1
  0
XRECORD
  5
282B
102
{ACAD_REACTORS
330
2825
102
}
330
2825
100
AcDbXrecord
280
     1
270
     1
271
     1
  0
XRECORD
  5
2828
102
{ACAD_REACTORS
330
2825
102
}
330
2825
100
AcDbXrecord
280
     1
270
     1
271
     1
  0
XRECORD
  5
4937
102
{ACAD_REACTORS
330
4936
102
}
330
4936
100
AcDbXrecord
280
     1
102
ACAD_ROUNDTRIP_2012_MLEADER_STYLE
298
     1
  0
CELLSTYLEMAP
  5
48E6
102
{ACAD_REACTORS
330
48E5
102
}
330
48E5
100
AcDbCellStyleMap
 90
        3
300
CELLSTYLE
  1
TABLEFORMAT_BEGIN
 90
        5
170
     1
 91
        0
 92
    32768
 62
   257
 93
        1
300
CONTENTFORMAT
  1
CONTENTFORMAT_BEGIN
 90
        0
 91
        0
 92
      512
 93
        0
300

 40
0.0
140
1.0
 94
        5
 62
     0
340
11
144
0.25
309
CONTENTFORMAT_END
171
     0
 94
        0
309
TABLEFORMAT_END
  1
CELLSTYLE_BEGIN
 90
        1
 91
        1
300
_TITLE
309
CELLSTYLE_END
300
CELLSTYLE
  1
TABLEFORMAT_BEGIN
 90
        5
170
     1
 91
        0
 92
        0
 62
   257
 93
        1
300
CONTENTFORMAT
  1
CONTENTFORMAT_BEGIN
 90
        0
 91
        0
 92
      512
 93
        0
300

 40
0.0
140
1.0
 94
        5
 62
     0
340
11
144
0.18
309
CONTENTFORMAT_END
171
     0
 94
        0
309
TABLEFORMAT_END
  1
CELLSTYLE_BEGIN
 90
        2
 91
        1
300
_HEADER
309
CELLSTYLE_END
300
CELLSTYLE
  1
TABLEFORMAT_BEGIN
 90
        5
170
     1
 91
        0
 92
        0
 62
   257
 93
        1
300
CONTENTFORMAT
  1
CONTENTFORMAT_BEGIN
 90
        0
 91
        0
 92
      512
 93
        0
300

 40
0.0
140
1.0
 94
        2
 62
     0
340
11
144
0.18
309
CONTENTFORMAT_END
171
     0
 94
        0
309
TABLEFORMAT_END
  1
CELLSTYLE_BEGIN
 90
        3
 91
        2
300
_DATA
309
CELLSTYLE_END
  0
XRECORD
  5
4934
102
{ACAD_REACTORS
330
48E5
102
}
330
48E5
100
AcDbXrecord
280
     1
102
ACAD_ROUNDTRIP_PRE2007_TABLESTYLE
 90
      512
 91
        0
  1

 92
      512
 93
        0
  2

 94
      512
 95
        0
  3

  0
XRECORD
  5
490F
102
{ACAD_REACTORS
330
490E
102
}
330
490E
100
AcDbXrecord
280
     1
102
RTVSPost2010Prop28
280
     1
102
RTVSPost2010PropOp28
 70
     1
102
RTVSPost2010Prop29
280
     1
102
RTVSPost2010PropOp29
 70
     1
102
RTVSPost2010Prop30
280
     0
102
RTVSPost2010PropOp30
 70
     1
102
RTVSPost2010Prop31
280
     0
102
RTVSPost2010PropOp31
 70
     1
102
RTVSPost2010Prop32
280
     0
102
RTVSPost2010PropOp32
 70
     1
102
RTVSPost2010Prop33
280
     0
102
RTVSPost2010PropOp33
 70
     1
102
RTVSPost2010Prop34
280
     0
102
RTVSPost2010PropOp34
 70
     1
102
RTVSPost2010Prop35
280
     0
102
RTVSPost2010PropOp35
 70
     1
102
RTVSPost2010Prop36
280
     0
102
RTVSPost2010PropOp36
 70
     1
102
RTVSPost2010Prop37
 90
       50
102
RTVSPost2010PropOp37
 70
     1
102
RTVSPost2010Prop38
140
0.0
102
RTVSPost2010PropOp38
 70
     1
102
RTVSPost2010Prop39
140
1.0
102
RTVSPost2010PropOp39
 70
     1
102
RTVSPost2010Prop40
 90
        0
102
RTVSPost2010PropOp40
 70
     1
102
RTVSPost2010Prop41ColorIndex
 90
       18
102
RTVSPost2010Prop41ColorRGB
 90
        0
102
RTVSPost2010PropOp41
 70
     1
102
RTVSPost2010Prop42
 90
       50
102
RTVSPost2010PropOp42
 70
     1
102
RTVSPost2010Prop43
 90
        3
102
RTVSPost2010PropOp43
 70
     1
102
RTVSPost2010Prop44ColorIndex
 90
        5
102
RTVSPost2010Prop44ColorRGB
 90
      255
102
RTVSPost2010PropOp44
 70
     1
102
RTVSPost2010Prop45
280
     0
102
RTVSPost2010PropOp45
 70
     1
102
RTVSPost2010Prop46
 90
       50
102
RTVSPost2010PropOp46
 70
     1
102
RTVSPost2010Prop47
 90
       50
102
RTVSPost2010PropOp47
 70
     1
102
RTVSPost2010Prop48
 90
       50
102
RTVSPost2010PropOp48
 70
     1
102
RTVSPost2010Prop49
280
     0
102
RTVSPost2010PropOp49
 70
     1
102
RTVSPost2010Prop50
 90
       50
102
RTVSPost2010PropOp50
 70
     1
102
RTVSPost2010Prop51ColorIndex
 90
      256
102
RTVSPost2010Prop51ColorRGB
 90
-16777216
102
RTVSPost2010PropOp51
 70
     0
102
RTVSPost2010Prop52
140
1.0
102
RTVSPost2010PropOp52
 70
     0
102
RTVSPost2010Prop53
 90
        2
102
RTVSPost2010PropOp53
 70
     1
102
RTVSPost2010Prop54
  1
strokes_ogs.tif
102
RTVSPost2010PropOp54
 70
     1
102
RTVSPost2010Prop55
280
     0
102
RTVSPost2010PropOp55
 70
     1
102
RTVSPost2010Prop56
140
1.0
102
RTVSPost2010PropOp56
 70
     1
102
RTVSPost2010Prop57
140
1.0
102
RTVSPost2010PropOp57
 70
     1
102
RTVSPropertyOp0
 70
     1
102
RTVSPropertyOp1
 70
     1
102
RTVSPropertyOp2
 70
     1
102
RTVSPropertyOp3
 70
     1
102
RTVSPropertyOp4
 70
     1
102
RTVSPropertyOp5
 70
     1
102
RTVSPropertyOp6
 70
     1
102
RTVSPropertyOp7
 70
     1
102
RTVSPropertyOp8
 70
     1
102
RTVSPropertyOp9
 70
     1
102
RTVSPropertyOp10
 70
     1
102
RTVSPropertyOp11
 70
     1
102
RTVSPropertyOp12
 70
     1
102
RTVSPropertyOp13
 70
     1
102
RTVSPropertyOp14
 70
     1
102
RTVSPropertyOp15
 70
     1
102
RTVSPropertyOp16
 70
     1
102
RTVSPropertyOp17
 70
     1
102
RTVSPropertyOp18
 70
     1
102
RTVSPropertyOp19
 70
     1
102
RTVSPropertyOp20
 70
     1
102
RTVSPropertyOp21
 70
     1
102
RTVSPropertyOp22
 70
     1
102
RTVSPropertyOp23
 70
     1
102
RTVSPropertyOp24
 70
     1
102
RTVSPropertyOp25
 70
     1
102
RTVSPropertyOp26
 70
     1
102
RTVSPropertyOp27
 70
     1
102
RTVSPropertyOp28
 70
     1
102
RTVSPropertyOp29
 70
     1
102
RTVSPropertyOp30
 70
     1
102
RTVSPropertyOp31
 70
     1
102
RTVSPropertyOp32
 70
     1
102
RTVSPropertyOp33
 70
     1
102
RTVSPropertyOp34
 70
     1
102
RTVSPropertyOp35
 70
     1
102
RTVSPropertyOp36
 70
     1
102
RTVSPropertyOp37
 70
     1
102
RTVSPropertyOp38
 70
     1
102
RTVSPropertyOp39
 70
     1
102
RTVSPropertyOp40
 70
     1
102
RTVSPropertyOp41
 70
     1
102
RTVSPropertyOp42
 70
     1
102
RTVSPropertyOp43
 70
     1
102
RTVSPropertyOp44
 70
     1
102
RTVSPropertyOp45
 70
     1
102
RTVSPropertyOp46
 70
     1
102
RTVSPropertyOp47
 70
     1
102
RTVSPropertyOp48
 70
     1
102
RTVSPropertyOp49
 70
     1
102
RTVSPropertyOp50
 70
     1
102
RTVSPropertyOp51
 70
     0
102
RTVSPropertyOp52
 70
     0
102
RTVSPropertyOp53
 70
     1
102
RTVSPropertyOp54
 70
     1
102
RTVSPropertyOp55
 70
     1
102
RTVSPropertyOp56
 70
     1
102
RTVSPropertyOp57
 70
     1
102
RTVSPropertyOp58
 70
     1
102
RTVSPropertyOp59
 70
     1
102
RTVSPropertyOp60
 70
     1
102
RTVSPropertyOp61
 70
     1
102
RTVSPropertyOp62
 70
     1
  0
XRECORD
  5
490D
102
{ACAD_REACTORS
330
490C
102
}
330
490C
100
AcDbXrecord
280
     1
102
RTVSPost2010Prop28
280
     0
102
RTVSPost2010PropOp28
 70
     1
102
RTVSPost2010Prop29
280
     1
102
RTVSPost2010PropOp29
 70
     1
102
RTVSPost2010Prop30
280
     1
102
RTVSPost2010PropOp30
 70
     1
102
RTVSPost2010Prop31
280
     0
102
RTVSPost2010PropOp31
 70
     1
102
RTVSPost2010Prop32
280
     0
102
RTVSPost2010PropOp32
 70
     1
102
RTVSPost2010Prop33
280
     0
102
RTVSPost2010PropOp33
 70
     1
102
RTVSPost2010Prop34
280
     0
102
RTVSPost2010PropOp34
 70
     1
102
RTVSPost2010Prop35
280
     0
102
RTVSPost2010PropOp35
 70
     1
102
RTVSPost2010Prop36
280
     0
102
RTVSPost2010PropOp36
 70
     1
102
RTVSPost2010Prop37
 90
       50
102
RTVSPost2010PropOp37
 70
     1
102
RTVSPost2010Prop38
140
0.0
102
RTVSPost2010PropOp38
 70
     1
102
RTVSPost2010Prop39
140
1.0
102
RTVSPost2010PropOp39
 70
     1
102
RTVSPost2010Prop40
 90
        0
102
RTVSPost2010PropOp40
 70
     1
102
RTVSPost2010Prop41ColorIndex
 90
       18
102
RTVSPost2010Prop41ColorRGB
 90
        0
102
RTVSPost2010PropOp41
 70
     1
102
RTVSPost2010Prop42
 90
       50
102
RTVSPost2010PropOp42
 70
     1
102
RTVSPost2010Prop43
 90
        3
102
RTVSPost2010PropOp43
 70
     1
102
RTVSPost2010Prop44ColorIndex
 90
        5
102
RTVSPost2010Prop44ColorRGB
 90
      255
102
RTVSPost2010PropOp44
 70
     1
102
RTVSPost2010Prop45
280
     0
102
RTVSPost2010PropOp45
 70
     1
102
RTVSPost2010Prop46
 90
       50
102
RTVSPost2010PropOp46
 70
     1
102
RTVSPost2010Prop47
 90
       50
102
RTVSPost2010PropOp47
 70
     1
102
RTVSPost2010Prop48
 90
       50
102
RTVSPost2010PropOp48
 70
     1
102
RTVSPost2010Prop49
280
     0
102
RTVSPost2010PropOp49
 70
     1
102
RTVSPost2010Prop50
 90
       50
102
RTVSPost2010PropOp50
 70
     1
102
RTVSPost2010Prop51ColorIndex
 90
      256
102
RTVSPost2010Prop51ColorRGB
 90
-16777216
102
RTVSPost2010PropOp51
 70
     0
102
RTVSPost2010Prop52
140
1.0
102
RTVSPost2010PropOp52
 70
     0
102
RTVSPost2010Prop53
 90
        2
102
RTVSPost2010PropOp53
 70
     1
102
RTVSPost2010Prop54
  1
strokes_ogs.tif
102
RTVSPost2010PropOp54
 70
     1
102
RTVSPost2010Prop55
280
     0
102
RTVSPost2010PropOp55
 70
     1
102
RTVSPost2010Prop56
140
1.0
102
RTVSPost2010PropOp56
 70
     1
102
RTVSPost2010Prop57
140
1.0
102
RTVSPost2010PropOp57
 70
     1
102
RTVSPropertyOp0
 70
     1
102
RTVSPropertyOp1
 70
     1
102
RTVSPropertyOp2
 70
     1
102
RTVSPropertyOp3
 70
     1
102
RTVSPropertyOp4
 70
     1
102
RTVSPropertyOp5
 70
     1
102
RTVSPropertyOp6
 70
     1
102
RTVSPropertyOp7
 70
     1
102
RTVSPropertyOp8
 70
     1
102
RTVSPropertyOp9
 70
     1
102
RTVSPropertyOp10
 70
     1
102
RTVSPropertyOp11
 70
     1
102
RTVSPropertyOp12
 70
     1
102
RTVSPropertyOp13
 70
     1
102
RTVSPropertyOp14
 70
     1
102
RTVSPropertyOp15
 70
     1
102
RTVSPropertyOp16
 70
     1
102
RTVSPropertyOp17
 70
     1
102
RTVSPropertyOp18
 70
     1
102
RTVSPropertyOp19
 70
     1
102
RTVSPropertyOp20
 70
     1
102
RTVSPropertyOp21
 70
     1
102
RTVSPropertyOp22
 70
     1
102
RTVSPropertyOp23
 70
     1
102
RTVSPropertyOp24
 70
     1
102
RTVSPropertyOp25
 70
     1
102
RTVSPropertyOp26
 70
     1
102
RTVSPropertyOp27
 70
     1
102
RTVSPropertyOp28
 70
     1
102
RTVSPropertyOp29
 70
     1
102
RTVSPropertyOp30
 70
     1
102
RTVSPropertyOp31
 70
     1
102
RTVSPropertyOp32
 70
     1
102
RTVSPropertyOp33
 70
     1
102
RTVSPropertyOp34
 70
     1
102
RTVSPropertyOp35
 70
     1
102
RTVSPropertyOp36
 70
     1
102
RTVSPropertyOp37
 70
     1
102
RTVSPropertyOp38
 70
     1
102
RTVSPropertyOp39
 70
     1
102
RTVSPropertyOp40
 70
     1
102
RTVSPropertyOp41
 70
     1
102
RTVSPropertyOp42
 70
     1
102
RTVSPropertyOp43
 70
     1
102
RTVSPropertyOp44
 70
     1
102
RTVSPropertyOp45
 70
     1
102
RTVSPropertyOp46
 70
     1
102
RTVSPropertyOp47
 70
     1
102
RTVSPropertyOp48
 70
     1
102
RTVSPropertyOp49
 70
     1
102
RTVSPropertyOp50
 70
     1
102
RTVSPropertyOp51
 70
     0
102
RTVSPropertyOp52
 70
     0
102
RTVSPropertyOp53
 70
     1
102
RTVSPropertyOp54
 70
     1
102
RTVSPropertyOp55
 70
     1
102
RTVSPropertyOp56
 70
     1
102
RTVSPropertyOp57
 70
     1
102
RTVSPropertyOp58
 70
     1
102
RTVSPropertyOp59
 70
     1
102
RTVSPropertyOp60
 70
     1
102
RTVSPropertyOp61
 70
     1
102
RTVSPropertyOp62
 70
     1
  0
XRECORD
  5
491B
102
{ACAD_REACTORS
330
491A
102
}
330
491A
100
AcDbXrecord
280
     1
102
RTVSPost2010Prop28
280
     0
102
RTVSPost2010PropOp28
 70
     1
102
RTVSPost2010Prop29
280
     1
102
RTVSPost2010PropOp29
 70
     1
102
RTVSPost2010Prop30
280
     1
102
RTVSPost2010PropOp30
 70
     1
102
RTVSPost2010Prop31
280
     0
102
RTVSPost2010PropOp31
 70
     1
102
RTVSPost2010Prop32
280
     0
102
RTVSPost2010PropOp32
 70
     1
102
RTVSPost2010Prop33
280
     0
102
RTVSPost2010PropOp33
 70
     1
102
RTVSPost2010Prop34
280
     0
102
RTVSPost2010PropOp34
 70
     1
102
RTVSPost2010Prop35
280
     0
102
RTVSPost2010PropOp35
 70
     1
102
RTVSPost2010Prop36
280
     0
102
RTVSPost2010PropOp36
 70
     1
102
RTVSPost2010Prop37
 90
       50
102
RTVSPost2010PropOp37
 70
     1
102
RTVSPost2010Prop38
140
0.0
102
RTVSPost2010PropOp38
 70
     1
102
RTVSPost2010Prop39
140
1.0
102
RTVSPost2010PropOp39
 70
     1
102
RTVSPost2010Prop40
 90
        0
102
RTVSPost2010PropOp40
 70
     1
102
RTVSPost2010Prop41ColorIndex
 90
       18
102
RTVSPost2010Prop41ColorRGB
 90
        0
102
RTVSPost2010PropOp41
 70
     1
102
RTVSPost2010Prop42
 90
       50
102
RTVSPost2010PropOp42
 70
     1
102
RTVSPost2010Prop43
 90
        3
102
RTVSPost2010PropOp43
 70
     1
102
RTVSPost2010Prop44ColorIndex
 90
        5
102
RTVSPost2010Prop44ColorRGB
 90
      255
102
RTVSPost2010PropOp44
 70
     1
102
RTVSPost2010Prop45
280
     0
102
RTVSPost2010PropOp45
 70
     1
102
RTVSPost2010Prop46
 90
       50
102
RTVSPost2010PropOp46
 70
     1
102
RTVSPost2010Prop47
 90
       50
102
RTVSPost2010PropOp47
 70
     1
102
RTVSPost2010Prop48
 90
       50
102
RTVSPost2010PropOp48
 70
     1
102
RTVSPost2010Prop49
280
     0
102
RTVSPost2010PropOp49
 70
     1
102
RTVSPost2010Prop50
 90
       50
102
RTVSPost2010PropOp50
 70
     1
102
RTVSPost2010Prop51ColorIndex
 90
      256
102
RTVSPost2010Prop51ColorRGB
 90
-16777216
102
RTVSPost2010PropOp51
 70
     0
102
RTVSPost2010Prop52
140
1.0
102
RTVSPost2010PropOp52
 70
     0
102
RTVSPost2010Prop53
 90
        2
102
RTVSPost2010PropOp53
 70
     1
102
RTVSPost2010Prop54
  1
strokes_ogs.tif
102
RTVSPost2010PropOp54
 70
     1
102
RTVSPost2010Prop55
280
     0
102
RTVSPost2010PropOp55
 70
     1
102
RTVSPost2010Prop56
140
1.0
102
RTVSPost2010PropOp56
 70
     1
102
RTVSPost2010Prop57
140
1.0
102
RTVSPost2010PropOp57
 70
     1
102
RTVSPropertyOp0
 70
     1
102
RTVSPropertyOp1
 70
     1
102
RTVSPropertyOp2
 70
     1
102
RTVSPropertyOp3
 70
     1
102
RTVSPropertyOp4
 70
     1
102
RTVSPropertyOp5
 70
     1
102
RTVSPropertyOp6
 70
     1
102
RTVSPropertyOp7
 70
     1
102
RTVSPropertyOp8
 70
     1
102
RTVSPropertyOp9
 70
     1
102
RTVSPropertyOp10
 70
     1
102
RTVSPropertyOp11
 70
     1
102
RTVSPropertyOp12
 70
     1
102
RTVSPropertyOp13
 70
     1
102
RTVSPropertyOp14
 70
     1
102
RTVSPropertyOp15
 70
     1
102
RTVSPropertyOp16
 70
     1
102
RTVSPropertyOp17
 70
     1
102
RTVSPropertyOp18
 70
     1
102
RTVSPropertyOp19
 70
     1
102
RTVSPropertyOp20
 70
     1
102
RTVSPropertyOp21
 70
     1
102
RTVSPropertyOp22
 70
     1
102
RTVSPropertyOp23
 70
     1
102
RTVSPropertyOp24
 70
     1
102
RTVSPropertyOp25
 70
     1
102
RTVSPropertyOp26
 70
     1
102
RTVSPropertyOp27
 70
     1
102
RTVSPropertyOp28
 70
     1
102
RTVSPropertyOp29
 70
     1
102
RTVSPropertyOp30
 70
     1
102
RTVSPropertyOp31
 70
     1
102
RTVSPropertyOp32
 70
     1
102
RTVSPropertyOp33
 70
     1
102
RTVSPropertyOp34
 70
     1
102
RTVSPropertyOp35
 70
     1
102
RTVSPropertyOp36
 70
     1
102
RTVSPropertyOp37
 70
     1
102
RTVSPropertyOp38
 70
     1
102
RTVSPropertyOp39
 70
     1
102
RTVSPropertyOp40
 70
     1
102
RTVSPropertyOp41
 70
     1
102
RTVSPropertyOp42
 70
     1
102
RTVSPropertyOp43
 70
     1
102
RTVSPropertyOp44
 70
     1
102
RTVSPropertyOp45
 70
     1
102
RTVSPropertyOp46
 70
     1
102
RTVSPropertyOp47
 70
     1
102
RTVSPropertyOp48
 70
     1
102
RTVSPropertyOp49
 70
     1
102
RTVSPropertyOp50
 70
     1
102
RTVSPropertyOp51
 70
     0
102
RTVSPropertyOp52
 70
     0
102
RTVSPropertyOp53
 70
     1
102
RTVSPropertyOp54
 70
     1
102
RTVSPropertyOp55
 70
     1
102
RTVSPropertyOp56
 70
     1
102
RTVSPropertyOp57
 70
     1
102
RTVSPropertyOp58
 70
     1
102
RTVSPropertyOp59
 70
     1
102
RTVSPropertyOp60
 70
     1
102
RTVSPropertyOp61
 70
     1
102
RTVSPropertyOp62
 70
     1
  0
XRECORD
  5
4923
102
{ACAD_REACTORS
330
4922
102
}
330
4922
100
AcDbXrecord
280
     1
102
RTVSPost2010Prop28
280
     0
102
RTVSPost2010PropOp28
 70
     1
102
RTVSPost2010Prop29
280
     1
102
RTVSPost2010PropOp29
 70
     1
102
RTVSPost2010Prop30
280
     1
102
RTVSPost2010PropOp30
 70
     1
102
RTVSPost2010Prop31
280
     0
102
RTVSPost2010PropOp31
 70
     1
102
RTVSPost2010Prop32
280
     0
102
RTVSPost2010PropOp32
 70
     1
102
RTVSPost2010Prop33
280
     0
102
RTVSPost2010PropOp33
 70
     1
102
RTVSPost2010Prop34
280
     0
102
RTVSPost2010PropOp34
 70
     1
102
RTVSPost2010Prop35
280
     0
102
RTVSPost2010PropOp35
 70
     1
102
RTVSPost2010Prop36
280
     0
102
RTVSPost2010PropOp36
 70
     1
102
RTVSPost2010Prop37
 90
       50
102
RTVSPost2010PropOp37
 70
     1
102
RTVSPost2010Prop38
140
0.0
102
RTVSPost2010PropOp38
 70
     1
102
RTVSPost2010Prop39
140
1.0
102
RTVSPost2010PropOp39
 70
     1
102
RTVSPost2010Prop40
 90
        0
102
RTVSPost2010PropOp40
 70
     1
102
RTVSPost2010Prop41ColorIndex
 90
       18
102
RTVSPost2010Prop41ColorRGB
 90
        0
102
RTVSPost2010PropOp41
 70
     1
102
RTVSPost2010Prop42
 90
       50
102
RTVSPost2010PropOp42
 70
     1
102
RTVSPost2010Prop43
 90
        3
102
RTVSPost2010PropOp43
 70
     1
102
RTVSPost2010Prop44ColorIndex
 90
        5
102
RTVSPost2010Prop44ColorRGB
 90
      255
102
RTVSPost2010PropOp44
 70
     1
102
RTVSPost2010Prop45
280
     0
102
RTVSPost2010PropOp45
 70
     1
102
RTVSPost2010Prop46
 90
       50
102
RTVSPost2010PropOp46
 70
     1
102
RTVSPost2010Prop47
 90
       50
102
RTVSPost2010PropOp47
 70
     1
102
RTVSPost2010Prop48
 90
       50
102
RTVSPost2010PropOp48
 70
     1
102
RTVSPost2010Prop49
280
     0
102
RTVSPost2010PropOp49
 70
     1
102
RTVSPost2010Prop50
 90
       50
102
RTVSPost2010PropOp50
 70
     1
102
RTVSPost2010Prop51ColorIndex
 90
      256
102
RTVSPost2010Prop51ColorRGB
 90
-16777216
102
RTVSPost2010PropOp51
 70
     0
102
RTVSPost2010Prop52
140
1.0
102
RTVSPost2010PropOp52
 70
     0
102
RTVSPost2010Prop53
 90
        2
102
RTVSPost2010PropOp53
 70
     1
102
RTVSPost2010Prop54
  1
strokes_ogs.tif
102
RTVSPost2010PropOp54
 70
     1
102
RTVSPost2010Prop55
280
     0
102
RTVSPost2010PropOp55
 70
     1
102
RTVSPost2010Prop56
140
1.0
102
RTVSPost2010PropOp56
 70
     1
102
RTVSPost2010Prop57
140
1.0
102
RTVSPost2010PropOp57
 70
     1
102
RTVSPropertyOp0
 70
     1
102
RTVSPropertyOp1
 70
     1
102
RTVSPropertyOp2
 70
     1
102
RTVSPropertyOp3
 70
     1
102
RTVSPropertyOp4
 70
     1
102
RTVSPropertyOp5
 70
     1
102
RTVSPropertyOp6
 70
     1
102
RTVSPropertyOp7
 70
     1
102
RTVSPropertyOp8
 70
     1
102
RTVSPropertyOp9
 70
     1
102
RTVSPropertyOp10
 70
     1
102
RTVSPropertyOp11
 70
     1
102
RTVSPropertyOp12
 70
     1
102
RTVSPropertyOp13
 70
     1
102
RTVSPropertyOp14
 70
     1
102
RTVSPropertyOp15
 70
     1
102
RTVSPropertyOp16
 70
     1
102
RTVSPropertyOp17
 70
     1
102
RTVSPropertyOp18
 70
     1
102
RTVSPropertyOp19
 70
     1
102
RTVSPropertyOp20
 70
     1
102
RTVSPropertyOp21
 70
     1
102
RTVSPropertyOp22
 70
     1
102
RTVSPropertyOp23
 70
     1
102
RTVSPropertyOp24
 70
     1
102
RTVSPropertyOp25
 70
     1
102
RTVSPropertyOp26
 70
     1
102
RTVSPropertyOp27
 70
     1
102
RTVSPropertyOp28
 70
     1
102
RTVSPropertyOp29
 70
     1
102
RTVSPropertyOp30
 70
     1
102
RTVSPropertyOp31
 70
     1
102
RTVSPropertyOp32
 70
     1
102
RTVSPropertyOp33
 70
     1
102
RTVSPropertyOp34
 70
     1
102
RTVSPropertyOp35
 70
     1
102
RTVSPropertyOp36
 70
     1
102
RTVSPropertyOp37
 70
     1
102
RTVSPropertyOp38
 70
     1
102
RTVSPropertyOp39
 70
     1
102
RTVSPropertyOp40
 70
     1
102
RTVSPropertyOp41
 70
     1
102
RTVSPropertyOp42
 70
     1
102
RTVSPropertyOp43
 70
     1
102
RTVSPropertyOp44
 70
     1
102
RTVSPropertyOp45
 70
     1
102
RTVSPropertyOp46
 70
     1
102
RTVSPropertyOp47
 70
     1
102
RTVSPropertyOp48
 70
     1
102
RTVSPropertyOp49
 70
     1
102
RTVSPropertyOp50
 70
     1
102
RTVSPropertyOp51
 70
     0
102
RTVSPropertyOp52
 70
     0
102
RTVSPropertyOp53
 70
     1
102
RTVSPropertyOp54
 70
     1
102
RTVSPropertyOp55
 70
     1
102
RTVSPropertyOp56
 70
     1
102
RTVSPropertyOp57
 70
     1
102
RTVSPropertyOp58
 70
     1
102
RTVSPropertyOp59
 70
     1
102
RTVSPropertyOp60
 70
     1
102
RTVSPropertyOp61
 70
     1
102
RTVSPropertyOp62
 70
     1
  0
XRECORD
  5
4915
102
{ACAD_REACTORS
330
4914
102
}
330
4914
100
AcDbXrecord
280
     1
102
RTVSPost2010Prop28
280
     0
102
RTVSPost2010PropOp28
 70
     1
102
RTVSPost2010Prop29
280
     1
102
RTVSPost2010PropOp29
 70
     1
102
RTVSPost2010Prop30
280
     1
102
RTVSPost2010PropOp30
 70
     1
102
RTVSPost2010Prop31
280
     0
102
RTVSPost2010PropOp31
 70
     1
102
RTVSPost2010Prop32
280
     0
102
RTVSPost2010PropOp32
 70
     1
102
RTVSPost2010Prop33
280
     0
102
RTVSPost2010PropOp33
 70
     1
102
RTVSPost2010Prop34
280
     0
102
RTVSPost2010PropOp34
 70
     1
102
RTVSPost2010Prop35
280
     0
102
RTVSPost2010PropOp35
 70
     1
102
RTVSPost2010Prop36
280
     0
102
RTVSPost2010PropOp36
 70
     1
102
RTVSPost2010Prop37
 90
       50
102
RTVSPost2010PropOp37
 70
     1
102
RTVSPost2010Prop38
140
0.0
102
RTVSPost2010PropOp38
 70
     1
102
RTVSPost2010Prop39
140
1.0
102
RTVSPost2010PropOp39
 70
     1
102
RTVSPost2010Prop40
 90
        0
102
RTVSPost2010PropOp40
 70
     1
102
RTVSPost2010Prop41ColorIndex
 90
       18
102
RTVSPost2010Prop41ColorRGB
 90
        0
102
RTVSPost2010PropOp41
 70
     1
102
RTVSPost2010Prop42
 90
       50
102
RTVSPost2010PropOp42
 70
     1
102
RTVSPost2010Prop43
 90
        3
102
RTVSPost2010PropOp43
 70
     1
102
RTVSPost2010Prop44ColorIndex
 90
        5
102
RTVSPost2010Prop44ColorRGB
 90
      255
102
RTVSPost2010PropOp44
 70
     1
102
RTVSPost2010Prop45
280
     0
102
RTVSPost2010PropOp45
 70
     1
102
RTVSPost2010Prop46
 90
       50
102
RTVSPost2010PropOp46
 70
     1
102
RTVSPost2010Prop47
 90
       50
102
RTVSPost2010PropOp47
 70
     1
102
RTVSPost2010Prop48
 90
       50
102
RTVSPost2010PropOp48
 70
     1
102
RTVSPost2010Prop49
280
     0
102
RTVSPost2010PropOp49
 70
     1
102
RTVSPost2010Prop50
 90
       50
102
RTVSPost2010PropOp50
 70
     1
102
RTVSPost2010Prop51ColorIndex
 90
      256
102
RTVSPost2010Prop51ColorRGB
 90
-16777216
102
RTVSPost2010PropOp51
 70
     0
102
RTVSPost2010Prop52
140
1.0
102
RTVSPost2010PropOp52
 70
     0
102
RTVSPost2010Prop53
 90
        2
102
RTVSPost2010PropOp53
 70
     1
102
RTVSPost2010Prop54
  1
strokes_ogs.tif
102
RTVSPost2010PropOp54
 70
     1
102
RTVSPost2010Prop55
280
     0
102
RTVSPost2010PropOp55
 70
     1
102
RTVSPost2010Prop56
140
1.0
102
RTVSPost2010PropOp56
 70
     1
102
RTVSPost2010Prop57
140
1.0
102
RTVSPost2010PropOp57
 70
     1
102
RTVSPropertyOp0
 70
     1
102
RTVSPropertyOp1
 70
     1
102
RTVSPropertyOp2
 70
     1
102
RTVSPropertyOp3
 70
     1
102
RTVSPropertyOp4
 70
     1
102
RTVSPropertyOp5
 70
     1
102
RTVSPropertyOp6
 70
     1
102
RTVSPropertyOp7
 70
     1
102
RTVSPropertyOp8
 70
     1
102
RTVSPropertyOp9
 70
     1
102
RTVSPropertyOp10
 70
     1
102
RTVSPropertyOp11
 70
     1
102
RTVSPropertyOp12
 70
     1
102
RTVSPropertyOp13
 70
     1
102
RTVSPropertyOp14
 70
     1
102
RTVSPropertyOp15
 70
     1
102
RTVSPropertyOp16
 70
     1
102
RTVSPropertyOp17
 70
     1
102
RTVSPropertyOp18
 70
     1
102
RTVSPropertyOp19
 70
     1
102
RTVSPropertyOp20
 70
     1
102
RTVSPropertyOp21
 70
     1
102
RTVSPropertyOp22
 70
     1
102
RTVSPropertyOp23
 70
     1
102
RTVSPropertyOp24
 70
     1
102
RTVSPropertyOp25
 70
     1
102
RTVSPropertyOp26
 70
     1
102
RTVSPropertyOp27
 70
     1
102
RTVSPropertyOp28
 70
     1
102
RTVSPropertyOp29
 70
     1
102
RTVSPropertyOp30
 70
     1
102
RTVSPropertyOp31
 70
     1
102
RTVSPropertyOp32
 70
     1
102
RTVSPropertyOp33
 70
     1
102
RTVSPropertyOp34
 70
     1
102
RTVSPropertyOp35
 70
     1
102
RTVSPropertyOp36
 70
     1
102
RTVSPropertyOp37
 70
     1
102
RTVSPropertyOp38
 70
     1
102
RTVSPropertyOp39
 70
     1
102
RTVSPropertyOp40
 70
     1
102
RTVSPropertyOp41
 70
     1
102
RTVSPropertyOp42
 70
     1
102
RTVSPropertyOp43
 70
     1
102
RTVSPropertyOp44
 70
     1
102
RTVSPropertyOp45
 70
     1
102
RTVSPropertyOp46
 70
     1
102
RTVSPropertyOp47
 70
     1
102
RTVSPropertyOp48
 70
     1
102
RTVSPropertyOp49
 70
     1
102
RTVSPropertyOp50
 70
     1
102
RTVSPropertyOp51
 70
     0
102
RTVSPropertyOp52
 70
     0
102
RTVSPropertyOp53
 70
     1
102
RTVSPropertyOp54
 70
     1
102
RTVSPropertyOp55
 70
     1
102
RTVSPropertyOp56
 70
     1
102
RTVSPropertyOp57
 70
     1
102
RTVSPropertyOp58
 70
     1
102
RTVSPropertyOp59
 70
     1
102
RTVSPropertyOp60
 70
     1
102
RTVSPropertyOp61
 70
     1
102
RTVSPropertyOp62
 70
     1
  0
XRECORD
  5
4919
102
{ACAD_REACTORS
330
4918
102
}
330
4918
100
AcDbXrecord
280
     1
102
RTVSPost2010Prop28
280
     0
102
RTVSPost2010PropOp28
 70
     1
102
RTVSPost2010Prop29
280
     1
102
RTVSPost2010PropOp29
 70
     1
102
RTVSPost2010Prop30
280
     1
102
RTVSPost2010PropOp30
 70
     1
102
RTVSPost2010Prop31
280
     0
102
RTVSPost2010PropOp31
 70
     1
102
RTVSPost2010Prop32
280
     0
102
RTVSPost2010PropOp32
 70
     1
102
RTVSPost2010Prop33
280
     0
102
RTVSPost2010PropOp33
 70
     1
102
RTVSPost2010Prop34
280
     0
102
RTVSPost2010PropOp34
 70
     1
102
RTVSPost2010Prop35
280
     0
102
RTVSPost2010PropOp35
 70
     1
102
RTVSPost2010Prop36
280
     0
102
RTVSPost2010PropOp36
 70
     1
102
RTVSPost2010Prop37
 90
       50
102
RTVSPost2010PropOp37
 70
     1
102
RTVSPost2010Prop38
140
0.0
102
RTVSPost2010PropOp38
 70
     1
102
RTVSPost2010Prop39
140
1.0
102
RTVSPost2010PropOp39
 70
     1
102
RTVSPost2010Prop40
 90
        0
102
RTVSPost2010PropOp40
 70
     1
102
RTVSPost2010Prop41ColorIndex
 90
       18
102
RTVSPost2010Prop41ColorRGB
 90
        0
102
RTVSPost2010PropOp41
 70
     1
102
RTVSPost2010Prop42
 90
       50
102
RTVSPost2010PropOp42
 70
     1
102
RTVSPost2010Prop43
 90
        3
102
RTVSPost2010PropOp43
 70
     1
102
RTVSPost2010Prop44ColorIndex
 90
        5
102
RTVSPost2010Prop44ColorRGB
 90
      255
102
RTVSPost2010PropOp44
 70
     1
102
RTVSPost2010Prop45
280
     0
102
RTVSPost2010PropOp45
 70
     1
102
RTVSPost2010Prop46
 90
       50
102
RTVSPost2010PropOp46
 70
     1
102
RTVSPost2010Prop47
 90
       50
102
RTVSPost2010PropOp47
 70
     1
102
RTVSPost2010Prop48
 90
       50
102
RTVSPost2010PropOp48
 70
     1
102
RTVSPost2010Prop49
280
     0
102
RTVSPost2010PropOp49
 70
     1
102
RTVSPost2010Prop50
 90
       50
102
RTVSPost2010PropOp50
 70
     1
102
RTVSPost2010Prop51ColorIndex
 90
      256
102
RTVSPost2010Prop51ColorRGB
 90
-16777216
102
RTVSPost2010PropOp51
 70
     0
102
RTVSPost2010Prop52
140
1.0
102
RTVSPost2010PropOp52
 70
     0
102
RTVSPost2010Prop53
 90
        2
102
RTVSPost2010PropOp53
 70
     1
102
RTVSPost2010Prop54
  1
strokes_ogs.tif
102
RTVSPost2010PropOp54
 70
     1
102
RTVSPost2010Prop55
280
     0
102
RTVSPost2010PropOp55
 70
     1
102
RTVSPost2010Prop56
140
1.0
102
RTVSPost2010PropOp56
 70
     1
102
RTVSPost2010Prop57
140
1.0
102
RTVSPost2010PropOp57
 70
     1
102
RTVSPropertyOp0
 70
     1
102
RTVSPropertyOp1
 70
     1
102
RTVSPropertyOp2
 70
     1
102
RTVSPropertyOp3
 70
     1
102
RTVSPropertyOp4
 70
     1
102
RTVSPropertyOp5
 70
     1
102
RTVSPropertyOp6
 70
     1
102
RTVSPropertyOp7
 70
     1
102
RTVSPropertyOp8
 70
     1
102
RTVSPropertyOp9
 70
     1
102
RTVSPropertyOp10
 70
     1
102
RTVSPropertyOp11
 70
     1
102
RTVSPropertyOp12
 70
     1
102
RTVSPropertyOp13
 70
     1
102
RTVSPropertyOp14
 70
     1
102
RTVSPropertyOp15
 70
     1
102
RTVSPropertyOp16
 70
     1
102
RTVSPropertyOp17
 70
     1
102
RTVSPropertyOp18
 70
     1
102
RTVSPropertyOp19
 70
     1
102
RTVSPropertyOp20
 70
     1
102
RTVSPropertyOp21
 70
     1
102
RTVSPropertyOp22
 70
     1
102
RTVSPropertyOp23
 70
     1
102
RTVSPropertyOp24
 70
     1
102
RTVSPropertyOp25
 70
     1
102
RTVSPropertyOp26
 70
     1
102
RTVSPropertyOp27
 70
     1
102
RTVSPropertyOp28
 70
     1
102
RTVSPropertyOp29
 70
     1
102
RTVSPropertyOp30
 70
     1
102
RTVSPropertyOp31
 70
     1
102
RTVSPropertyOp32
 70
     1
102
RTVSPropertyOp33
 70
     1
102
RTVSPropertyOp34
 70
     1
102
RTVSPropertyOp35
 70
     1
102
RTVSPropertyOp36
 70
     1
102
RTVSPropertyOp37
 70
     1
102
RTVSPropertyOp38
 70
     1
102
RTVSPropertyOp39
 70
     1
102
RTVSPropertyOp40
 70
     1
102
RTVSPropertyOp41
 70
     1
102
RTVSPropertyOp42
 70
     1
102
RTVSPropertyOp43
 70
     1
102
RTVSPropertyOp44
 70
     1
102
RTVSPropertyOp45
 70
     1
102
RTVSPropertyOp46
 70
     1
102
RTVSPropertyOp47
 70
     1
102
RTVSPropertyOp48
 70
     1
102
RTVSPropertyOp49
 70
     1
102
RTVSPropertyOp50
 70
     1
102
RTVSPropertyOp51
 70
     0
102
RTVSPropertyOp52
 70
     0
102
RTVSPropertyOp53
 70
     1
102
RTVSPropertyOp54
 70
     1
102
RTVSPropertyOp55
 70
     1
102
RTVSPropertyOp56
 70
     1
102
RTVSPropertyOp57
 70
     1
102
RTVSPropertyOp58
 70
     1
102
RTVSPropertyOp59
 70
     1
102
RTVSPropertyOp60
 70
     1
102
RTVSPropertyOp61
 70
     1
102
RTVSPropertyOp62
 70
     1
  0
XRECORD
  5
4933
102
{ACAD_REACTORS
330
4932
102
}
330
4932
100
AcDbXrecord
280
     1
102
RTVSPost2010Prop28
280
     0
102
RTVSPost2010PropOp28
 70
     0
102
RTVSPost2010Prop29
280
     1
102
RTVSPost2010PropOp29
 70
     0
102
RTVSPost2010Prop30
280
     1
102
RTVSPost2010PropOp30
 70
     0
102
RTVSPost2010Prop31
280
     0
102
RTVSPost2010PropOp31
 70
     0
102
RTVSPost2010Prop32
280
     0
102
RTVSPost2010PropOp32
 70
     0
102
RTVSPost2010Prop33
280
     0
102
RTVSPost2010PropOp33
 70
     0
102
RTVSPost2010Prop34
280
     0
102
RTVSPost2010PropOp34
 70
     0
102
RTVSPost2010Prop35
280
     0
102
RTVSPost2010PropOp35
 70
     0
102
RTVSPost2010Prop36
280
     0
102
RTVSPost2010PropOp36
 70
     0
102
RTVSPost2010Prop37
 90
       50
102
RTVSPost2010PropOp37
 70
     0
102
RTVSPost2010Prop38
140
0.0
102
RTVSPost2010PropOp38
 70
     0
102
RTVSPost2010Prop39
140
1.0
102
RTVSPost2010PropOp39
 70
     0
102
RTVSPost2010Prop40
 90
        0
102
RTVSPost2010PropOp40
 70
     0
102
RTVSPost2010Prop41ColorIndex
 90
       18
102
RTVSPost2010Prop41ColorRGB
 90
        0
102
RTVSPost2010PropOp41
 70
     0
102
RTVSPost2010Prop42
 90
       50
102
RTVSPost2010PropOp42
 70
     0
102
RTVSPost2010Prop43
 90
        3
102
RTVSPost2010PropOp43
 70
     0
102
RTVSPost2010Prop44ColorIndex
 90
        5
102
RTVSPost2010Prop44ColorRGB
 90
      255
102
RTVSPost2010PropOp44
 70
     0
102
RTVSPost2010Prop45
280
     0
102
RTVSPost2010PropOp45
 70
     0
102
RTVSPost2010Prop46
 90
       50
102
RTVSPost2010PropOp46
 70
     0
102
RTVSPost2010Prop47
 90
       50
102
RTVSPost2010PropOp47
 70
     0
102
RTVSPost2010Prop48
 90
       50
102
RTVSPost2010PropOp48
 70
     0
102
RTVSPost2010Prop49
280
     0
102
RTVSPost2010PropOp49
 70
     0
102
RTVSPost2010Prop50
 90
       50
102
RTVSPost2010PropOp50
 70
     0
102
RTVSPost2010Prop51ColorIndex
 90
      256
102
RTVSPost2010Prop51ColorRGB
 90
-16777216
102
RTVSPost2010PropOp51
 70
     0
102
RTVSPost2010Prop52
140
1.0
102
RTVSPost2010PropOp52
 70
     0
102
RTVSPost2010Prop53
 90
        2
102
RTVSPost2010PropOp53
 70
     0
102
RTVSPost2010Prop54
  1
strokes_ogs.tif
102
RTVSPost2010PropOp54
 70
     0
102
RTVSPost2010Prop55
280
     0
102
RTVSPost2010PropOp55
 70
     0
102
RTVSPost2010Prop56
140
1.0
102
RTVSPost2010PropOp56
 70
     0
102
RTVSPost2010Prop57
140
1.0
102
RTVSPost2010PropOp57
 70
     0
102
RTVSPropertyOp0
 70
     0
102
RTVSPropertyOp1
 70
     0
102
RTVSPropertyOp2
 70
     0
102
RTVSPropertyOp3
 70
     0
102
RTVSPropertyOp4
 70
     0
102
RTVSPropertyOp5
 70
     0
102
RTVSPropertyOp6
 70
     0
102
RTVSPropertyOp7
 70
     0
102
RTVSPropertyOp8
 70
     0
102
RTVSPropertyOp9
 70
     0
102
RTVSPropertyOp10
 70
     0
102
RTVSPropertyOp11
 70
     0
102
RTVSPropertyOp12
 70
     0
102
RTVSPropertyOp13
 70
     0
102
RTVSPropertyOp14
 70
     2
102
RTVSPropertyOp15
 70
     0
102
RTVSPropertyOp16
 70
     0
102
RTVSPropertyOp17
 70
     0
102
RTVSPropertyOp18
 70
     0
102
RTVSPropertyOp19
 70
     0
102
RTVSPropertyOp20
 70
     0
102
RTVSPropertyOp21
 70
     0
102
RTVSPropertyOp22
 70
     0
102
RTVSPropertyOp23
 70
     0
102
RTVSPropertyOp24
 70
     0
102
RTVSPropertyOp25
 70
     0
102
RTVSPropertyOp26
 70
     0
102
RTVSPropertyOp27
 70
     0
102
RTVSPropertyOp28
 70
     0
102
RTVSPropertyOp29
 70
     0
102
RTVSPropertyOp30
 70
     0
102
RTVSPropertyOp31
 70
     0
102
RTVSPropertyOp32
 70
     0
102
RTVSPropertyOp33
 70
     0
102
RTVSPropertyOp34
 70
     0
102
RTVSPropertyOp35
 70
     0
102
RTVSPropertyOp36
 70
     0
102
RTVSPropertyOp37
 70
     0
102
RTVSPropertyOp38
 70
     0
102
RTVSPropertyOp39
 70
     0
102
RTVSPropertyOp40
 70
     0
102
RTVSPropertyOp41
 70
     0
102
RTVSPropertyOp42
 70
     0
102
RTVSPropertyOp43
 70
     0
102
RTVSPropertyOp44
 70
     0
102
RTVSPropertyOp45
 70
     0
102
RTVSPropertyOp46
 70
     0
102
RTVSPropertyOp47
 70
     0
102
RTVSPropertyOp48
 70
     0
102
RTVSPropertyOp49
 70
     0
102
RTVSPropertyOp50
 70
     0
102
RTVSPropertyOp51
 70
     0
102
RTVSPropertyOp52
 70
     0
102
RTVSPropertyOp53
 70
     0
102
RTVSPropertyOp54
 70
     0
102
RTVSPropertyOp55
 70
     0
102
RTVSPropertyOp56
 70
     0
102
RTVSPropertyOp57
 70
     0
102
RTVSPropertyOp58
 70
     1
102
RTVSPropertyOp59
 70
     1
102
RTVSPropertyOp60
 70
     1
102
RTVSPropertyOp61
 70
     1
102
RTVSPropertyOp62
 70
     1
  0
XRECORD
  5
4921
102
{ACAD_REACTORS
330
4920
102
}
330
4920
100
AcDbXrecord
280
     1
102
RTVSPost2010Prop28
280
     0
102
RTVSPost2010PropOp28
 70
     1
102
RTVSPost2010Prop29
280
     1
102
RTVSPost2010PropOp29
 70
     1
102
RTVSPost2010Prop30
280
     1
102
RTVSPost2010PropOp30
 70
     1
102
RTVSPost2010Prop31
280
     0
102
RTVSPost2010PropOp31
 70
     1
102
RTVSPost2010Prop32
280
     0
102
RTVSPost2010PropOp32
 70
     1
102
RTVSPost2010Prop33
280
     0
102
RTVSPost2010PropOp33
 70
     1
102
RTVSPost2010Prop34
280
     0
102
RTVSPost2010PropOp34
 70
     1
102
RTVSPost2010Prop35
280
     0
102
RTVSPost2010PropOp35
 70
     1
102
RTVSPost2010Prop36
280
     0
102
RTVSPost2010PropOp36
 70
     1
102
RTVSPost2010Prop37
 90
       50
102
RTVSPost2010PropOp37
 70
     1
102
RTVSPost2010Prop38
140
0.0
102
RTVSPost2010PropOp38
 70
     1
102
RTVSPost2010Prop39
140
1.0
102
RTVSPost2010PropOp39
 70
     1
102
RTVSPost2010Prop40
 90
        0
102
RTVSPost2010PropOp40
 70
     1
102
RTVSPost2010Prop41ColorIndex
 90
       18
102
RTVSPost2010Prop41ColorRGB
 90
        0
102
RTVSPost2010PropOp41
 70
     1
102
RTVSPost2010Prop42
 90
       50
102
RTVSPost2010PropOp42
 70
     1
102
RTVSPost2010Prop43
 90
        3
102
RTVSPost2010PropOp43
 70
     1
102
RTVSPost2010Prop44ColorIndex
 90
        5
102
RTVSPost2010Prop44ColorRGB
 90
      255
102
RTVSPost2010PropOp44
 70
     1
102
RTVSPost2010Prop45
280
     0
102
RTVSPost2010PropOp45
 70
     1
102
RTVSPost2010Prop46
 90
       50
102
RTVSPost2010PropOp46
 70
     1
102
RTVSPost2010Prop47
 90
       50
102
RTVSPost2010PropOp47
 70
     1
102
RTVSPost2010Prop48
 90
       50
102
RTVSPost2010PropOp48
 70
     1
102
RTVSPost2010Prop49
280
     0
102
RTVSPost2010PropOp49
 70
     1
102
RTVSPost2010Prop50
 90
       50
102
RTVSPost2010PropOp50
 70
     1
102
RTVSPost2010Prop51ColorIndex
 90
      256
102
RTVSPost2010Prop51ColorRGB
 90
-16777216
102
RTVSPost2010PropOp51
 70
     0
102
RTVSPost2010Prop52
140
1.0
102
RTVSPost2010PropOp52
 70
     0
102
RTVSPost2010Prop53
 90
        2
102
RTVSPost2010PropOp53
 70
     1
102
RTVSPost2010Prop54
  1
strokes_ogs.tif
102
RTVSPost2010PropOp54
 70
     1
102
RTVSPost2010Prop55
280
     0
102
RTVSPost2010PropOp55
 70
     1
102
RTVSPost2010Prop56
140
1.0
102
RTVSPost2010PropOp56
 70
     1
102
RTVSPost2010Prop57
140
1.0
102
RTVSPost2010PropOp57
 70
     1
102
RTVSPropertyOp0
 70
     1
102
RTVSPropertyOp1
 70
     1
102
RTVSPropertyOp2
 70
     1
102
RTVSPropertyOp3
 70
     1
102
RTVSPropertyOp4
 70
     1
102
RTVSPropertyOp5
 70
     1
102
RTVSPropertyOp6
 70
     1
102
RTVSPropertyOp7
 70
     1
102
RTVSPropertyOp8
 70
     1
102
RTVSPropertyOp9
 70
     1
102
RTVSPropertyOp10
 70
     1
102
RTVSPropertyOp11
 70
     1
102
RTVSPropertyOp12
 70
     1
102
RTVSPropertyOp13
 70
     1
102
RTVSPropertyOp14
 70
     1
102
RTVSPropertyOp15
 70
     1
102
RTVSPropertyOp16
 70
     1
102
RTVSPropertyOp17
 70
     1
102
RTVSPropertyOp18
 70
     1
102
RTVSPropertyOp19
 70
     1
102
RTVSPropertyOp20
 70
     1
102
RTVSPropertyOp21
 70
     1
102
RTVSPropertyOp22
 70
     1
102
RTVSPropertyOp23
 70
     1
102
RTVSPropertyOp24
 70
     1
102
RTVSPropertyOp25
 70
     1
102
RTVSPropertyOp26
 70
     1
102
RTVSPropertyOp27
 70
     1
102
RTVSPropertyOp28
 70
     1
102
RTVSPropertyOp29
 70
     1
102
RTVSPropertyOp30
 70
     1
102
RTVSPropertyOp31
 70
     1
102
RTVSPropertyOp32
 70
     1
102
RTVSPropertyOp33
 70
     1
102
RTVSPropertyOp34
 70
     1
102
RTVSPropertyOp35
 70
     1
102
RTVSPropertyOp36
 70
     1
102
RTVSPropertyOp37
 70
     1
102
RTVSPropertyOp38
 70
     1
102
RTVSPropertyOp39
 70
     1
102
RTVSPropertyOp40
 70
     1
102
RTVSPropertyOp41
 70
     1
102
RTVSPropertyOp42
 70
     1
102
RTVSPropertyOp43
 70
     1
102
RTVSPropertyOp44
 70
     1
102
RTVSPropertyOp45
 70
     1
102
RTVSPropertyOp46
 70
     1
102
RTVSPropertyOp47
 70
     1
102
RTVSPropertyOp48
 70
     1
102
RTVSPropertyOp49
 70
     1
102
RTVSPropertyOp50
 70
     1
102
RTVSPropertyOp51
 70
     0
102
RTVSPropertyOp52
 70
     0
102
RTVSPropertyOp53
 70
     1
102
RTVSPropertyOp54
 70
     1
102
RTVSPropertyOp55
 70
     1
102
RTVSPropertyOp56
 70
     1
102
RTVSPropertyOp57
 70
     1
102
RTVSPropertyOp58
 70
     1
102
RTVSPropertyOp59
 70
     1
102
RTVSPropertyOp60
 70
     1
102
RTVSPropertyOp61
 70
     1
102
RTVSPropertyOp62
 70
     1
  0
XRECORD
  5
4905
102
{ACAD_REACTORS
330
4904
102
}
330
4904
100
AcDbXrecord
280
     1
102
RTVSPost2010Prop28
280
     0
102
RTVSPost2010PropOp28
 70
     1
102
RTVSPost2010Prop29
280
     1
102
RTVSPost2010PropOp29
 70
     1
102
RTVSPost2010Prop30
280
     1
102
RTVSPost2010PropOp30
 70
     1
102
RTVSPost2010Prop31
280
     0
102
RTVSPost2010PropOp31
 70
     1
102
RTVSPost2010Prop32
280
     0
102
RTVSPost2010PropOp32
 70
     1
102
RTVSPost2010Prop33
280
     0
102
RTVSPost2010PropOp33
 70
     1
102
RTVSPost2010Prop34
280
     0
102
RTVSPost2010PropOp34
 70
     1
102
RTVSPost2010Prop35
280
     0
102
RTVSPost2010PropOp35
 70
     1
102
RTVSPost2010Prop36
280
     0
102
RTVSPost2010PropOp36
 70
     1
102
RTVSPost2010Prop37
 90
       50
102
RTVSPost2010PropOp37
 70
     1
102
RTVSPost2010Prop38
140
0.0
102
RTVSPost2010PropOp38
 70
     1
102
RTVSPost2010Prop39
140
1.0
102
RTVSPost2010PropOp39
 70
     1
102
RTVSPost2010Prop40
 90
        0
102
RTVSPost2010PropOp40
 70
     1
102
RTVSPost2010Prop41ColorIndex
 90
       18
102
RTVSPost2010Prop41ColorRGB
 90
        0
102
RTVSPost2010PropOp41
 70
     1
102
RTVSPost2010Prop42
 90
       50
102
RTVSPost2010PropOp42
 70
     1
102
RTVSPost2010Prop43
 90
        3
102
RTVSPost2010PropOp43
 70
     1
102
RTVSPost2010Prop44ColorIndex
 90
        5
102
RTVSPost2010Prop44ColorRGB
 90
      255
102
RTVSPost2010PropOp44
 70
     1
102
RTVSPost2010Prop45
280
     0
102
RTVSPost2010PropOp45
 70
     1
102
RTVSPost2010Prop46
 90
       50
102
RTVSPost2010PropOp46
 70
     1
102
RTVSPost2010Prop47
 90
       50
102
RTVSPost2010PropOp47
 70
     1
102
RTVSPost2010Prop48
 90
       50
102
RTVSPost2010PropOp48
 70
     1
102
RTVSPost2010Prop49
280
     0
102
RTVSPost2010PropOp49
 70
     1
102
RTVSPost2010Prop50
 90
       50
102
RTVSPost2010PropOp50
 70
     1
102
RTVSPost2010Prop51ColorIndex
 90
      256
102
RTVSPost2010Prop51ColorRGB
 90
-16777216
102
RTVSPost2010PropOp51
 70
     0
102
RTVSPost2010Prop52
140
1.0
102
RTVSPost2010PropOp52
 70
     0
102
RTVSPost2010Prop53
 90
        2
102
RTVSPost2010PropOp53
 70
     1
102
RTVSPost2010Prop54
  1
strokes_ogs.tif
102
RTVSPost2010PropOp54
 70
     1
102
RTVSPost2010Prop55
280
     0
102
RTVSPost2010PropOp55
 70
     1
102
RTVSPost2010Prop56
140
1.0
102
RTVSPost2010PropOp56
 70
     1
102
RTVSPost2010Prop57
140
1.0
102
RTVSPost2010PropOp57
 70
     1
102
RTVSPropertyOp0
 70
     1
102
RTVSPropertyOp1
 70
     1
102
RTVSPropertyOp2
 70
     1
102
RTVSPropertyOp3
 70
     1
102
RTVSPropertyOp4
 70
     1
102
RTVSPropertyOp5
 70
     1
102
RTVSPropertyOp6
 70
     1
102
RTVSPropertyOp7
 70
     1
102
RTVSPropertyOp8
 70
     1
102
RTVSPropertyOp9
 70
     1
102
RTVSPropertyOp10
 70
     1
102
RTVSPropertyOp11
 70
     1
102
RTVSPropertyOp12
 70
     1
102
RTVSPropertyOp13
 70
     1
102
RTVSPropertyOp14
 70
     1
102
RTVSPropertyOp15
 70
     1
102
RTVSPropertyOp16
 70
     1
102
RTVSPropertyOp17
 70
     1
102
RTVSPropertyOp18
 70
     1
102
RTVSPropertyOp19
 70
     1
102
RTVSPropertyOp20
 70
     1
102
RTVSPropertyOp21
 70
     1
102
RTVSPropertyOp22
 70
     1
102
RTVSPropertyOp23
 70
     1
102
RTVSPropertyOp24
 70
     1
102
RTVSPropertyOp25
 70
     1
102
RTVSPropertyOp26
 70
     1
102
RTVSPropertyOp27
 70
     1
102
RTVSPropertyOp28
 70
     1
102
RTVSPropertyOp29
 70
     1
102
RTVSPropertyOp30
 70
     1
102
RTVSPropertyOp31
 70
     1
102
RTVSPropertyOp32
 70
     1
102
RTVSPropertyOp33
 70
     1
102
RTVSPropertyOp34
 70
     1
102
RTVSPropertyOp35
 70
     1
102
RTVSPropertyOp36
 70
     1
102
RTVSPropertyOp37
 70
     1
102
RTVSPropertyOp38
 70
     1
102
RTVSPropertyOp39
 70
     1
102
RTVSPropertyOp40
 70
     1
102
RTVSPropertyOp41
 70
     1
102
RTVSPropertyOp42
 70
     1
102
RTVSPropertyOp43
 70
     1
102
RTVSPropertyOp44
 70
     1
102
RTVSPropertyOp45
 70
     1
102
RTVSPropertyOp46
 70
     1
102
RTVSPropertyOp47
 70
     1
102
RTVSPropertyOp48
 70
     1
102
RTVSPropertyOp49
 70
     1
102
RTVSPropertyOp50
 70
     1
102
RTVSPropertyOp51
 70
     0
102
RTVSPropertyOp52
 70
     0
102
RTVSPropertyOp53
 70
     1
102
RTVSPropertyOp54
 70
     1
102
RTVSPropertyOp55
 70
     1
102
RTVSPropertyOp56
 70
     1
102
RTVSPropertyOp57
 70
     1
102
RTVSPropertyOp58
 70
     1
102
RTVSPropertyOp59
 70
     1
102
RTVSPropertyOp60
 70
     1
102
RTVSPropertyOp61
 70
     1
102
RTVSPropertyOp62
 70
     1
  0
XRECORD
  5
4907
102
{ACAD_REACTORS
330
4906
102
}
330
4906
100
AcDbXrecord
280
     1
102
RTVSPost2010Prop28
280
     0
102
RTVSPost2010PropOp28
 70
     1
102
RTVSPost2010Prop29
280
     1
102
RTVSPost2010PropOp29
 70
     1
102
RTVSPost2010Prop30
280
     1
102
RTVSPost2010PropOp30
 70
     1
102
RTVSPost2010Prop31
280
     0
102
RTVSPost2010PropOp31
 70
     1
102
RTVSPost2010Prop32
280
     0
102
RTVSPost2010PropOp32
 70
     1
102
RTVSPost2010Prop33
280
     0
102
RTVSPost2010PropOp33
 70
     1
102
RTVSPost2010Prop34
280
     0
102
RTVSPost2010PropOp34
 70
     1
102
RTVSPost2010Prop35
280
     0
102
RTVSPost2010PropOp35
 70
     1
102
RTVSPost2010Prop36
280
     0
102
RTVSPost2010PropOp36
 70
     1
102
RTVSPost2010Prop37
 90
       50
102
RTVSPost2010PropOp37
 70
     1
102
RTVSPost2010Prop38
140
0.0
102
RTVSPost2010PropOp38
 70
     1
102
RTVSPost2010Prop39
140
1.0
102
RTVSPost2010PropOp39
 70
     1
102
RTVSPost2010Prop40
 90
        0
102
RTVSPost2010PropOp40
 70
     1
102
RTVSPost2010Prop41ColorIndex
 90
       18
102
RTVSPost2010Prop41ColorRGB
 90
        0
102
RTVSPost2010PropOp41
 70
     1
102
RTVSPost2010Prop42
 90
       50
102
RTVSPost2010PropOp42
 70
     1
102
RTVSPost2010Prop43
 90
        3
102
RTVSPost2010PropOp43
 70
     1
102
RTVSPost2010Prop44ColorIndex
 90
        5
102
RTVSPost2010Prop44ColorRGB
 90
      255
102
RTVSPost2010PropOp44
 70
     1
102
RTVSPost2010Prop45
280
     0
102
RTVSPost2010PropOp45
 70
     1
102
RTVSPost2010Prop46
 90
       50
102
RTVSPost2010PropOp46
 70
     1
102
RTVSPost2010Prop47
 90
       50
102
RTVSPost2010PropOp47
 70
     1
102
RTVSPost2010Prop48
 90
       50
102
RTVSPost2010PropOp48
 70
     1
102
RTVSPost2010Prop49
280
     0
102
RTVSPost2010PropOp49
 70
     1
102
RTVSPost2010Prop50
 90
       50
102
RTVSPost2010PropOp50
 70
     1
102
RTVSPost2010Prop51ColorIndex
 90
      256
102
RTVSPost2010Prop51ColorRGB
 90
-16777216
102
RTVSPost2010PropOp51
 70
     0
102
RTVSPost2010Prop52
140
1.0
102
RTVSPost2010PropOp52
 70
     0
102
RTVSPost2010Prop53
 90
        2
102
RTVSPost2010PropOp53
 70
     1
102
RTVSPost2010Prop54
  1
strokes_ogs.tif
102
RTVSPost2010PropOp54
 70
     1
102
RTVSPost2010Prop55
280
     0
102
RTVSPost2010PropOp55
 70
     1
102
RTVSPost2010Prop56
140
1.0
102
RTVSPost2010PropOp56
 70
     1
102
RTVSPost2010Prop57
140
1.0
102
RTVSPost2010PropOp57
 70
     1
102
RTVSPropertyOp0
 70
     1
102
RTVSPropertyOp1
 70
     1
102
RTVSPropertyOp2
 70
     1
102
RTVSPropertyOp3
 70
     1
102
RTVSPropertyOp4
 70
     1
102
RTVSPropertyOp5
 70
     1
102
RTVSPropertyOp6
 70
     1
102
RTVSPropertyOp7
 70
     1
102
RTVSPropertyOp8
 70
     1
102
RTVSPropertyOp9
 70
     1
102
RTVSPropertyOp10
 70
     1
102
RTVSPropertyOp11
 70
     1
102
RTVSPropertyOp12
 70
     1
102
RTVSPropertyOp13
 70
     1
102
RTVSPropertyOp14
 70
     1
102
RTVSPropertyOp15
 70
     1
102
RTVSPropertyOp16
 70
     1
102
RTVSPropertyOp17
 70
     1
102
RTVSPropertyOp18
 70
     1
102
RTVSPropertyOp19
 70
     1
102
RTVSPropertyOp20
 70
     1
102
RTVSPropertyOp21
 70
     1
102
RTVSPropertyOp22
 70
     1
102
RTVSPropertyOp23
 70
     1
102
RTVSPropertyOp24
 70
     1
102
RTVSPropertyOp25
 70
     1
102
RTVSPropertyOp26
 70
     1
102
RTVSPropertyOp27
 70
     1
102
RTVSPropertyOp28
 70
     1
102
RTVSPropertyOp29
 70
     1
102
RTVSPropertyOp30
 70
     1
102
RTVSPropertyOp31
 70
     1
102
RTVSPropertyOp32
 70
     1
102
RTVSPropertyOp33
 70
     1
102
RTVSPropertyOp34
 70
     1
102
RTVSPropertyOp35
 70
     1
102
RTVSPropertyOp36
 70
     1
102
RTVSPropertyOp37
 70
     1
102
RTVSPropertyOp38
 70
     1
102
RTVSPropertyOp39
 70
     1
102
RTVSPropertyOp40
 70
     1
102
RTVSPropertyOp41
 70
     1
102
RTVSPropertyOp42
 70
     1
102
RTVSPropertyOp43
 70
     1
102
RTVSPropertyOp44
 70
     1
102
RTVSPropertyOp45
 70
     1
102
RTVSPropertyOp46
 70
     1
102
RTVSPropertyOp47
 70
     1
102
RTVSPropertyOp48
 70
     1
102
RTVSPropertyOp49
 70
     1
102
RTVSPropertyOp50
 70
     1
102
RTVSPropertyOp51
 70
     0
102
RTVSPropertyOp52
 70
     0
102
RTVSPropertyOp53
 70
     1
102
RTVSPropertyOp54
 70
     1
102
RTVSPropertyOp55
 70
     1
102
RTVSPropertyOp56
 70
     1
102
RTVSPropertyOp57
 70
     1
102
RTVSPropertyOp58
 70
     1
102
RTVSPropertyOp59
 70
     1
102
RTVSPropertyOp60
 70
     1
102
RTVSPropertyOp61
 70
     1
102
RTVSPropertyOp62
 70
     1
  0
XRECORD
  5
4909
102
{ACAD_REACTORS
330
4908
102
}
330
4908
100
AcDbXrecord
280
     1
102
RTVSPost2010Prop28
280
     0
102
RTVSPost2010PropOp28
 70
     1
102
RTVSPost2010Prop29
280
     1
102
RTVSPost2010PropOp29
 70
     1
102
RTVSPost2010Prop30
280
     1
102
RTVSPost2010PropOp30
 70
     1
102
RTVSPost2010Prop31
280
     0
102
RTVSPost2010PropOp31
 70
     1
102
RTVSPost2010Prop32
280
     0
102
RTVSPost2010PropOp32
 70
     1
102
RTVSPost2010Prop33
280
     0
102
RTVSPost2010PropOp33
 70
     1
102
RTVSPost2010Prop34
280
     0
102
RTVSPost2010PropOp34
 70
     1
102
RTVSPost2010Prop35
280
     0
102
RTVSPost2010PropOp35
 70
     1
102
RTVSPost2010Prop36
280
     0
102
RTVSPost2010PropOp36
 70
     1
102
RTVSPost2010Prop37
 90
       50
102
RTVSPost2010PropOp37
 70
     1
102
RTVSPost2010Prop38
140
0.0
102
RTVSPost2010PropOp38
 70
     1
102
RTVSPost2010Prop39
140
1.0
102
RTVSPost2010PropOp39
 70
     1
102
RTVSPost2010Prop40
 90
        0
102
RTVSPost2010PropOp40
 70
     1
102
RTVSPost2010Prop41ColorIndex
 90
       18
102
RTVSPost2010Prop41ColorRGB
 90
        0
102
RTVSPost2010PropOp41
 70
     1
102
RTVSPost2010Prop42
 90
       50
102
RTVSPost2010PropOp42
 70
     1
102
RTVSPost2010Prop43
 90
        3
102
RTVSPost2010PropOp43
 70
     1
102
RTVSPost2010Prop44ColorIndex
 90
        5
102
RTVSPost2010Prop44ColorRGB
 90
      255
102
RTVSPost2010PropOp44
 70
     1
102
RTVSPost2010Prop45
280
     0
102
RTVSPost2010PropOp45
 70
     1
102
RTVSPost2010Prop46
 90
       50
102
RTVSPost2010PropOp46
 70
     1
102
RTVSPost2010Prop47
 90
       50
102
RTVSPost2010PropOp47
 70
     1
102
RTVSPost2010Prop48
 90
       50
102
RTVSPost2010PropOp48
 70
     1
102
RTVSPost2010Prop49
280
     0
102
RTVSPost2010PropOp49
 70
     1
102
RTVSPost2010Prop50
 90
       50
102
RTVSPost2010PropOp50
 70
     1
102
RTVSPost2010Prop51ColorIndex
 90
      256
102
RTVSPost2010Prop51ColorRGB
 90
-16777216
102
RTVSPost2010PropOp51
 70
     0
102
RTVSPost2010Prop52
140
1.0
102
RTVSPost2010PropOp52
 70
     0
102
RTVSPost2010Prop53
 90
        2
102
RTVSPost2010PropOp53
 70
     1
102
RTVSPost2010Prop54
  1
strokes_ogs.tif
102
RTVSPost2010PropOp54
 70
     1
102
RTVSPost2010Prop55
280
     0
102
RTVSPost2010PropOp55
 70
     1
102
RTVSPost2010Prop56
140
1.0
102
RTVSPost2010PropOp56
 70
     1
102
RTVSPost2010Prop57
140
1.0
102
RTVSPost2010PropOp57
 70
     1
102
RTVSPropertyOp0
 70
     1
102
RTVSPropertyOp1
 70
     1
102
RTVSPropertyOp2
 70
     1
102
RTVSPropertyOp3
 70
     1
102
RTVSPropertyOp4
 70
     1
102
RTVSPropertyOp5
 70
     1
102
RTVSPropertyOp6
 70
     1
102
RTVSPropertyOp7
 70
     1
102
RTVSPropertyOp8
 70
     1
102
RTVSPropertyOp9
 70
     1
102
RTVSPropertyOp10
 70
     1
102
RTVSPropertyOp11
 70
     1
102
RTVSPropertyOp12
 70
     1
102
RTVSPropertyOp13
 70
     1
102
RTVSPropertyOp14
 70
     1
102
RTVSPropertyOp15
 70
     1
102
RTVSPropertyOp16
 70
     1
102
RTVSPropertyOp17
 70
     1
102
RTVSPropertyOp18
 70
     1
102
RTVSPropertyOp19
 70
     1
102
RTVSPropertyOp20
 70
     1
102
RTVSPropertyOp21
 70
     1
102
RTVSPropertyOp22
 70
     1
102
RTVSPropertyOp23
 70
     1
102
RTVSPropertyOp24
 70
     1
102
RTVSPropertyOp25
 70
     1
102
RTVSPropertyOp26
 70
     1
102
RTVSPropertyOp27
 70
     1
102
RTVSPropertyOp28
 70
     1
102
RTVSPropertyOp29
 70
     1
102
RTVSPropertyOp30
 70
     1
102
RTVSPropertyOp31
 70
     1
102
RTVSPropertyOp32
 70
     1
102
RTVSPropertyOp33
 70
     1
102
RTVSPropertyOp34
 70
     1
102
RTVSPropertyOp35
 70
     1
102
RTVSPropertyOp36
 70
     1
102
RTVSPropertyOp37
 70
     1
102
RTVSPropertyOp38
 70
     1
102
RTVSPropertyOp39
 70
     1
102
RTVSPropertyOp40
 70
     1
102
RTVSPropertyOp41
 70
     1
102
RTVSPropertyOp42
 70
     1
102
RTVSPropertyOp43
 70
     1
102
RTVSPropertyOp44
 70
     1
102
RTVSPropertyOp45
 70
     1
102
RTVSPropertyOp46
 70
     1
102
RTVSPropertyOp47
 70
     1
102
RTVSPropertyOp48
 70
     1
102
RTVSPropertyOp49
 70
     1
102
RTVSPropertyOp50
 70
     1
102
RTVSPropertyOp51
 70
     0
102
RTVSPropertyOp52
 70
     0
102
RTVSPropertyOp53
 70
     1
102
RTVSPropertyOp54
 70
     1
102
RTVSPropertyOp55
 70
     1
102
RTVSPropertyOp56
 70
     1
102
RTVSPropertyOp57
 70
     1
102
RTVSPropertyOp58
 70
     1
102
RTVSPropertyOp59
 70
     1
102
RTVSPropertyOp60
 70
     1
102
RTVSPropertyOp61
 70
     1
102
RTVSPropertyOp62
 70
     1
  0
XRECORD
  5
490B
102
{ACAD_REACTORS
330
490A
102
}
330
490A
100
AcDbXrecord
280
     1
102
RTVSPost2010Prop28
280
     0
102
RTVSPost2010PropOp28
 70
     1
102
RTVSPost2010Prop29
280
     1
102
RTVSPost2010PropOp29
 70
     1
102
RTVSPost2010Prop30
280
     1
102
RTVSPost2010PropOp30
 70
     1
102
RTVSPost2010Prop31
280
     0
102
RTVSPost2010PropOp31
 70
     1
102
RTVSPost2010Prop32
280
     0
102
RTVSPost2010PropOp32
 70
     1
102
RTVSPost2010Prop33
280
     0
102
RTVSPost2010PropOp33
 70
     1
102
RTVSPost2010Prop34
280
     0
102
RTVSPost2010PropOp34
 70
     1
102
RTVSPost2010Prop35
280
     0
102
RTVSPost2010PropOp35
 70
     1
102
RTVSPost2010Prop36
280
     0
102
RTVSPost2010PropOp36
 70
     1
102
RTVSPost2010Prop37
 90
       50
102
RTVSPost2010PropOp37
 70
     1
102
RTVSPost2010Prop38
140
0.0
102
RTVSPost2010PropOp38
 70
     1
102
RTVSPost2010Prop39
140
1.0
102
RTVSPost2010PropOp39
 70
     1
102
RTVSPost2010Prop40
 90
        0
102
RTVSPost2010PropOp40
 70
     1
102
RTVSPost2010Prop41ColorIndex
 90
       18
102
RTVSPost2010Prop41ColorRGB
 90
        0
102
RTVSPost2010PropOp41
 70
     1
102
RTVSPost2010Prop42
 90
       50
102
RTVSPost2010PropOp42
 70
     1
102
RTVSPost2010Prop43
 90
        3
102
RTVSPost2010PropOp43
 70
     1
102
RTVSPost2010Prop44ColorIndex
 90
        5
102
RTVSPost2010Prop44ColorRGB
 90
      255
102
RTVSPost2010PropOp44
 70
     1
102
RTVSPost2010Prop45
280
     0
102
RTVSPost2010PropOp45
 70
     1
102
RTVSPost2010Prop46
 90
       50
102
RTVSPost2010PropOp46
 70
     1
102
RTVSPost2010Prop47
 90
       50
102
RTVSPost2010PropOp47
 70
     1
102
RTVSPost2010Prop48
 90
       50
102
RTVSPost2010PropOp48
 70
     1
102
RTVSPost2010Prop49
280
     0
102
RTVSPost2010PropOp49
 70
     1
102
RTVSPost2010Prop50
 90
       50
102
RTVSPost2010PropOp50
 70
     1
102
RTVSPost2010Prop51ColorIndex
 90
      256
102
RTVSPost2010Prop51ColorRGB
 90
-16777216
102
RTVSPost2010PropOp51
 70
     0
102
RTVSPost2010Prop52
140
1.0
102
RTVSPost2010PropOp52
 70
     0
102
RTVSPost2010Prop53
 90
        2
102
RTVSPost2010PropOp53
 70
     1
102
RTVSPost2010Prop54
  1
strokes_ogs.tif
102
RTVSPost2010PropOp54
 70
     1
102
RTVSPost2010Prop55
280
     0
102
RTVSPost2010PropOp55
 70
     1
102
RTVSPost2010Prop56
140
1.0
102
RTVSPost2010PropOp56
 70
     1
102
RTVSPost2010Prop57
140
1.0
102
RTVSPost2010PropOp57
 70
     1
102
RTVSPropertyOp0
 70
     1
102
RTVSPropertyOp1
 70
     1
102
RTVSPropertyOp2
 70
     1
102
RTVSPropertyOp3
 70
     1
102
RTVSPropertyOp4
 70
     1
102
RTVSPropertyOp5
 70
     1
102
RTVSPropertyOp6
 70
     1
102
RTVSPropertyOp7
 70
     1
102
RTVSPropertyOp8
 70
     1
102
RTVSPropertyOp9
 70
     1
102
RTVSPropertyOp10
 70
     1
102
RTVSPropertyOp11
 70
     1
102
RTVSPropertyOp12
 70
     1
102
RTVSPropertyOp13
 70
     1
102
RTVSPropertyOp14
 70
     1
102
RTVSPropertyOp15
 70
     1
102
RTVSPropertyOp16
 70
     1
102
RTVSPropertyOp17
 70
     1
102
RTVSPropertyOp18
 70
     1
102
RTVSPropertyOp19
 70
     1
102
RTVSPropertyOp20
 70
     1
102
RTVSPropertyOp21
 70
     1
102
RTVSPropertyOp22
 70
     1
102
RTVSPropertyOp23
 70
     1
102
RTVSPropertyOp24
 70
     1
102
RTVSPropertyOp25
 70
     1
102
RTVSPropertyOp26
 70
     1
102
RTVSPropertyOp27
 70
     1
102
RTVSPropertyOp28
 70
     1
102
RTVSPropertyOp29
 70
     1
102
RTVSPropertyOp30
 70
     1
102
RTVSPropertyOp31
 70
     1
102
RTVSPropertyOp32
 70
     1
102
RTVSPropertyOp33
 70
     1
102
RTVSPropertyOp34
 70
     1
102
RTVSPropertyOp35
 70
     1
102
RTVSPropertyOp36
 70
     1
102
RTVSPropertyOp37
 70
     1
102
RTVSPropertyOp38
 70
     1
102
RTVSPropertyOp39
 70
     1
102
RTVSPropertyOp40
 70
     1
102
RTVSPropertyOp41
 70
     1
102
RTVSPropertyOp42
 70
     1
102
RTVSPropertyOp43
 70
     1
102
RTVSPropertyOp44
 70
     1
102
RTVSPropertyOp45
 70
     1
102
RTVSPropertyOp46
 70
     1
102
RTVSPropertyOp47
 70
     1
102
RTVSPropertyOp48
 70
     1
102
RTVSPropertyOp49
 70
     1
102
RTVSPropertyOp50
 70
     1
102
RTVSPropertyOp51
 70
     0
102
RTVSPropertyOp52
 70
     0
102
RTVSPropertyOp53
 70
     1
102
RTVSPropertyOp54
 70
     1
102
RTVSPropertyOp55
 70
     1
102
RTVSPropertyOp56
 70
     1
102
RTVSPropertyOp57
 70
     1
102
RTVSPropertyOp58
 70
     1
102
RTVSPropertyOp59
 70
     1
102
RTVSPropertyOp60
 70
     1
102
RTVSPropertyOp61
 70
     1
102
RTVSPropertyOp62
 70
     1
  0
XRECORD
  5
4913
102
{ACAD_REACTORS
330
4912
102
}
330
4912
100
AcDbXrecord
280
     1
102
RTVSPost2010Prop28
280
     0
102
RTVSPost2010PropOp28
 70
     1
102
RTVSPost2010Prop29
280
     1
102
RTVSPost2010PropOp29
 70
     1
102
RTVSPost2010Prop30
280
     1
102
RTVSPost2010PropOp30
 70
     1
102
RTVSPost2010Prop31
280
     0
102
RTVSPost2010PropOp31
 70
     1
102
RTVSPost2010Prop32
280
     0
102
RTVSPost2010PropOp32
 70
     1
102
RTVSPost2010Prop33
280
     0
102
RTVSPost2010PropOp33
 70
     1
102
RTVSPost2010Prop34
280
     0
102
RTVSPost2010PropOp34
 70
     1
102
RTVSPost2010Prop35
280
     0
102
RTVSPost2010PropOp35
 70
     1
102
RTVSPost2010Prop36
280
     0
102
RTVSPost2010PropOp36
 70
     1
102
RTVSPost2010Prop37
 90
       50
102
RTVSPost2010PropOp37
 70
     1
102
RTVSPost2010Prop38
140
0.0
102
RTVSPost2010PropOp38
 70
     1
102
RTVSPost2010Prop39
140
1.0
102
RTVSPost2010PropOp39
 70
     1
102
RTVSPost2010Prop40
 90
        0
102
RTVSPost2010PropOp40
 70
     1
102
RTVSPost2010Prop41ColorIndex
 90
       18
102
RTVSPost2010Prop41ColorRGB
 90
        0
102
RTVSPost2010PropOp41
 70
     1
102
RTVSPost2010Prop42
 90
       50
102
RTVSPost2010PropOp42
 70
     1
102
RTVSPost2010Prop43
 90
        3
102
RTVSPost2010PropOp43
 70
     1
102
RTVSPost2010Prop44ColorIndex
 90
        5
102
RTVSPost2010Prop44ColorRGB
 90
      255
102
RTVSPost2010PropOp44
 70
     1
102
RTVSPost2010Prop45
280
     0
102
RTVSPost2010PropOp45
 70
     1
102
RTVSPost2010Prop46
 90
       50
102
RTVSPost2010PropOp46
 70
     1
102
RTVSPost2010Prop47
 90
       50
102
RTVSPost2010PropOp47
 70
     1
102
RTVSPost2010Prop48
 90
       50
102
RTVSPost2010PropOp48
 70
     1
102
RTVSPost2010Prop49
280
     0
102
RTVSPost2010PropOp49
 70
     1
102
RTVSPost2010Prop50
 90
       50
102
RTVSPost2010PropOp50
 70
     1
102
RTVSPost2010Prop51ColorIndex
 90
      256
102
RTVSPost2010Prop51ColorRGB
 90
-16777216
102
RTVSPost2010PropOp51
 70
     0
102
RTVSPost2010Prop52
140
1.0
102
RTVSPost2010PropOp52
 70
     0
102
RTVSPost2010Prop53
 90
        2
102
RTVSPost2010PropOp53
 70
     1
102
RTVSPost2010Prop54
  1
strokes_ogs.tif
102
RTVSPost2010PropOp54
 70
     1
102
RTVSPost2010Prop55
280
     0
102
RTVSPost2010PropOp55
 70
     1
102
RTVSPost2010Prop56
140
1.0
102
RTVSPost2010PropOp56
 70
     1
102
RTVSPost2010Prop57
140
1.0
102
RTVSPost2010PropOp57
 70
     1
102
RTVSPropertyOp0
 70
     1
102
RTVSPropertyOp1
 70
     1
102
RTVSPropertyOp2
 70
     1
102
RTVSPropertyOp3
 70
     1
102
RTVSPropertyOp4
 70
     1
102
RTVSPropertyOp5
 70
     1
102
RTVSPropertyOp6
 70
     1
102
RTVSPropertyOp7
 70
     1
102
RTVSPropertyOp8
 70
     1
102
RTVSPropertyOp9
 70
     1
102
RTVSPropertyOp10
 70
     1
102
RTVSPropertyOp11
 70
     1
102
RTVSPropertyOp12
 70
     1
102
RTVSPropertyOp13
 70
     1
102
RTVSPropertyOp14
 70
     1
102
RTVSPropertyOp15
 70
     1
102
RTVSPropertyOp16
 70
     1
102
RTVSPropertyOp17
 70
     1
102
RTVSPropertyOp18
 70
     1
102
RTVSPropertyOp19
 70
     1
102
RTVSPropertyOp20
 70
     1
102
RTVSPropertyOp21
 70
     1
102
RTVSPropertyOp22
 70
     1
102
RTVSPropertyOp23
 70
     1
102
RTVSPropertyOp24
 70
     1
102
RTVSPropertyOp25
 70
     1
102
RTVSPropertyOp26
 70
     1
102
RTVSPropertyOp27
 70
     1
102
RTVSPropertyOp28
 70
     1
102
RTVSPropertyOp29
 70
     1
102
RTVSPropertyOp30
 70
     1
102
RTVSPropertyOp31
 70
     1
102
RTVSPropertyOp32
 70
     1
102
RTVSPropertyOp33
 70
     1
102
RTVSPropertyOp34
 70
     1
102
RTVSPropertyOp35
 70
     1
102
RTVSPropertyOp36
 70
     1
102
RTVSPropertyOp37
 70
     1
102
RTVSPropertyOp38
 70
     1
102
RTVSPropertyOp39
 70
     1
102
RTVSPropertyOp40
 70
     1
102
RTVSPropertyOp41
 70
     1
102
RTVSPropertyOp42
 70
     1
102
RTVSPropertyOp43
 70
     1
102
RTVSPropertyOp44
 70
     1
102
RTVSPropertyOp45
 70
     1
102
RTVSPropertyOp46
 70
     1
102
RTVSPropertyOp47
 70
     1
102
RTVSPropertyOp48
 70
     1
102
RTVSPropertyOp49
 70
     1
102
RTVSPropertyOp50
 70
     1
102
RTVSPropertyOp51
 70
     0
102
RTVSPropertyOp52
 70
     0
102
RTVSPropertyOp53
 70
     1
102
RTVSPropertyOp54
 70
     1
102
RTVSPropertyOp55
 70
     1
102
RTVSPropertyOp56
 70
     1
102
RTVSPropertyOp57
 70
     1
102
RTVSPropertyOp58
 70
     1
102
RTVSPropertyOp59
 70
     1
102
RTVSPropertyOp60
 70
     1
102
RTVSPropertyOp61
 70
     1
102
RTVSPropertyOp62
 70
     1
  0
XRECORD
  5
492F
102
{ACAD_REACTORS
330
492E
102
}
330
492E
100
AcDbXrecord
280
     1
102
RTVSPost2010Prop28
280
     0
102
RTVSPost2010PropOp28
 70
     0
102
RTVSPost2010Prop29
280
     1
102
RTVSPost2010PropOp29
 70
     0
102
RTVSPost2010Prop30
280
     1
102
RTVSPost2010PropOp30
 70
     0
102
RTVSPost2010Prop31
280
     0
102
RTVSPost2010PropOp31
 70
     0
102
RTVSPost2010Prop32
280
     0
102
RTVSPost2010PropOp32
 70
     0
102
RTVSPost2010Prop33
280
     0
102
RTVSPost2010PropOp33
 70
     0
102
RTVSPost2010Prop34
280
     0
102
RTVSPost2010PropOp34
 70
     0
102
RTVSPost2010Prop35
280
     0
102
RTVSPost2010PropOp35
 70
     0
102
RTVSPost2010Prop36
280
     0
102
RTVSPost2010PropOp36
 70
     0
102
RTVSPost2010Prop37
 90
       50
102
RTVSPost2010PropOp37
 70
     0
102
RTVSPost2010Prop38
140
0.0
102
RTVSPost2010PropOp38
 70
     0
102
RTVSPost2010Prop39
140
1.0
102
RTVSPost2010PropOp39
 70
     0
102
RTVSPost2010Prop40
 90
        0
102
RTVSPost2010PropOp40
 70
     0
102
RTVSPost2010Prop41ColorIndex
 90
       18
102
RTVSPost2010Prop41ColorRGB
 90
        0
102
RTVSPost2010PropOp41
 70
     0
102
RTVSPost2010Prop42
 90
       50
102
RTVSPost2010PropOp42
 70
     0
102
RTVSPost2010Prop43
 90
        3
102
RTVSPost2010PropOp43
 70
     0
102
RTVSPost2010Prop44ColorIndex
 90
        5
102
RTVSPost2010Prop44ColorRGB
 90
      255
102
RTVSPost2010PropOp44
 70
     0
102
RTVSPost2010Prop45
280
     0
102
RTVSPost2010PropOp45
 70
     0
102
RTVSPost2010Prop46
 90
       50
102
RTVSPost2010PropOp46
 70
     0
102
RTVSPost2010Prop47
 90
       50
102
RTVSPost2010PropOp47
 70
     0
102
RTVSPost2010Prop48
 90
       50
102
RTVSPost2010PropOp48
 70
     0
102
RTVSPost2010Prop49
280
     0
102
RTVSPost2010PropOp49
 70
     0
102
RTVSPost2010Prop50
 90
       50
102
RTVSPost2010PropOp50
 70
     0
102
RTVSPost2010Prop51ColorIndex
 90
      256
102
RTVSPost2010Prop51ColorRGB
 90
-16777216
102
RTVSPost2010PropOp51
 70
     0
102
RTVSPost2010Prop52
140
1.0
102
RTVSPost2010PropOp52
 70
     0
102
RTVSPost2010Prop53
 90
        2
102
RTVSPost2010PropOp53
 70
     0
102
RTVSPost2010Prop54
  1
strokes_ogs.tif
102
RTVSPost2010PropOp54
 70
     0
102
RTVSPost2010Prop55
280
     0
102
RTVSPost2010PropOp55
 70
     0
102
RTVSPost2010Prop56
140
1.0
102
RTVSPost2010PropOp56
 70
     0
102
RTVSPost2010Prop57
140
1.0
102
RTVSPost2010PropOp57
 70
     0
102
RTVSPropertyOp0
 70
     0
102
RTVSPropertyOp1
 70
     0
102
RTVSPropertyOp2
 70
     0
102
RTVSPropertyOp3
 70
     0
102
RTVSPropertyOp4
 70
     0
102
RTVSPropertyOp5
 70
     0
102
RTVSPropertyOp6
 70
     0
102
RTVSPropertyOp7
 70
     0
102
RTVSPropertyOp8
 70
     0
102
RTVSPropertyOp9
 70
     0
102
RTVSPropertyOp10
 70
     0
102
RTVSPropertyOp11
 70
     0
102
RTVSPropertyOp12
 70
     0
102
RTVSPropertyOp13
 70
     0
102
RTVSPropertyOp14
 70
     2
102
RTVSPropertyOp15
 70
     0
102
RTVSPropertyOp16
 70
     0
102
RTVSPropertyOp17
 70
     0
102
RTVSPropertyOp18
 70
     0
102
RTVSPropertyOp19
 70
     0
102
RTVSPropertyOp20
 70
     0
102
RTVSPropertyOp21
 70
     0
102
RTVSPropertyOp22
 70
     0
102
RTVSPropertyOp23
 70
     0
102
RTVSPropertyOp24
 70
     0
102
RTVSPropertyOp25
 70
     0
102
RTVSPropertyOp26
 70
     0
102
RTVSPropertyOp27
 70
     0
102
RTVSPropertyOp28
 70
     0
102
RTVSPropertyOp29
 70
     0
102
RTVSPropertyOp30
 70
     0
102
RTVSPropertyOp31
 70
     0
102
RTVSPropertyOp32
 70
     0
102
RTVSPropertyOp33
 70
     0
102
RTVSPropertyOp34
 70
     0
102
RTVSPropertyOp35
 70
     0
102
RTVSPropertyOp36
 70
     0
102
RTVSPropertyOp37
 70
     0
102
RTVSPropertyOp38
 70
     0
102
RTVSPropertyOp39
 70
     0
102
RTVSPropertyOp40
 70
     0
102
RTVSPropertyOp41
 70
     0
102
RTVSPropertyOp42
 70
     0
102
RTVSPropertyOp43
 70
     0
102
RTVSPropertyOp44
 70
     0
102
RTVSPropertyOp45
 70
     0
102
RTVSPropertyOp46
 70
     0
102
RTVSPropertyOp47
 70
     0
102
RTVSPropertyOp48
 70
     0
102
RTVSPropertyOp49
 70
     0
102
RTVSPropertyOp50
 70
     0
102
RTVSPropertyOp51
 70
     0
102
RTVSPropertyOp52
 70
     0
102
RTVSPropertyOp53
 70
     0
102
RTVSPropertyOp54
 70
     0
102
RTVSPropertyOp55
 70
     0
102
RTVSPropertyOp56
 70
     0
102
RTVSPropertyOp57
 70
     0
102
RTVSPropertyOp58
 70
     1
102
RTVSPropertyOp59
 70
     1
102
RTVSPropertyOp60
 70
     1
102
RTVSPropertyOp61
 70
     1
102
RTVSPropertyOp62
 70
     1
  0
XRECORD
  5
491F
102
{ACAD_REACTORS
330
491E
102
}
330
491E
100
AcDbXrecord
280
     1
102
RTVSPost2010Prop28
280
     0
102
RTVSPost2010PropOp28
 70
     1
102
RTVSPost2010Prop29
280
     1
102
RTVSPost2010PropOp29
 70
     1
102
RTVSPost2010Prop30
280
     1
102
RTVSPost2010PropOp30
 70
     1
102
RTVSPost2010Prop31
280
     0
102
RTVSPost2010PropOp31
 70
     1
102
RTVSPost2010Prop32
280
     0
102
RTVSPost2010PropOp32
 70
     1
102
RTVSPost2010Prop33
280
     0
102
RTVSPost2010PropOp33
 70
     1
102
RTVSPost2010Prop34
280
     0
102
RTVSPost2010PropOp34
 70
     1
102
RTVSPost2010Prop35
280
     0
102
RTVSPost2010PropOp35
 70
     1
102
RTVSPost2010Prop36
280
     0
102
RTVSPost2010PropOp36
 70
     1
102
RTVSPost2010Prop37
 90
       50
102
RTVSPost2010PropOp37
 70
     1
102
RTVSPost2010Prop38
140
0.0
102
RTVSPost2010PropOp38
 70
     1
102
RTVSPost2010Prop39
140
1.0
102
RTVSPost2010PropOp39
 70
     1
102
RTVSPost2010Prop40
 90
        0
102
RTVSPost2010PropOp40
 70
     1
102
RTVSPost2010Prop41ColorIndex
 90
       18
102
RTVSPost2010Prop41ColorRGB
 90
        0
102
RTVSPost2010PropOp41
 70
     1
102
RTVSPost2010Prop42
 90
       50
102
RTVSPost2010PropOp42
 70
     1
102
RTVSPost2010Prop43
 90
        3
102
RTVSPost2010PropOp43
 70
     1
102
RTVSPost2010Prop44ColorIndex
 90
        5
102
RTVSPost2010Prop44ColorRGB
 90
      255
102
RTVSPost2010PropOp44
 70
     1
102
RTVSPost2010Prop45
280
     0
102
RTVSPost2010PropOp45
 70
     1
102
RTVSPost2010Prop46
 90
       50
102
RTVSPost2010PropOp46
 70
     1
102
RTVSPost2010Prop47
 90
       50
102
RTVSPost2010PropOp47
 70
     1
102
RTVSPost2010Prop48
 90
       50
102
RTVSPost2010PropOp48
 70
     1
102
RTVSPost2010Prop49
280
     0
102
RTVSPost2010PropOp49
 70
     1
102
RTVSPost2010Prop50
 90
       50
102
RTVSPost2010PropOp50
 70
     1
102
RTVSPost2010Prop51ColorIndex
 90
      256
102
RTVSPost2010Prop51ColorRGB
 90
-16777216
102
RTVSPost2010PropOp51
 70
     0
102
RTVSPost2010Prop52
140
1.0
102
RTVSPost2010PropOp52
 70
     0
102
RTVSPost2010Prop53
 90
        2
102
RTVSPost2010PropOp53
 70
     1
102
RTVSPost2010Prop54
  1
strokes_ogs.tif
102
RTVSPost2010PropOp54
 70
     1
102
RTVSPost2010Prop55
280
     0
102
RTVSPost2010PropOp55
 70
     1
102
RTVSPost2010Prop56
140
1.0
102
RTVSPost2010PropOp56
 70
     1
102
RTVSPost2010Prop57
140
1.0
102
RTVSPost2010PropOp57
 70
     1
102
RTVSPropertyOp0
 70
     1
102
RTVSPropertyOp1
 70
     1
102
RTVSPropertyOp2
 70
     1
102
RTVSPropertyOp3
 70
     1
102
RTVSPropertyOp4
 70
     1
102
RTVSPropertyOp5
 70
     1
102
RTVSPropertyOp6
 70
     1
102
RTVSPropertyOp7
 70
     1
102
RTVSPropertyOp8
 70
     1
102
RTVSPropertyOp9
 70
     1
102
RTVSPropertyOp10
 70
     1
102
RTVSPropertyOp11
 70
     1
102
RTVSPropertyOp12
 70
     1
102
RTVSPropertyOp13
 70
     1
102
RTVSPropertyOp14
 70
     1
102
RTVSPropertyOp15
 70
     1
102
RTVSPropertyOp16
 70
     1
102
RTVSPropertyOp17
 70
     1
102
RTVSPropertyOp18
 70
     1
102
RTVSPropertyOp19
 70
     1
102
RTVSPropertyOp20
 70
     1
102
RTVSPropertyOp21
 70
     1
102
RTVSPropertyOp22
 70
     1
102
RTVSPropertyOp23
 70
     1
102
RTVSPropertyOp24
 70
     1
102
RTVSPropertyOp25
 70
     1
102
RTVSPropertyOp26
 70
     1
102
RTVSPropertyOp27
 70
     1
102
RTVSPropertyOp28
 70
     1
102
RTVSPropertyOp29
 70
     1
102
RTVSPropertyOp30
 70
     1
102
RTVSPropertyOp31
 70
     1
102
RTVSPropertyOp32
 70
     1
102
RTVSPropertyOp33
 70
     1
102
RTVSPropertyOp34
 70
     1
102
RTVSPropertyOp35
 70
     1
102
RTVSPropertyOp36
 70
     1
102
RTVSPropertyOp37
 70
     1
102
RTVSPropertyOp38
 70
     1
102
RTVSPropertyOp39
 70
     1
102
RTVSPropertyOp40
 70
     1
102
RTVSPropertyOp41
 70
     1
102
RTVSPropertyOp42
 70
     1
102
RTVSPropertyOp43
 70
     1
102
RTVSPropertyOp44
 70
     1
102
RTVSPropertyOp45
 70
     1
102
RTVSPropertyOp46
 70
     1
102
RTVSPropertyOp47
 70
     1
102
RTVSPropertyOp48
 70
     1
102
RTVSPropertyOp49
 70
     1
102
RTVSPropertyOp50
 70
     1
102
RTVSPropertyOp51
 70
     0
102
RTVSPropertyOp52
 70
     0
102
RTVSPropertyOp53
 70
     1
102
RTVSPropertyOp54
 70
     1
102
RTVSPropertyOp55
 70
     1
102
RTVSPropertyOp56
 70
     1
102
RTVSPropertyOp57
 70
     1
102
RTVSPropertyOp58
 70
     1
102
RTVSPropertyOp59
 70
     1
102
RTVSPropertyOp60
 70
     1
102
RTVSPropertyOp61
 70
     1
102
RTVSPropertyOp62
 70
     1
  0
XRECORD
  5
4931
102
{ACAD_REACTORS
330
4930
102
}
330
4930
100
AcDbXrecord
280
     1
102
RTVSPost2010Prop28
280
     0
102
RTVSPost2010PropOp28
 70
     0
102
RTVSPost2010Prop29
280
     1
102
RTVSPost2010PropOp29
 70
     0
102
RTVSPost2010Prop30
280
     1
102
RTVSPost2010PropOp30
 70
     0
102
RTVSPost2010Prop31
280
     0
102
RTVSPost2010PropOp31
 70
     0
102
RTVSPost2010Prop32
280
     0
102
RTVSPost2010PropOp32
 70
     0
102
RTVSPost2010Prop33
280
     0
102
RTVSPost2010PropOp33
 70
     0
102
RTVSPost2010Prop34
280
     0
102
RTVSPost2010PropOp34
 70
     0
102
RTVSPost2010Prop35
280
     0
102
RTVSPost2010PropOp35
 70
     0
102
RTVSPost2010Prop36
280
     0
102
RTVSPost2010PropOp36
 70
     0
102
RTVSPost2010Prop37
 90
       50
102
RTVSPost2010PropOp37
 70
     0
102
RTVSPost2010Prop38
140
0.0
102
RTVSPost2010PropOp38
 70
     0
102
RTVSPost2010Prop39
140
1.0
102
RTVSPost2010PropOp39
 70
     0
102
RTVSPost2010Prop40
 90
        0
102
RTVSPost2010PropOp40
 70
     0
102
RTVSPost2010Prop41ColorIndex
 90
       18
102
RTVSPost2010Prop41ColorRGB
 90
        0
102
RTVSPost2010PropOp41
 70
     0
102
RTVSPost2010Prop42
 90
       50
102
RTVSPost2010PropOp42
 70
     0
102
RTVSPost2010Prop43
 90
        3
102
RTVSPost2010PropOp43
 70
     0
102
RTVSPost2010Prop44ColorIndex
 90
        5
102
RTVSPost2010Prop44ColorRGB
 90
      255
102
RTVSPost2010PropOp44
 70
     0
102
RTVSPost2010Prop45
280
     0
102
RTVSPost2010PropOp45
 70
     0
102
RTVSPost2010Prop46
 90
       50
102
RTVSPost2010PropOp46
 70
     0
102
RTVSPost2010Prop47
 90
       50
102
RTVSPost2010PropOp47
 70
     0
102
RTVSPost2010Prop48
 90
       50
102
RTVSPost2010PropOp48
 70
     0
102
RTVSPost2010Prop49
280
     0
102
RTVSPost2010PropOp49
 70
     0
102
RTVSPost2010Prop50
 90
       50
102
RTVSPost2010PropOp50
 70
     0
102
RTVSPost2010Prop51ColorIndex
 90
      256
102
RTVSPost2010Prop51ColorRGB
 90
-16777216
102
RTVSPost2010PropOp51
 70
     0
102
RTVSPost2010Prop52
140
1.0
102
RTVSPost2010PropOp52
 70
     0
102
RTVSPost2010Prop53
 90
        2
102
RTVSPost2010PropOp53
 70
     0
102
RTVSPost2010Prop54
  1
strokes_ogs.tif
102
RTVSPost2010PropOp54
 70
     0
102
RTVSPost2010Prop55
280
     0
102
RTVSPost2010PropOp55
 70
     0
102
RTVSPost2010Prop56
140
1.0
102
RTVSPost2010PropOp56
 70
     0
102
RTVSPost2010Prop57
140
1.0
102
RTVSPost2010PropOp57
 70
     0
102
RTVSPropertyOp0
 70
     0
102
RTVSPropertyOp1
 70
     0
102
RTVSPropertyOp2
 70
     0
102
RTVSPropertyOp3
 70
     0
102
RTVSPropertyOp4
 70
     0
102
RTVSPropertyOp5
 70
     0
102
RTVSPropertyOp6
 70
     0
102
RTVSPropertyOp7
 70
     0
102
RTVSPropertyOp8
 70
     0
102
RTVSPropertyOp9
 70
     0
102
RTVSPropertyOp10
 70
     0
102
RTVSPropertyOp11
 70
     0
102
RTVSPropertyOp12
 70
     0
102
RTVSPropertyOp13
 70
     0
102
RTVSPropertyOp14
 70
     2
102
RTVSPropertyOp15
 70
     0
102
RTVSPropertyOp16
 70
     0
102
RTVSPropertyOp17
 70
     0
102
RTVSPropertyOp18
 70
     0
102
RTVSPropertyOp19
 70
     0
102
RTVSPropertyOp20
 70
     0
102
RTVSPropertyOp21
 70
     0
102
RTVSPropertyOp22
 70
     0
102
RTVSPropertyOp23
 70
     0
102
RTVSPropertyOp24
 70
     0
102
RTVSPropertyOp25
 70
     0
102
RTVSPropertyOp26
 70
     0
102
RTVSPropertyOp27
 70
     0
102
RTVSPropertyOp28
 70
     0
102
RTVSPropertyOp29
 70
     0
102
RTVSPropertyOp30
 70
     0
102
RTVSPropertyOp31
 70
     0
102
RTVSPropertyOp32
 70
     0
102
RTVSPropertyOp33
 70
     0
102
RTVSPropertyOp34
 70
     0
102
RTVSPropertyOp35
 70
     0
102
RTVSPropertyOp36
 70
     0
102
RTVSPropertyOp37
 70
     0
102
RTVSPropertyOp38
 70
     0
102
RTVSPropertyOp39
 70
     0
102
RTVSPropertyOp40
 70
     0
102
RTVSPropertyOp41
 70
     0
102
RTVSPropertyOp42
 70
     0
102
RTVSPropertyOp43
 70
     0
102
RTVSPropertyOp44
 70
     0
102
RTVSPropertyOp45
 70
     0
102
RTVSPropertyOp46
 70
     0
102
RTVSPropertyOp47
 70
     0
102
RTVSPropertyOp48
 70
     0
102
RTVSPropertyOp49
 70
     0
102
RTVSPropertyOp50
 70
     0
102
RTVSPropertyOp51
 70
     0
102
RTVSPropertyOp52
 70
     0
102
RTVSPropertyOp53
 70
     0
102
RTVSPropertyOp54
 70
     0
102
RTVSPropertyOp55
 70
     0
102
RTVSPropertyOp56
 70
     0
102
RTVSPropertyOp57
 70
     0
102
RTVSPropertyOp58
 70
     1
102
RTVSPropertyOp59
 70
     1
102
RTVSPropertyOp60
 70
     1
102
RTVSPropertyOp61
 70
     1
102
RTVSPropertyOp62
 70
     1
  0
XRECORD
  5
4917
102
{ACAD_REACTORS
330
4916
102
}
330
4916
100
AcDbXrecord
280
     1
102
RTVSPost2010Prop28
280
     0
102
RTVSPost2010PropOp28
 70
     1
102
RTVSPost2010Prop29
280
     1
102
RTVSPost2010PropOp29
 70
     1
102
RTVSPost2010Prop30
280
     1
102
RTVSPost2010PropOp30
 70
     1
102
RTVSPost2010Prop31
280
     0
102
RTVSPost2010PropOp31
 70
     1
102
RTVSPost2010Prop32
280
     0
102
RTVSPost2010PropOp32
 70
     1
102
RTVSPost2010Prop33
280
     0
102
RTVSPost2010PropOp33
 70
     1
102
RTVSPost2010Prop34
280
     0
102
RTVSPost2010PropOp34
 70
     1
102
RTVSPost2010Prop35
280
     0
102
RTVSPost2010PropOp35
 70
     1
102
RTVSPost2010Prop36
280
     0
102
RTVSPost2010PropOp36
 70
     1
102
RTVSPost2010Prop37
 90
       50
102
RTVSPost2010PropOp37
 70
     1
102
RTVSPost2010Prop38
140
0.0
102
RTVSPost2010PropOp38
 70
     1
102
RTVSPost2010Prop39
140
1.0
102
RTVSPost2010PropOp39
 70
     1
102
RTVSPost2010Prop40
 90
        0
102
RTVSPost2010PropOp40
 70
     1
102
RTVSPost2010Prop41ColorIndex
 90
       18
102
RTVSPost2010Prop41ColorRGB
 90
        0
102
RTVSPost2010PropOp41
 70
     1
102
RTVSPost2010Prop42
 90
       50
102
RTVSPost2010PropOp42
 70
     1
102
RTVSPost2010Prop43
 90
        3
102
RTVSPost2010PropOp43
 70
     1
102
RTVSPost2010Prop44ColorIndex
 90
        5
102
RTVSPost2010Prop44ColorRGB
 90
      255
102
RTVSPost2010PropOp44
 70
     1
102
RTVSPost2010Prop45
280
     0
102
RTVSPost2010PropOp45
 70
     1
102
RTVSPost2010Prop46
 90
       50
102
RTVSPost2010PropOp46
 70
     1
102
RTVSPost2010Prop47
 90
       50
102
RTVSPost2010PropOp47
 70
     1
102
RTVSPost2010Prop48
 90
       50
102
RTVSPost2010PropOp48
 70
     1
102
RTVSPost2010Prop49
280
     0
102
RTVSPost2010PropOp49
 70
     1
102
RTVSPost2010Prop50
 90
       50
102
RTVSPost2010PropOp50
 70
     1
102
RTVSPost2010Prop51ColorIndex
 90
      256
102
RTVSPost2010Prop51ColorRGB
 90
-16777216
102
RTVSPost2010PropOp51
 70
     0
102
RTVSPost2010Prop52
140
1.0
102
RTVSPost2010PropOp52
 70
     0
102
RTVSPost2010Prop53
 90
        2
102
RTVSPost2010PropOp53
 70
     1
102
RTVSPost2010Prop54
  1
strokes_ogs.tif
102
RTVSPost2010PropOp54
 70
     1
102
RTVSPost2010Prop55
280
     0
102
RTVSPost2010PropOp55
 70
     1
102
RTVSPost2010Prop56
140
1.0
102
RTVSPost2010PropOp56
 70
     1
102
RTVSPost2010Prop57
140
1.0
102
RTVSPost2010PropOp57
 70
     1
102
RTVSPropertyOp0
 70
     1
102
RTVSPropertyOp1
 70
     1
102
RTVSPropertyOp2
 70
     1
102
RTVSPropertyOp3
 70
     1
102
RTVSPropertyOp4
 70
     1
102
RTVSPropertyOp5
 70
     1
102
RTVSPropertyOp6
 70
     1
102
RTVSPropertyOp7
 70
     1
102
RTVSPropertyOp8
 70
     1
102
RTVSPropertyOp9
 70
     1
102
RTVSPropertyOp10
 70
     1
102
RTVSPropertyOp11
 70
     1
102
RTVSPropertyOp12
 70
     1
102
RTVSPropertyOp13
 70
     1
102
RTVSPropertyOp14
 70
     1
102
RTVSPropertyOp15
 70
     1
102
RTVSPropertyOp16
 70
     1
102
RTVSPropertyOp17
 70
     1
102
RTVSPropertyOp18
 70
     1
102
RTVSPropertyOp19
 70
     1
102
RTVSPropertyOp20
 70
     1
102
RTVSPropertyOp21
 70
     1
102
RTVSPropertyOp22
 70
     1
102
RTVSPropertyOp23
 70
     1
102
RTVSPropertyOp24
 70
     1
102
RTVSPropertyOp25
 70
     1
102
RTVSPropertyOp26
 70
     1
102
RTVSPropertyOp27
 70
     1
102
RTVSPropertyOp28
 70
     1
102
RTVSPropertyOp29
 70
     1
102
RTVSPropertyOp30
 70
     1
102
RTVSPropertyOp31
 70
     1
102
RTVSPropertyOp32
 70
     1
102
RTVSPropertyOp33
 70
     1
102
RTVSPropertyOp34
 70
     1
102
RTVSPropertyOp35
 70
     1
102
RTVSPropertyOp36
 70
     1
102
RTVSPropertyOp37
 70
     1
102
RTVSPropertyOp38
 70
     1
102
RTVSPropertyOp39
 70
     1
102
RTVSPropertyOp40
 70
     1
102
RTVSPropertyOp41
 70
     1
102
RTVSPropertyOp42
 70
     1
102
RTVSPropertyOp43
 70
     1
102
RTVSPropertyOp44
 70
     1
102
RTVSPropertyOp45
 70
     1
102
RTVSPropertyOp46
 70
     1
102
RTVSPropertyOp47
 70
     1
102
RTVSPropertyOp48
 70
     1
102
RTVSPropertyOp49
 70
     1
102
RTVSPropertyOp50
 70
     1
102
RTVSPropertyOp51
 70
     0
102
RTVSPropertyOp52
 70
     0
102
RTVSPropertyOp53
 70
     1
102
RTVSPropertyOp54
 70
     1
102
RTVSPropertyOp55
 70
     1
102
RTVSPropertyOp56
 70
     1
102
RTVSPropertyOp57
 70
     1
102
RTVSPropertyOp58
 70
     1
102
RTVSPropertyOp59
 70
     1
102
RTVSPropertyOp60
 70
     1
102
RTVSPropertyOp61
 70
     1
102
RTVSPropertyOp62
 70
     1
  0
XRECORD
  5
492D
102
{ACAD_REACTORS
330
492C
102
}
330
492C
100
AcDbXrecord
280
     1
102
RTVSPost2010Prop28
280
     0
102
RTVSPost2010PropOp28
 70
     1
102
RTVSPost2010Prop29
280
     1
102
RTVSPost2010PropOp29
 70
     1
102
RTVSPost2010Prop30
280
     1
102
RTVSPost2010PropOp30
 70
     1
102
RTVSPost2010Prop31
280
     0
102
RTVSPost2010PropOp31
 70
     1
102
RTVSPost2010Prop32
280
     0
102
RTVSPost2010PropOp32
 70
     1
102
RTVSPost2010Prop33
280
     0
102
RTVSPost2010PropOp33
 70
     1
102
RTVSPost2010Prop34
280
     0
102
RTVSPost2010PropOp34
 70
     1
102
RTVSPost2010Prop35
280
     0
102
RTVSPost2010PropOp35
 70
     1
102
RTVSPost2010Prop36
280
     0
102
RTVSPost2010PropOp36
 70
     1
102
RTVSPost2010Prop37
 90
       50
102
RTVSPost2010PropOp37
 70
     1
102
RTVSPost2010Prop38
140
0.0
102
RTVSPost2010PropOp38
 70
     1
102
RTVSPost2010Prop39
140
1.0
102
RTVSPost2010PropOp39
 70
     1
102
RTVSPost2010Prop40
 90
        0
102
RTVSPost2010PropOp40
 70
     1
102
RTVSPost2010Prop41ColorIndex
 90
       18
102
RTVSPost2010Prop41ColorRGB
 90
        0
102
RTVSPost2010PropOp41
 70
     1
102
RTVSPost2010Prop42
 90
       50
102
RTVSPost2010PropOp42
 70
     1
102
RTVSPost2010Prop43
 90
        3
102
RTVSPost2010PropOp43
 70
     1
102
RTVSPost2010Prop44ColorIndex
 90
        5
102
RTVSPost2010Prop44ColorRGB
 90
      255
102
RTVSPost2010PropOp44
 70
     1
102
RTVSPost2010Prop45
280
     0
102
RTVSPost2010PropOp45
 70
     1
102
RTVSPost2010Prop46
 90
       50
102
RTVSPost2010PropOp46
 70
     1
102
RTVSPost2010Prop47
 90
       50
102
RTVSPost2010PropOp47
 70
     1
102
RTVSPost2010Prop48
 90
       50
102
RTVSPost2010PropOp48
 70
     1
102
RTVSPost2010Prop49
280
     0
102
RTVSPost2010PropOp49
 70
     1
102
RTVSPost2010Prop50
 90
       50
102
RTVSPost2010PropOp50
 70
     1
102
RTVSPost2010Prop51ColorIndex
 90
      256
102
RTVSPost2010Prop51ColorRGB
 90
-16777216
102
RTVSPost2010PropOp51
 70
     0
102
RTVSPost2010Prop52
140
1.0
102
RTVSPost2010PropOp52
 70
     0
102
RTVSPost2010Prop53
 90
        2
102
RTVSPost2010PropOp53
 70
     1
102
RTVSPost2010Prop54
  1
strokes_ogs.tif
102
RTVSPost2010PropOp54
 70
     1
102
RTVSPost2010Prop55
280
     0
102
RTVSPost2010PropOp55
 70
     1
102
RTVSPost2010Prop56
140
1.0
102
RTVSPost2010PropOp56
 70
     1
102
RTVSPost2010Prop57
140
1.0
102
RTVSPost2010PropOp57
 70
     1
102
RTVSPropertyOp0
 70
     1
102
RTVSPropertyOp1
 70
     1
102
RTVSPropertyOp2
 70
     1
102
RTVSPropertyOp3
 70
     1
102
RTVSPropertyOp4
 70
     1
102
RTVSPropertyOp5
 70
     1
102
RTVSPropertyOp6
 70
     1
102
RTVSPropertyOp7
 70
     1
102
RTVSPropertyOp8
 70
     1
102
RTVSPropertyOp9
 70
     1
102
RTVSPropertyOp10
 70
     1
102
RTVSPropertyOp11
 70
     1
102
RTVSPropertyOp12
 70
     1
102
RTVSPropertyOp13
 70
     1
102
RTVSPropertyOp14
 70
     1
102
RTVSPropertyOp15
 70
     1
102
RTVSPropertyOp16
 70
     1
102
RTVSPropertyOp17
 70
     1
102
RTVSPropertyOp18
 70
     1
102
RTVSPropertyOp19
 70
     1
102
RTVSPropertyOp20
 70
     1
102
RTVSPropertyOp21
 70
     1
102
RTVSPropertyOp22
 70
     1
102
RTVSPropertyOp23
 70
     1
102
RTVSPropertyOp24
 70
     1
102
RTVSPropertyOp25
 70
     1
102
RTVSPropertyOp26
 70
     1
102
RTVSPropertyOp27
 70
     1
102
RTVSPropertyOp28
 70
     1
102
RTVSPropertyOp29
 70
     1
102
RTVSPropertyOp30
 70
     1
102
RTVSPropertyOp31
 70
     1
102
RTVSPropertyOp32
 70
     1
102
RTVSPropertyOp33
 70
     1
102
RTVSPropertyOp34
 70
     1
102
RTVSPropertyOp35
 70
     1
102
RTVSPropertyOp36
 70
     1
102
RTVSPropertyOp37
 70
     1
102
RTVSPropertyOp38
 70
     1
102
RTVSPropertyOp39
 70
     1
102
RTVSPropertyOp40
 70
     1
102
RTVSPropertyOp41
 70
     1
102
RTVSPropertyOp42
 70
     1
102
RTVSPropertyOp43
 70
     1
102
RTVSPropertyOp44
 70
     1
102
RTVSPropertyOp45
 70
     1
102
RTVSPropertyOp46
 70
     1
102
RTVSPropertyOp47
 70
     1
102
RTVSPropertyOp48
 70
     1
102
RTVSPropertyOp49
 70
     1
102
RTVSPropertyOp50
 70
     1
102
RTVSPropertyOp51
 70
     0
102
RTVSPropertyOp52
 70
     0
102
RTVSPropertyOp53
 70
     1
102
RTVSPropertyOp54
 70
     1
102
RTVSPropertyOp55
 70
     1
102
RTVSPropertyOp56
 70
     1
102
RTVSPropertyOp57
 70
     1
102
RTVSPropertyOp58
 70
     1
102
RTVSPropertyOp59
 70
     1
102
RTVSPropertyOp60
 70
     1
102
RTVSPropertyOp61
 70
     1
102
RTVSPropertyOp62
 70
     1
  0
XRECORD
  5
492B
102
{ACAD_REACTORS
330
492A
102
}
330
492A
100
AcDbXrecord
280
     1
102
RTVSPost2010Prop28
280
     0
102
RTVSPost2010PropOp28
 70
     1
102
RTVSPost2010Prop29
280
     1
102
RTVSPost2010PropOp29
 70
     1
102
RTVSPost2010Prop30
280
     1
102
RTVSPost2010PropOp30
 70
     1
102
RTVSPost2010Prop31
280
     0
102
RTVSPost2010PropOp31
 70
     1
102
RTVSPost2010Prop32
280
     0
102
RTVSPost2010PropOp32
 70
     1
102
RTVSPost2010Prop33
280
     0
102
RTVSPost2010PropOp33
 70
     1
102
RTVSPost2010Prop34
280
     0
102
RTVSPost2010PropOp34
 70
     1
102
RTVSPost2010Prop35
280
     0
102
RTVSPost2010PropOp35
 70
     1
102
RTVSPost2010Prop36
280
     0
102
RTVSPost2010PropOp36
 70
     1
102
RTVSPost2010Prop37
 90
       50
102
RTVSPost2010PropOp37
 70
     1
102
RTVSPost2010Prop38
140
0.0
102
RTVSPost2010PropOp38
 70
     1
102
RTVSPost2010Prop39
140
1.0
102
RTVSPost2010PropOp39
 70
     1
102
RTVSPost2010Prop40
 90
        0
102
RTVSPost2010PropOp40
 70
     1
102
RTVSPost2010Prop41ColorIndex
 90
       18
102
RTVSPost2010Prop41ColorRGB
 90
        0
102
RTVSPost2010PropOp41
 70
     1
102
RTVSPost2010Prop42
 90
       50
102
RTVSPost2010PropOp42
 70
     1
102
RTVSPost2010Prop43
 90
        3
102
RTVSPost2010PropOp43
 70
     1
102
RTVSPost2010Prop44ColorIndex
 90
        5
102
RTVSPost2010Prop44ColorRGB
 90
      255
102
RTVSPost2010PropOp44
 70
     1
102
RTVSPost2010Prop45
280
     0
102
RTVSPost2010PropOp45
 70
     1
102
RTVSPost2010Prop46
 90
       50
102
RTVSPost2010PropOp46
 70
     1
102
RTVSPost2010Prop47
 90
       50
102
RTVSPost2010PropOp47
 70
     1
102
RTVSPost2010Prop48
 90
       50
102
RTVSPost2010PropOp48
 70
     1
102
RTVSPost2010Prop49
280
     0
102
RTVSPost2010PropOp49
 70
     1
102
RTVSPost2010Prop50
 90
       50
102
RTVSPost2010PropOp50
 70
     1
102
RTVSPost2010Prop51ColorIndex
 90
      256
102
RTVSPost2010Prop51ColorRGB
 90
-16777216
102
RTVSPost2010PropOp51
 70
     0
102
RTVSPost2010Prop52
140
1.0
102
RTVSPost2010PropOp52
 70
     0
102
RTVSPost2010Prop53
 90
        2
102
RTVSPost2010PropOp53
 70
     1
102
RTVSPost2010Prop54
  1
strokes_ogs.tif
102
RTVSPost2010PropOp54
 70
     1
102
RTVSPost2010Prop55
280
     0
102
RTVSPost2010PropOp55
 70
     1
102
RTVSPost2010Prop56
140
1.0
102
RTVSPost2010PropOp56
 70
     1
102
RTVSPost2010Prop57
140
1.0
102
RTVSPost2010PropOp57
 70
     1
102
RTVSPropertyOp0
 70
     1
102
RTVSPropertyOp1
 70
     1
102
RTVSPropertyOp2
 70
     1
102
RTVSPropertyOp3
 70
     1
102
RTVSPropertyOp4
 70
     1
102
RTVSPropertyOp5
 70
     1
102
RTVSPropertyOp6
 70
     1
102
RTVSPropertyOp7
 70
     1
102
RTVSPropertyOp8
 70
     1
102
RTVSPropertyOp9
 70
     1
102
RTVSPropertyOp10
 70
     1
102
RTVSPropertyOp11
 70
     1
102
RTVSPropertyOp12
 70
     1
102
RTVSPropertyOp13
 70
     1
102
RTVSPropertyOp14
 70
     1
102
RTVSPropertyOp15
 70
     1
102
RTVSPropertyOp16
 70
     1
102
RTVSPropertyOp17
 70
     1
102
RTVSPropertyOp18
 70
     1
102
RTVSPropertyOp19
 70
     1
102
RTVSPropertyOp20
 70
     1
102
RTVSPropertyOp21
 70
     1
102
RTVSPropertyOp22
 70
     1
102
RTVSPropertyOp23
 70
     1
102
RTVSPropertyOp24
 70
     1
102
RTVSPropertyOp25
 70
     1
102
RTVSPropertyOp26
 70
     1
102
RTVSPropertyOp27
 70
     1
102
RTVSPropertyOp28
 70
     1
102
RTVSPropertyOp29
 70
     1
102
RTVSPropertyOp30
 70
     1
102
RTVSPropertyOp31
 70
     1
102
RTVSPropertyOp32
 70
     1
102
RTVSPropertyOp33
 70
     1
102
RTVSPropertyOp34
 70
     1
102
RTVSPropertyOp35
 70
     1
102
RTVSPropertyOp36
 70
     1
102
RTVSPropertyOp37
 70
     1
102
RTVSPropertyOp38
 70
     1
102
RTVSPropertyOp39
 70
     1
102
RTVSPropertyOp40
 70
     1
102
RTVSPropertyOp41
 70
     1
102
RTVSPropertyOp42
 70
     1
102
RTVSPropertyOp43
 70
     1
102
RTVSPropertyOp44
 70
     1
102
RTVSPropertyOp45
 70
     1
102
RTVSPropertyOp46
 70
     1
102
RTVSPropertyOp47
 70
     1
102
RTVSPropertyOp48
 70
     1
102
RTVSPropertyOp49
 70
     1
102
RTVSPropertyOp50
 70
     1
102
RTVSPropertyOp51
 70
     0
102
RTVSPropertyOp52
 70
     0
102
RTVSPropertyOp53
 70
     1
102
RTVSPropertyOp54
 70
     1
102
RTVSPropertyOp55
 70
     1
102
RTVSPropertyOp56
 70
     1
102
RTVSPropertyOp57
 70
     1
102
RTVSPropertyOp58
 70
     1
102
RTVSPropertyOp59
 70
     1
102
RTVSPropertyOp60
 70
     1
102
RTVSPropertyOp61
 70
     1
102
RTVSPropertyOp62
 70
     1
  0
XRECORD
  5
4925
102
{ACAD_REACTORS
330
4924
102
}
330
4924
100
AcDbXrecord
280
     1
102
RTVSPost2010Prop28
280
     0
102
RTVSPost2010PropOp28
 70
     1
102
RTVSPost2010Prop29
280
     1
102
RTVSPost2010PropOp29
 70
     1
102
RTVSPost2010Prop30
280
     1
102
RTVSPost2010PropOp30
 70
     1
102
RTVSPost2010Prop31
280
     0
102
RTVSPost2010PropOp31
 70
     1
102
RTVSPost2010Prop32
280
     0
102
RTVSPost2010PropOp32
 70
     1
102
RTVSPost2010Prop33
280
     0
102
RTVSPost2010PropOp33
 70
     1
102
RTVSPost2010Prop34
280
     0
102
RTVSPost2010PropOp34
 70
     1
102
RTVSPost2010Prop35
280
     0
102
RTVSPost2010PropOp35
 70
     1
102
RTVSPost2010Prop36
280
     0
102
RTVSPost2010PropOp36
 70
     1
102
RTVSPost2010Prop37
 90
       50
102
RTVSPost2010PropOp37
 70
     1
102
RTVSPost2010Prop38
140
0.0
102
RTVSPost2010PropOp38
 70
     1
102
RTVSPost2010Prop39
140
1.0
102
RTVSPost2010PropOp39
 70
     1
102
RTVSPost2010Prop40
 90
        0
102
RTVSPost2010PropOp40
 70
     1
102
RTVSPost2010Prop41ColorIndex
 90
       18
102
RTVSPost2010Prop41ColorRGB
 90
        0
102
RTVSPost2010PropOp41
 70
     1
102
RTVSPost2010Prop42
 90
       50
102
RTVSPost2010PropOp42
 70
     1
102
RTVSPost2010Prop43
 90
        3
102
RTVSPost2010PropOp43
 70
     1
102
RTVSPost2010Prop44ColorIndex
 90
        5
102
RTVSPost2010Prop44ColorRGB
 90
      255
102
RTVSPost2010PropOp44
 70
     1
102
RTVSPost2010Prop45
280
     0
102
RTVSPost2010PropOp45
 70
     1
102
RTVSPost2010Prop46
 90
       50
102
RTVSPost2010PropOp46
 70
     1
102
RTVSPost2010Prop47
 90
       50
102
RTVSPost2010PropOp47
 70
     1
102
RTVSPost2010Prop48
 90
       50
102
RTVSPost2010PropOp48
 70
     1
102
RTVSPost2010Prop49
280
     0
102
RTVSPost2010PropOp49
 70
     1
102
RTVSPost2010Prop50
 90
       50
102
RTVSPost2010PropOp50
 70
     1
102
RTVSPost2010Prop51ColorIndex
 90
      256
102
RTVSPost2010Prop51ColorRGB
 90
-16777216
102
RTVSPost2010PropOp51
 70
     0
102
RTVSPost2010Prop52
140
1.0
102
RTVSPost2010PropOp52
 70
     0
102
RTVSPost2010Prop53
 90
        2
102
RTVSPost2010PropOp53
 70
     1
102
RTVSPost2010Prop54
  1
strokes_ogs.tif
102
RTVSPost2010PropOp54
 70
     1
102
RTVSPost2010Prop55
280
     0
102
RTVSPost2010PropOp55
 70
     1
102
RTVSPost2010Prop56
140
1.0
102
RTVSPost2010PropOp56
 70
     1
102
RTVSPost2010Prop57
140
1.0
102
RTVSPost2010PropOp57
 70
     1
102
RTVSPropertyOp0
 70
     1
102
RTVSPropertyOp1
 70
     1
102
RTVSPropertyOp2
 70
     1
102
RTVSPropertyOp3
 70
     1
102
RTVSPropertyOp4
 70
     1
102
RTVSPropertyOp5
 70
     1
102
RTVSPropertyOp6
 70
     1
102
RTVSPropertyOp7
 70
     1
102
RTVSPropertyOp8
 70
     1
102
RTVSPropertyOp9
 70
     1
102
RTVSPropertyOp10
 70
     1
102
RTVSPropertyOp11
 70
     1
102
RTVSPropertyOp12
 70
     1
102
RTVSPropertyOp13
 70
     1
102
RTVSPropertyOp14
 70
     1
102
RTVSPropertyOp15
 70
     1
102
RTVSPropertyOp16
 70
     1
102
RTVSPropertyOp17
 70
     1
102
RTVSPropertyOp18
 70
     1
102
RTVSPropertyOp19
 70
     1
102
RTVSPropertyOp20
 70
     1
102
RTVSPropertyOp21
 70
     1
102
RTVSPropertyOp22
 70
     1
102
RTVSPropertyOp23
 70
     1
102
RTVSPropertyOp24
 70
     1
102
RTVSPropertyOp25
 70
     1
102
RTVSPropertyOp26
 70
     1
102
RTVSPropertyOp27
 70
     1
102
RTVSPropertyOp28
 70
     1
102
RTVSPropertyOp29
 70
     1
102
RTVSPropertyOp30
 70
     1
102
RTVSPropertyOp31
 70
     1
102
RTVSPropertyOp32
 70
     1
102
RTVSPropertyOp33
 70
     1
102
RTVSPropertyOp34
 70
     1
102
RTVSPropertyOp35
 70
     1
102
RTVSPropertyOp36
 70
     1
102
RTVSPropertyOp37
 70
     1
102
RTVSPropertyOp38
 70
     1
102
RTVSPropertyOp39
 70
     1
102
RTVSPropertyOp40
 70
     1
102
RTVSPropertyOp41
 70
     1
102
RTVSPropertyOp42
 70
     1
102
RTVSPropertyOp43
 70
     1
102
RTVSPropertyOp44
 70
     1
102
RTVSPropertyOp45
 70
     1
102
RTVSPropertyOp46
 70
     1
102
RTVSPropertyOp47
 70
     1
102
RTVSPropertyOp48
 70
     1
102
RTVSPropertyOp49
 70
     1
102
RTVSPropertyOp50
 70
     1
102
RTVSPropertyOp51
 70
     0
102
RTVSPropertyOp52
 70
     0
102
RTVSPropertyOp53
 70
     1
102
RTVSPropertyOp54
 70
     1
102
RTVSPropertyOp55
 70
     1
102
RTVSPropertyOp56
 70
     1
102
RTVSPropertyOp57
 70
     1
102
RTVSPropertyOp58
 70
     1
102
RTVSPropertyOp59
 70
     1
102
RTVSPropertyOp60
 70
     1
102
RTVSPropertyOp61
 70
     1
102
RTVSPropertyOp62
 70
     1
  0
XRECORD
  5
4927
102
{ACAD_REACTORS
330
4926
102
}
330
4926
100
AcDbXrecord
280
     1
102
RTVSPost2010Prop28
280
     0
102
RTVSPost2010PropOp28
 70
     1
102
RTVSPost2010Prop29
280
     1
102
RTVSPost2010PropOp29
 70
     1
102
RTVSPost2010Prop30
280
     1
102
RTVSPost2010PropOp30
 70
     1
102
RTVSPost2010Prop31
280
     0
102
RTVSPost2010PropOp31
 70
     1
102
RTVSPost2010Prop32
280
     0
102
RTVSPost2010PropOp32
 70
     1
102
RTVSPost2010Prop33
280
     0
102
RTVSPost2010PropOp33
 70
     1
102
RTVSPost2010Prop34
280
     0
102
RTVSPost2010PropOp34
 70
     1
102
RTVSPost2010Prop35
280
     0
102
RTVSPost2010PropOp35
 70
     1
102
RTVSPost2010Prop36
280
     0
102
RTVSPost2010PropOp36
 70
     1
102
RTVSPost2010Prop37
 90
       50
102
RTVSPost2010PropOp37
 70
     1
102
RTVSPost2010Prop38
140
0.0
102
RTVSPost2010PropOp38
 70
     1
102
RTVSPost2010Prop39
140
1.0
102
RTVSPost2010PropOp39
 70
     1
102
RTVSPost2010Prop40
 90
        0
102
RTVSPost2010PropOp40
 70
     1
102
RTVSPost2010Prop41ColorIndex
 90
       18
102
RTVSPost2010Prop41ColorRGB
 90
        0
102
RTVSPost2010PropOp41
 70
     1
102
RTVSPost2010Prop42
 90
       50
102
RTVSPost2010PropOp42
 70
     1
102
RTVSPost2010Prop43
 90
        3
102
RTVSPost2010PropOp43
 70
     1
102
RTVSPost2010Prop44ColorIndex
 90
        5
102
RTVSPost2010Prop44ColorRGB
 90
      255
102
RTVSPost2010PropOp44
 70
     1
102
RTVSPost2010Prop45
280
     0
102
RTVSPost2010PropOp45
 70
     1
102
RTVSPost2010Prop46
 90
       50
102
RTVSPost2010PropOp46
 70
     1
102
RTVSPost2010Prop47
 90
       50
102
RTVSPost2010PropOp47
 70
     1
102
RTVSPost2010Prop48
 90
       50
102
RTVSPost2010PropOp48
 70
     1
102
RTVSPost2010Prop49
280
     0
102
RTVSPost2010PropOp49
 70
     1
102
RTVSPost2010Prop50
 90
       50
102
RTVSPost2010PropOp50
 70
     1
102
RTVSPost2010Prop51ColorIndex
 90
      256
102
RTVSPost2010Prop51ColorRGB
 90
-16777216
102
RTVSPost2010PropOp51
 70
     0
102
RTVSPost2010Prop52
140
1.0
102
RTVSPost2010PropOp52
 70
     0
102
RTVSPost2010Prop53
 90
        2
102
RTVSPost2010PropOp53
 70
     1
102
RTVSPost2010Prop54
  1
strokes_ogs.tif
102
RTVSPost2010PropOp54
 70
     1
102
RTVSPost2010Prop55
280
     0
102
RTVSPost2010PropOp55
 70
     1
102
RTVSPost2010Prop56
140
1.0
102
RTVSPost2010PropOp56
 70
     1
102
RTVSPost2010Prop57
140
1.0
102
RTVSPost2010PropOp57
 70
     1
102
RTVSPropertyOp0
 70
     1
102
RTVSPropertyOp1
 70
     1
102
RTVSPropertyOp2
 70
     1
102
RTVSPropertyOp3
 70
     1
102
RTVSPropertyOp4
 70
     1
102
RTVSPropertyOp5
 70
     1
102
RTVSPropertyOp6
 70
     1
102
RTVSPropertyOp7
 70
     1
102
RTVSPropertyOp8
 70
     1
102
RTVSPropertyOp9
 70
     1
102
RTVSPropertyOp10
 70
     1
102
RTVSPropertyOp11
 70
     1
102
RTVSPropertyOp12
 70
     1
102
RTVSPropertyOp13
 70
     1
102
RTVSPropertyOp14
 70
     1
102
RTVSPropertyOp15
 70
     1
102
RTVSPropertyOp16
 70
     1
102
RTVSPropertyOp17
 70
     1
102
RTVSPropertyOp18
 70
     1
102
RTVSPropertyOp19
 70
     1
102
RTVSPropertyOp20
 70
     1
102
RTVSPropertyOp21
 70
     1
102
RTVSPropertyOp22
 70
     1
102
RTVSPropertyOp23
 70
     1
102
RTVSPropertyOp24
 70
     1
102
RTVSPropertyOp25
 70
     1
102
RTVSPropertyOp26
 70
     1
102
RTVSPropertyOp27
 70
     1
102
RTVSPropertyOp28
 70
     1
102
RTVSPropertyOp29
 70
     1
102
RTVSPropertyOp30
 70
     1
102
RTVSPropertyOp31
 70
     1
102
RTVSPropertyOp32
 70
     1
102
RTVSPropertyOp33
 70
     1
102
RTVSPropertyOp34
 70
     1
102
RTVSPropertyOp35
 70
     1
102
RTVSPropertyOp36
 70
     1
102
RTVSPropertyOp37
 70
     1
102
RTVSPropertyOp38
 70
     1
102
RTVSPropertyOp39
 70
     1
102
RTVSPropertyOp40
 70
     1
102
RTVSPropertyOp41
 70
     1
102
RTVSPropertyOp42
 70
     1
102
RTVSPropertyOp43
 70
     1
102
RTVSPropertyOp44
 70
     1
102
RTVSPropertyOp45
 70
     1
102
RTVSPropertyOp46
 70
     1
102
RTVSPropertyOp47
 70
     1
102
RTVSPropertyOp48
 70
     1
102
RTVSPropertyOp49
 70
     1
102
RTVSPropertyOp50
 70
     1
102
RTVSPropertyOp51
 70
     0
102
RTVSPropertyOp52
 70
     0
102
RTVSPropertyOp53
 70
     1
102
RTVSPropertyOp54
 70
     1
102
RTVSPropertyOp55
 70
     1
102
RTVSPropertyOp56
 70
     1
102
RTVSPropertyOp57
 70
     1
102
RTVSPropertyOp58
 70
     1
102
RTVSPropertyOp59
 70
     1
102
RTVSPropertyOp60
 70
     1
102
RTVSPropertyOp61
 70
     1
102
RTVSPropertyOp62
 70
     1
  0
XRECORD
  5
491D
102
{ACAD_REACTORS
330
491C
102
}
330
491C
100
AcDbXrecord
280
     1
102
RTVSPost2010Prop28
280
     0
102
RTVSPost2010PropOp28
 70
     1
102
RTVSPost2010Prop29
280
     1
102
RTVSPost2010PropOp29
 70
     1
102
RTVSPost2010Prop30
280
     1
102
RTVSPost2010PropOp30
 70
     1
102
RTVSPost2010Prop31
280
     0
102
RTVSPost2010PropOp31
 70
     1
102
RTVSPost2010Prop32
280
     0
102
RTVSPost2010PropOp32
 70
     1
102
RTVSPost2010Prop33
280
     0
102
RTVSPost2010PropOp33
 70
     1
102
RTVSPost2010Prop34
280
     0
102
RTVSPost2010PropOp34
 70
     1
102
RTVSPost2010Prop35
280
     0
102
RTVSPost2010PropOp35
 70
     1
102
RTVSPost2010Prop36
280
     0
102
RTVSPost2010PropOp36
 70
     1
102
RTVSPost2010Prop37
 90
       50
102
RTVSPost2010PropOp37
 70
     1
102
RTVSPost2010Prop38
140
0.0
102
RTVSPost2010PropOp38
 70
     1
102
RTVSPost2010Prop39
140
1.0
102
RTVSPost2010PropOp39
 70
     1
102
RTVSPost2010Prop40
 90
        0
102
RTVSPost2010PropOp40
 70
     1
102
RTVSPost2010Prop41ColorIndex
 90
       18
102
RTVSPost2010Prop41ColorRGB
 90
        0
102
RTVSPost2010PropOp41
 70
     1
102
RTVSPost2010Prop42
 90
       50
102
RTVSPost2010PropOp42
 70
     1
102
RTVSPost2010Prop43
 90
        3
102
RTVSPost2010PropOp43
 70
     1
102
RTVSPost2010Prop44ColorIndex
 90
        5
102
RTVSPost2010Prop44ColorRGB
 90
      255
102
RTVSPost2010PropOp44
 70
     1
102
RTVSPost2010Prop45
280
     0
102
RTVSPost2010PropOp45
 70
     1
102
RTVSPost2010Prop46
 90
       50
102
RTVSPost2010PropOp46
 70
     1
102
RTVSPost2010Prop47
 90
       50
102
RTVSPost2010PropOp47
 70
     1
102
RTVSPost2010Prop48
 90
       50
102
RTVSPost2010PropOp48
 70
     1
102
RTVSPost2010Prop49
280
     0
102
RTVSPost2010PropOp49
 70
     1
102
RTVSPost2010Prop50
 90
       50
102
RTVSPost2010PropOp50
 70
     1
102
RTVSPost2010Prop51ColorIndex
 90
      256
102
RTVSPost2010Prop51ColorRGB
 90
-16777216
102
RTVSPost2010PropOp51
 70
     0
102
RTVSPost2010Prop52
140
1.0
102
RTVSPost2010PropOp52
 70
     0
102
RTVSPost2010Prop53
 90
        2
102
RTVSPost2010PropOp53
 70
     1
102
RTVSPost2010Prop54
  1
strokes_ogs.tif
102
RTVSPost2010PropOp54
 70
     1
102
RTVSPost2010Prop55
280
     0
102
RTVSPost2010PropOp55
 70
     1
102
RTVSPost2010Prop56
140
1.0
102
RTVSPost2010PropOp56
 70
     1
102
RTVSPost2010Prop57
140
1.0
102
RTVSPost2010PropOp57
 70
     1
102
RTVSPropertyOp0
 70
     1
102
RTVSPropertyOp1
 70
     1
102
RTVSPropertyOp2
 70
     1
102
RTVSPropertyOp3
 70
     1
102
RTVSPropertyOp4
 70
     1
102
RTVSPropertyOp5
 70
     1
102
RTVSPropertyOp6
 70
     1
102
RTVSPropertyOp7
 70
     1
102
RTVSPropertyOp8
 70
     1
102
RTVSPropertyOp9
 70
     1
102
RTVSPropertyOp10
 70
     1
102
RTVSPropertyOp11
 70
     1
102
RTVSPropertyOp12
 70
     1
102
RTVSPropertyOp13
 70
     1
102
RTVSPropertyOp14
 70
     1
102
RTVSPropertyOp15
 70
     1
102
RTVSPropertyOp16
 70
     1
102
RTVSPropertyOp17
 70
     1
102
RTVSPropertyOp18
 70
     1
102
RTVSPropertyOp19
 70
     1
102
RTVSPropertyOp20
 70
     1
102
RTVSPropertyOp21
 70
     1
102
RTVSPropertyOp22
 70
     1
102
RTVSPropertyOp23
 70
     1
102
RTVSPropertyOp24
 70
     1
102
RTVSPropertyOp25
 70
     1
102
RTVSPropertyOp26
 70
     1
102
RTVSPropertyOp27
 70
     1
102
RTVSPropertyOp28
 70
     1
102
RTVSPropertyOp29
 70
     1
102
RTVSPropertyOp30
 70
     1
102
RTVSPropertyOp31
 70
     1
102
RTVSPropertyOp32
 70
     1
102
RTVSPropertyOp33
 70
     1
102
RTVSPropertyOp34
 70
     1
102
RTVSPropertyOp35
 70
     1
102
RTVSPropertyOp36
 70
     1
102
RTVSPropertyOp37
 70
     1
102
RTVSPropertyOp38
 70
     1
102
RTVSPropertyOp39
 70
     1
102
RTVSPropertyOp40
 70
     1
102
RTVSPropertyOp41
 70
     1
102
RTVSPropertyOp42
 70
     1
102
RTVSPropertyOp43
 70
     1
102
RTVSPropertyOp44
 70
     1
102
RTVSPropertyOp45
 70
     1
102
RTVSPropertyOp46
 70
     1
102
RTVSPropertyOp47
 70
     1
102
RTVSPropertyOp48
 70
     1
102
RTVSPropertyOp49
 70
     1
102
RTVSPropertyOp50
 70
     1
102
RTVSPropertyOp51
 70
     0
102
RTVSPropertyOp52
 70
     0
102
RTVSPropertyOp53
 70
     1
102
RTVSPropertyOp54
 70
     1
102
RTVSPropertyOp55
 70
     1
102
RTVSPropertyOp56
 70
     1
102
RTVSPropertyOp57
 70
     1
102
RTVSPropertyOp58
 70
     1
102
RTVSPropertyOp59
 70
     1
102
RTVSPropertyOp60
 70
     1
102
RTVSPropertyOp61
 70
     1
102
RTVSPropertyOp62
 70
     1
  0
XRECORD
  5
4911
102
{ACAD_REACTORS
330
4910
102
}
330
4910
100
AcDbXrecord
280
     1
102
RTVSPost2010Prop28
280
     0
102
RTVSPost2010PropOp28
 70
     1
102
RTVSPost2010Prop29
280
     1
102
RTVSPost2010PropOp29
 70
     1
102
RTVSPost2010Prop30
280
     1
102
RTVSPost2010PropOp30
 70
     1
102
RTVSPost2010Prop31
280
     0
102
RTVSPost2010PropOp31
 70
     1
102
RTVSPost2010Prop32
280
     0
102
RTVSPost2010PropOp32
 70
     1
102
RTVSPost2010Prop33
280
     0
102
RTVSPost2010PropOp33
 70
     1
102
RTVSPost2010Prop34
280
     0
102
RTVSPost2010PropOp34
 70
     1
102
RTVSPost2010Prop35
280
     0
102
RTVSPost2010PropOp35
 70
     1
102
RTVSPost2010Prop36
280
     0
102
RTVSPost2010PropOp36
 70
     1
102
RTVSPost2010Prop37
 90
       50
102
RTVSPost2010PropOp37
 70
     1
102
RTVSPost2010Prop38
140
0.0
102
RTVSPost2010PropOp38
 70
     1
102
RTVSPost2010Prop39
140
1.0
102
RTVSPost2010PropOp39
 70
     1
102
RTVSPost2010Prop40
 90
        0
102
RTVSPost2010PropOp40
 70
     1
102
RTVSPost2010Prop41ColorIndex
 90
       18
102
RTVSPost2010Prop41ColorRGB
 90
        0
102
RTVSPost2010PropOp41
 70
     1
102
RTVSPost2010Prop42
 90
       50
102
RTVSPost2010PropOp42
 70
     1
102
RTVSPost2010Prop43
 90
        3
102
RTVSPost2010PropOp43
 70
     1
102
RTVSPost2010Prop44ColorIndex
 90
        5
102
RTVSPost2010Prop44ColorRGB
 90
      255
102
RTVSPost2010PropOp44
 70
     1
102
RTVSPost2010Prop45
280
     0
102
RTVSPost2010PropOp45
 70
     1
102
RTVSPost2010Prop46
 90
       50
102
RTVSPost2010PropOp46
 70
     1
102
RTVSPost2010Prop47
 90
       50
102
RTVSPost2010PropOp47
 70
     1
102
RTVSPost2010Prop48
 90
       50
102
RTVSPost2010PropOp48
 70
     1
102
RTVSPost2010Prop49
280
     0
102
RTVSPost2010PropOp49
 70
     1
102
RTVSPost2010Prop50
 90
       50
102
RTVSPost2010PropOp50
 70
     1
102
RTVSPost2010Prop51ColorIndex
 90
      256
102
RTVSPost2010Prop51ColorRGB
 90
-16777216
102
RTVSPost2010PropOp51
 70
     0
102
RTVSPost2010Prop52
140
1.0
102
RTVSPost2010PropOp52
 70
     0
102
RTVSPost2010Prop53
 90
        2
102
RTVSPost2010PropOp53
 70
     1
102
RTVSPost2010Prop54
  1
strokes_ogs.tif
102
RTVSPost2010PropOp54
 70
     1
102
RTVSPost2010Prop55
280
     0
102
RTVSPost2010PropOp55
 70
     1
102
RTVSPost2010Prop56
140
1.0
102
RTVSPost2010PropOp56
 70
     1
102
RTVSPost2010Prop57
140
1.0
102
RTVSPost2010PropOp57
 70
     1
102
RTVSPropertyOp0
 70
     1
102
RTVSPropertyOp1
 70
     1
102
RTVSPropertyOp2
 70
     1
102
RTVSPropertyOp3
 70
     1
102
RTVSPropertyOp4
 70
     1
102
RTVSPropertyOp5
 70
     1
102
RTVSPropertyOp6
 70
     1
102
RTVSPropertyOp7
 70
     1
102
RTVSPropertyOp8
 70
     1
102
RTVSPropertyOp9
 70
     1
102
RTVSPropertyOp10
 70
     1
102
RTVSPropertyOp11
 70
     1
102
RTVSPropertyOp12
 70
     1
102
RTVSPropertyOp13
 70
     1
102
RTVSPropertyOp14
 70
     1
102
RTVSPropertyOp15
 70
     1
102
RTVSPropertyOp16
 70
     1
102
RTVSPropertyOp17
 70
     1
102
RTVSPropertyOp18
 70
     1
102
RTVSPropertyOp19
 70
     1
102
RTVSPropertyOp20
 70
     1
102
RTVSPropertyOp21
 70
     1
102
RTVSPropertyOp22
 70
     1
102
RTVSPropertyOp23
 70
     1
102
RTVSPropertyOp24
 70
     1
102
RTVSPropertyOp25
 70
     1
102
RTVSPropertyOp26
 70
     1
102
RTVSPropertyOp27
 70
     1
102
RTVSPropertyOp28
 70
     1
102
RTVSPropertyOp29
 70
     1
102
RTVSPropertyOp30
 70
     1
102
RTVSPropertyOp31
 70
     1
102
RTVSPropertyOp32
 70
     1
102
RTVSPropertyOp33
 70
     1
102
RTVSPropertyOp34
 70
     1
102
RTVSPropertyOp35
 70
     1
102
RTVSPropertyOp36
 70
     1
102
RTVSPropertyOp37
 70
     1
102
RTVSPropertyOp38
 70
     1
102
RTVSPropertyOp39
 70
     1
102
RTVSPropertyOp40
 70
     1
102
RTVSPropertyOp41
 70
     1
102
RTVSPropertyOp42
 70
     1
102
RTVSPropertyOp43
 70
     1
102
RTVSPropertyOp44
 70
     1
102
RTVSPropertyOp45
 70
     1
102
RTVSPropertyOp46
 70
     1
102
RTVSPropertyOp47
 70
     1
102
RTVSPropertyOp48
 70
     1
102
RTVSPropertyOp49
 70
     1
102
RTVSPropertyOp50
 70
     1
102
RTVSPropertyOp51
 70
     0
102
RTVSPropertyOp52
 70
     0
102
RTVSPropertyOp53
 70
     1
102
RTVSPropertyOp54
 70
     1
102
RTVSPropertyOp55
 70
     1
102
RTVSPropertyOp56
 70
     1
102
RTVSPropertyOp57
 70
     1
102
RTVSPropertyOp58
 70
     1
102
RTVSPropertyOp59
 70
     1
102
RTVSPropertyOp60
 70
     1
102
RTVSPropertyOp61
 70
     1
102
RTVSPropertyOp62
 70
     1
  0
XRECORD
  5
4929
102
{ACAD_REACTORS
330
4928
102
}
330
4928
100
AcDbXrecord
280
     1
102
RTVSPost2010Prop28
280
     0
102
RTVSPost2010PropOp28
 70
     1
102
RTVSPost2010Prop29
280
     1
102
RTVSPost2010PropOp29
 70
     1
102
RTVSPost2010Prop30
280
     1
102
RTVSPost2010PropOp30
 70
     1
102
RTVSPost2010Prop31
280
     0
102
RTVSPost2010PropOp31
 70
     1
102
RTVSPost2010Prop32
280
     0
102
RTVSPost2010PropOp32
 70
     1
102
RTVSPost2010Prop33
280
     0
102
RTVSPost2010PropOp33
 70
     1
102
RTVSPost2010Prop34
280
     0
102
RTVSPost2010PropOp34
 70
     1
102
RTVSPost2010Prop35
280
     0
102
RTVSPost2010PropOp35
 70
     1
102
RTVSPost2010Prop36
280
     0
102
RTVSPost2010PropOp36
 70
     1
102
RTVSPost2010Prop37
 90
       50
102
RTVSPost2010PropOp37
 70
     1
102
RTVSPost2010Prop38
140
0.0
102
RTVSPost2010PropOp38
 70
     1
102
RTVSPost2010Prop39
140
1.0
102
RTVSPost2010PropOp39
 70
     1
102
RTVSPost2010Prop40
 90
        0
102
RTVSPost2010PropOp40
 70
     1
102
RTVSPost2010Prop41ColorIndex
 90
       18
102
RTVSPost2010Prop41ColorRGB
 90
        0
102
RTVSPost2010PropOp41
 70
     1
102
RTVSPost2010Prop42
 90
       50
102
RTVSPost2010PropOp42
 70
     1
102
RTVSPost2010Prop43
 90
        3
102
RTVSPost2010PropOp43
 70
     1
102
RTVSPost2010Prop44ColorIndex
 90
        5
102
RTVSPost2010Prop44ColorRGB
 90
      255
102
RTVSPost2010PropOp44
 70
     1
102
RTVSPost2010Prop45
280
     0
102
RTVSPost2010PropOp45
 70
     1
102
RTVSPost2010Prop46
 90
       50
102
RTVSPost2010PropOp46
 70
     1
102
RTVSPost2010Prop47
 90
       50
102
RTVSPost2010PropOp47
 70
     1
102
RTVSPost2010Prop48
 90
       50
102
RTVSPost2010PropOp48
 70
     1
102
RTVSPost2010Prop49
280
     0
102
RTVSPost2010PropOp49
 70
     1
102
RTVSPost2010Prop50
 90
       50
102
RTVSPost2010PropOp50
 70
     1
102
RTVSPost2010Prop51ColorIndex
 90
      256
102
RTVSPost2010Prop51ColorRGB
 90
-16777216
102
RTVSPost2010PropOp51
 70
     0
102
RTVSPost2010Prop52
140
1.0
102
RTVSPost2010PropOp52
 70
     0
102
RTVSPost2010Prop53
 90
        2
102
RTVSPost2010PropOp53
 70
     1
102
RTVSPost2010Prop54
  1
strokes_ogs.tif
102
RTVSPost2010PropOp54
 70
     1
102
RTVSPost2010Prop55
280
     0
102
RTVSPost2010PropOp55
 70
     1
102
RTVSPost2010Prop56
140
1.0
102
RTVSPost2010PropOp56
 70
     1
102
RTVSPost2010Prop57
140
1.0
102
RTVSPost2010PropOp57
 70
     1
102
RTVSPropertyOp0
 70
     1
102
RTVSPropertyOp1
 70
     1
102
RTVSPropertyOp2
 70
     1
102
RTVSPropertyOp3
 70
     1
102
RTVSPropertyOp4
 70
     1
102
RTVSPropertyOp5
 70
     1
102
RTVSPropertyOp6
 70
     1
102
RTVSPropertyOp7
 70
     1
102
RTVSPropertyOp8
 70
     1
102
RTVSPropertyOp9
 70
     1
102
RTVSPropertyOp10
 70
     1
102
RTVSPropertyOp11
 70
     1
102
RTVSPropertyOp12
 70
     1
102
RTVSPropertyOp13
 70
     1
102
RTVSPropertyOp14
 70
     1
102
RTVSPropertyOp15
 70
     1
102
RTVSPropertyOp16
 70
     1
102
RTVSPropertyOp17
 70
     1
102
RTVSPropertyOp18
 70
     1
102
RTVSPropertyOp19
 70
     1
102
RTVSPropertyOp20
 70
     1
102
RTVSPropertyOp21
 70
     1
102
RTVSPropertyOp22
 70
     1
102
RTVSPropertyOp23
 70
     1
102
RTVSPropertyOp24
 70
     1
102
RTVSPropertyOp25
 70
     1
102
RTVSPropertyOp26
 70
     1
102
RTVSPropertyOp27
 70
     1
102
RTVSPropertyOp28
 70
     1
102
RTVSPropertyOp29
 70
     1
102
RTVSPropertyOp30
 70
     1
102
RTVSPropertyOp31
 70
     1
102
RTVSPropertyOp32
 70
     1
102
RTVSPropertyOp33
 70
     1
102
RTVSPropertyOp34
 70
     1
102
RTVSPropertyOp35
 70
     1
102
RTVSPropertyOp36
 70
     1
102
RTVSPropertyOp37
 70
     1
102
RTVSPropertyOp38
 70
     1
102
RTVSPropertyOp39
 70
     1
102
RTVSPropertyOp40
 70
     1
102
RTVSPropertyOp41
 70
     1
102
RTVSPropertyOp42
 70
     1
102
RTVSPropertyOp43
 70
     1
102
RTVSPropertyOp44
 70
     1
102
RTVSPropertyOp45
 70
     1
102
RTVSPropertyOp46
 70
     1
102
RTVSPropertyOp47
 70
     1
102
RTVSPropertyOp48
 70
     1
102
RTVSPropertyOp49
 70
     1
102
RTVSPropertyOp50
 70
     1
102
RTVSPropertyOp51
 70
     0
102
RTVSPropertyOp52
 70
     0
102
RTVSPropertyOp53
 70
     1
102
RTVSPropertyOp54
 70
     1
102
RTVSPropertyOp55
 70
     1
102
RTVSPropertyOp56
 70
     1
102
RTVSPropertyOp57
 70
     1
102
RTVSPropertyOp58
 70
     1
102
RTVSPropertyOp59
 70
     1
102
RTVSPropertyOp60
 70
     1
102
RTVSPropertyOp61
 70
     1
102
RTVSPropertyOp62
 70
     1
  0
ENDSEC
  0
EOF
