  0
SECTION
  2
HEADER
  9
$ACADVER
  1
AC1009
  9
$INSBASE
 10
0.0
 20
0.0
 30
0.0
  9
$EXTMIN
 10
25.006421913280281
 20
2.7369295432329741
 30
-0.0015258207003583
  9
$EXTMAX
 10
59.009501035403687
 20
24.747914574638731
 30
0.0000000349246037
  9
$LIMMIN
 10
0.0
 20
0.0
  9
$LIMMAX
 10
12.0
 20
9.0
  9
$ORTHOMODE
 70
     0
  9
$REGENMODE
 70
     1
  9
$FILLMODE
 70
     1
  9
$QTEXTMODE
 70
     0
  9
$MIRRTEXT
 70
     0
  9
$DRAGMODE
 70
     2
  9
$LTSCALE
 40
1.0
  9
$OSMODE
 70
    63
  9
$ATTMODE
 70
     1
  9
$TEXTSIZE
 40
0.2
  9
$TRACEWID
 40
0.05
  9
$TEXTSTYLE
  7
STANDARD
  9
$CLAYER
  8
DIMENSIONS
  9
$CELTYPE
  6
BYLAYER
  9
$CECOLOR
 62
   256
  9
$DIMSCALE
 40
1.0
  9
$DIMASZ
 40
0.18
  9
$DIMEXO
 40
0.0625
  9
$DIMDLI
 40
0.38
  9
$DIMRND
 40
0.0
  9
$DIMDLE
 40
0.0
  9
$DIMEXE
 40
0.18
  9
$DIMTP
 40
0.0
  9
$DIMTM
 40
0.0
  9
$DIMTXT
 40
0.125
  9
$DIMCEN
 40
0.09
  9
$DIMTSZ
 40
0.0
  9
$DIMTOL
 70
     0
  9
$DIMLIM
 70
     0
  9
$DIMTIH
 70
     1
  9
$DIMTOH
 70
     1
  9
$DIMSE1
 70
     0
  9
$DIMSE2
 70
     0
  9
$DIMTAD
 70
     0
  9
$DIMZIN
 70
     0
  9
$DIMBLK
  1

  9
$DIMASO
 70
     1
  9
$DIMSHO
 70
     1
  9
$DIMPOST
  1

  9
$DIMAPOST
  1

  9
$DIMALT
 70
     1
  9
$DIMALTD
 70
     2
  9
$DIMALTF
 40
25.399999999999999
  9
$DIMLFAC
 40
1.0
  9
$DIMTOFL
 70
     0
  9
$DIMTVP
 40
0.0
  9
$DIMTIX
 70
     0
  9
$DIMSOXD
 70
     0
  9
$DIMSAH
 70
     0
  9
$DIMBLK1
  1

  9
$DIMBLK2
  1

  9
$DIMSTYLE
  2
STANDARD
  9
$DIMCLRD
 70
     0
  9
$DIMCLRE
 70
     0
  9
$DIMCLRT
 70
     0
  9
$DIMTFAC
 40
1.0
  9
$DIMGAP
 40
0.09
  9
$LUNITS
 70
     2
  9
$LUPREC
 70
     4
  9
$SKETCHINC
 40
0.1
  9
$FILLETRAD
 40
0.0
  9
$AUNITS
 70
     0
  9
$AUPREC
 70
     0
  9
$MENU
  1
.
  9
$ELEVATION
 40
0.0
  9
$PELEVATION
 40
0.0
  9
$THICKNESS
 40
0.0
  9
$LIMCHECK
 70
     0
  9
$BLIPMODE
 70
     0
  9
$CHAMFERA
 40
0.0
  9
$CHAMFERB
 40
0.0
  9
$SKPOLY
 70
     0
  9
$TDCREATE
 40
2456785.5752580562
  9
$TDUPDATE
 40
2458191.5659329519
  9
$TDINDWG
 40
0.1274501736
  9
$TDUSRTIMER
 40
0.1274501273
  9
$USRTIMER
 70
     1
  9
$ANGBASE
 50
0.0
  9
$ANGDIR
 70
     0
  9
$PDMODE
 70
     0
  9
$PDSIZE
 40
0.0
  9
$PLINEWID
 40
0.0
  9
$COORDS
 70
     2
  9
$SPLFRAME
 70
     0
  9
$SPLINETYPE
 70
     6
  9
$SPLINESEGS
 70
     8
  9
$ATTDIA
 70
     0
  9
$ATTREQ
 70
     1
  9
$HANDLING
 70
     1
  9
$HANDSEED
  5
324D
  9
$SURFTAB1
 70
     6
  9
$SURFTAB2
 70
     6
  9
$SURFTYPE
 70
     6
  9
$SURFU
 70
     6
  9
$SURFV
 70
     6
  9
$UCSNAME
  2

  9
$UCSORG
 10
0.0
 20
0.0
 30
0.0
  9
$UCSXDIR
 10
1.0
 20
0.0
 30
0.0
  9
$UCSYDIR
 10
0.0
 20
1.0
 30
0.0
  9
$PUCSNAME
  2

  9
$PUCSORG
 10
0.0
 20
0.0
 30
0.0
  9
$PUCSXDIR
 10
1.0
 20
0.0
 30
0.0
  9
$PUCSYDIR
 10
0.0
 20
1.0
 30
0.0
  9
$USERI1
 70
     0
  9
$USERI2
 70
     0
  9
$USERI3
 70
     0
  9
$USERI4
 70
     0
  9
$USERI5
 70
     0
  9
$USERR1
 40
0.0
  9
$USERR2
 40
0.0
  9
$USERR3
 40
0.0
  9
$USERR4
 40
0.0
  9
$USERR5
 40
0.0
  9
$WORLDVIEW
 70
     1
  9
$SHADEDGE
 70
     3
  9
$SHADEDIF
 70
    70
  9
$TILEMODE
 70
     1
  9
$MAXACTVP
 70
    64
  9
$PLIMCHECK
 70
     0
  9
$PEXTMIN
 10
0.0
 20
0.0
 30
0.0
  9
$PEXTMAX
 10
0.0
 20
0.0
 30
0.0
  9
$PLIMMIN
 10
0.0
 20
0.0
  9
$PLIMMAX
 10
12.0
 20
9.0
  9
$UNITMODE
 70
     0
  9
$VISRETAIN
 70
     1
  9
$PLINEGEN
 70
     0
  9
$PSLTSCALE
 70
     1
  0
ENDSEC
  0
SECTION
  2
TABLES
  0
TABLE
  2
VPORT
 70
     1
  0
VPORT
  2
*ACTIVE
 70
     0
 10
0.0
 20
0.0
 11
1.0
 21
1.0
 12
38.0045564200191
 22
6.7922393230075349
 13
0.0
 23
0.0
 14
0.5
 24
0.5
 15
0.5
 25
0.5
 16
0.0
 26
0.0
 36
1.0
 17
0.0
 27
0.0
 37
0.0
 40
22.385900818501671
 41
2.238323353293413
 42
50.0
 43
0.0
 44
0.0
 50
0.0
 51
0.0
 71
     0
 72
  1000
 73
     1
 74
     3
 75
     0
 76
     1
 77
     0
 78
     0
  0
ENDTAB
  0
TABLE
  2
LTYPE
 70
     3
  0
LTYPE
  2
CONTINUOUS
 70
     0
  3
Solid line
 72
    65
 73
     0
 40
0.0
  0
LTYPE
  2
PHANTOM2
 70
     0
  3
Phantom (.5x) ___ _ _ ___ _ _ ___ _ _ ___ _ _
 72
    65
 73
     6
 40
1.25
 49
0.625
 49
-0.125
 49
0.125
 49
-0.125
 49
0.125
 49
-0.125
  0
ENDTAB
  0
TABLE
  2
LAYER
 70
    11
  0
LAYER
  2
0
 70
     0
 62
     7
  6
CONTINUOUS
  0
LAYER
  2
DEFPOINTS
 70
     0
 62
     7
  6
CONTINUOUS
  0
LAYER
  2
DIMENSIONS
 70
     0
 62
     1
  6
CONTINUOUS
  0
LAYER
  2
CONVERTER
 70
     0
 62
     7
  6
CONTINUOUS
  0
LAYER
  2
GRID
 70
     0
 62
     7
  6
CONTINUOUS
  0
LAYER
  2
PINOUT
 70
     0
 62
     1
  6
CONTINUOUS
  0
LAYER
  2
FRAME
 70
     0
 62
     7
  6
CONTINUOUS
  0
LAYER
  2
FRAME_TEXT
 70
     0
 62
     1
  6
CONTINUOUS
  0
LAYER
  2
CONSTRUCT
 70
     0
 62
   141
  6
CONTINUOUS
  0
LAYER
  2
DIM
 70
     0
 62
     1
  6
CONTINUOUS
  0
LAYER
  2
CONSTRUCTION
 70
     0
 62
   141
  6
CONTINUOUS
  0
ENDTAB
  0
TABLE
  2
STYLE
 70
     4
  0
STYLE
  2
STANDARD
 70
     0
 40
0.0
 41
1.0
 50
0.0
 71
     0
 42
0.2
  3
txt
  4

  0
STYLE
  2
ANNOTATIVE
 70
     0
 40
0.0
 41
1.0
 50
0.0
 71
     0
 42
0.2
  3
txt
  4

  0
ENDTAB
  0
TABLE
  2
VIEW
 70
     1
  0
ENDTAB
  0
TABLE
  2
UCS
 70
     0
  0
ENDTAB
  0
TABLE
  2
APPID
 70
    13
  0
APPID
  2
ACAD
 70
     0
  0
APPID
  2
ACADANNOPO
 70
     0
  0
APPID
  2
ACADANNOTATIVE
 70
     0
  0
APPID
  2
ACAD_DSTYLE_DIMJAG
 70
     0
  0
APPID
  2
ACAD_DSTYLE_DIMTALN
 70
     0
  0
APPID
  2
ACAD_MLEADERVER
 70
     0
  0
APPID
  2
ACAD_NAV_VCDISPLAY
 70
     0
  0
APPID
  2
ACAD_EXEMPT_FROM_CAD_STANDARDS
 70
     0
  0
APPID
  2
ACAD_DSTYLE_DIMBREAK
 70
     0
  0
APPID
  2
ACAECLAYERSTANDARD
 70
     0
  0
APPID
  2
ACCMTRANSPARENCY
 70
     0
  0
APPID
  2
ACADANNOMONITORALERTICONDI
 70
     0
  0
APPID
  2
ACAD_PSEXT
 70
     0
  0
ENDTAB
  0
TABLE
  2
DIMSTYLE
 70
     4
  0
DIMSTYLE
  2
STANDARD
 70
     0
  3

  4

  5

  6

  7

 40
1.0
 41
0.18
 42
0.0625
 43
0.38
 44
0.18
 45
0.0
 46
0.0
 47
0.0
 48
0.0
140
0.125
141
0.09
142
0.0
143
25.399999999999999
144
1.0
145
0.0
146
1.0
147
0.09
 71
     0
 72
     0
 73
     1
 74
     1
 75
     0
 76
     0
 77
     0
 78
     0
170
     1
171
     2
172
     0
173
     0
174
     0
175
     0
176
     0
177
     0
178
     0
  0
DIMSTYLE
  2
ANNOTATIVE
 70
     0
  3

  4

  5

  6

  7

 40
0.0
 41
0.18
 42
0.0625
 43
0.38
 44
0.18
 45
0.0
 46
0.0
 47
0.0
 48
0.0
140
0.18
141
0.09
142
0.0
143
25.399999999999999
144
1.0
145
0.0
146
1.0
147
0.09
 71
     0
 72
     0
 73
     1
 74
     1
 75
     0
 76
     0
 77
     0
 78
     0
170
     0
171
     2
172
     0
173
     0
174
     0
175
     0
176
     0
177
     0
178
     0
  0
ENDTAB
  0
ENDSEC
  0
SECTION
  2
BLOCKS
  0
BLOCK
  8
0
  2
$MODEL_SPACE
 70
     0
 10
0.0
 20
0.0
 30
0.0
  3
$MODEL_SPACE
  1

  0
ENDBLK
  5
21
  8
0
  0
BLOCK
 67
     1
  8
0
  2
$PAPER_SPACE
 70
     0
 10
0.0
 20
0.0
 30
0.0
  3
$PAPER_SPACE
  1

  0
ENDBLK
  5
5B
 67
     1
  8
0
  0
BLOCK
  8
0
  2
*D1
 70
     1
 10
0.0
 20
0.0
 30
0.0
  3
*D1
  1

  0
LINE
  5
2ED3
  8
DIMENSIONS
 62
     0
 10
29.843529267254091
 20
17.759734666833669
 30
0.0
 11
28.47521649583695
 21
17.759734666833669
 31
0.0
  0
LINE
  5
2ED4
  8
DIMENSIONS
 62
     0
 10
29.843529267254091
 20
16.959734666833668
 30
0.0
 11
28.47521649583695
 21
16.959734666833668
 31
0.0
  0
LINE
  5
2ED5
  8
DIMENSIONS
 62
     0
 10
28.655216495836939
 20
17.57973466683368
 30
0.0
 11
28.655216495836939
 21
17.139734666833672
 31
0.0
  0
LINE
  5
2ED6
  8
DIMENSIONS
 62
     0
 10
28.655216495836939
 20
17.359734666833671
 30
0.0
 11
28.388525638812752
 21
17.235228295465259
 31
0.0
  0
LINE
  5
2ED7
  8
DIMENSIONS
 62
     0
 10
28.388525638812752
 20
17.235228295465259
 30
0.0
 11
28.208525638812741
 21
17.235228295465259
 31
0.0
  0
TEXT
  8
DIMENSIONS
  40
0.125
  5
3246
  62
0
  72
0
  71
0
 10
27.3681
 20
17.0140
 30
0.000000
  1
0.800 [20.32]
  0
SOLID
  5
2ED9
  8
DIMENSIONS
 62
     0
 10
28.625216495836941
 20
17.57973466683368
 30
0.0
 11
28.685216495836951
 21
17.57973466683368
 31
0.0
 12
28.655216495836939
 22
17.759734666833669
 32
0.0
 13
28.655216495836939
 23
17.759734666833669
 33
0.0
  0
SOLID
  5
2EDA
  8
DIMENSIONS
 62
     0
 10
28.625216495836941
 20
17.139734666833672
 30
0.0
 11
28.685216495836951
 21
17.139734666833672
 31
0.0
 12
28.655216495836939
 22
16.959734666833668
 32
0.0
 13
28.655216495836939
 23
16.959734666833668
 33
0.0
  0
POINT
  5
2EDB
  8
DEFPOINTS
 62
     0
 10
29.906029267254091
 20
17.759734666833669
 30
0.0
  0
POINT
  5
2EDC
  8
DEFPOINTS
 62
     0
 10
29.906029267254091
 20
16.959734666833668
 30
0.0
  0
POINT
  5
2EDD
  8
DEFPOINTS
 62
     0
 10
28.655216495836939
 20
16.959734666833668
 30
0.0
  0
ENDBLK
  5
159A
  8
0
  0
BLOCK
  8
0
  2
*D2
 70
     1
 10
0.0
 20
0.0
 30
0.0
  3
*D2
  1

  0
LINE
  5
26CF
  8
DIMENSIONS
 62
     0
 10
29.24352926725409
 20
18.109734666833671
 30
0.0
 11
28.47521649583695
 21
18.109734666833671
 31
0.0
  0
LINE
  5
26D0
  8
DIMENSIONS
 62
     0
 10
29.843529267254091
 20
17.759734666833669
 30
0.0
 11
28.47521649583695
 21
17.759734666833669
 31
0.0
  0
LINE
  5
26D1
  8
DIMENSIONS
 62
     0
 10
28.655216495836939
 20
18.28973466683367
 30
0.0
 11
28.655216495836939
 21
18.46973466683367
 31
0.0
  0
LINE
  5
26D2
  8
DIMENSIONS
 62
     0
 10
28.655216495836939
 20
17.57973466683368
 30
0.0
 11
28.655216495836939
 21
17.39973466683367
 31
0.0
  0
SOLID
  5
26D3
  8
DIMENSIONS
 62
     0
 10
28.625216495836941
 20
18.28973466683367
 30
0.0
 11
28.685216495836951
 21
18.28973466683367
 31
0.0
 12
28.655216495836939
 22
18.109734666833671
 32
0.0
 13
28.655216495836939
 23
18.109734666833671
 33
0.0
  0
SOLID
  5
26D4
  8
DIMENSIONS
 62
     0
 10
28.625216495836941
 20
17.57973466683368
 30
0.0
 11
28.685216495836951
 21
17.57973466683368
 31
0.0
 12
28.655216495836939
 22
17.759734666833669
 32
0.0
 13
28.655216495836939
 23
17.759734666833669
 33
0.0
  0
INSERT
  5
26D5
  8
DIMENSIONS
  2
*U169
 10
0.0
 20
0.0
 30
0.0
  0
POINT
  5
26D6
  8
DEFPOINTS
 62
     0
 10
29.30602926725409
 20
18.109734666833671
 30
0.0
  0
POINT
  5
26D7
  8
DEFPOINTS
 62
     0
 10
29.906029267254091
 20
17.759734666833669
 30
0.0
  0
POINT
  5
26D8
  8
DEFPOINTS
 62
     0
 10
28.655216495836939
 20
17.759734666833669
 30
0.0
  0
ENDBLK
  5
15A7
  8
0
  0
BLOCK
  8
0
  2
*D3
 70
     1
 10
0.0
 20
0.0
 30
0.0
  3
*D3
  1

  0
LINE
  5
26D9
  8
DIMENSIONS
 62
     0
 10
29.24352926725409
 20
16.609734666833671
 30
0.0
 11
28.47521649583695
 21
16.609734666833671
 31
0.0
  0
LINE
  5
26DA
  8
DIMENSIONS
 62
     0
 10
29.843529267254091
 20
16.959734666833668
 30
0.0
 11
28.47521649583695
 21
16.959734666833668
 31
0.0
  0
LINE
  5
26DB
  8
DIMENSIONS
 62
     0
 10
28.655216495836939
 20
16.429734666833671
 30
0.0
 11
28.655216495836939
 21
16.249734666833671
 31
0.0
  0
LINE
  5
26DC
  8
DIMENSIONS
 62
     0
 10
28.655216495836939
 20
17.139734666833672
 30
0.0
 11
28.655216495836939
 21
17.319734666833671
 31
0.0
  0
SOLID
  5
26DD
  8
DIMENSIONS
 62
     0
 10
28.625216495836941
 20
16.429734666833671
 30
0.0
 11
28.685216495836951
 21
16.429734666833671
 31
0.0
 12
28.655216495836939
 22
16.609734666833671
 32
0.0
 13
28.655216495836939
 23
16.609734666833671
 33
0.0
  0
SOLID
  5
26DE
  8
DIMENSIONS
 62
     0
 10
28.625216495836941
 20
17.139734666833672
 30
0.0
 11
28.685216495836951
 21
17.139734666833672
 31
0.0
 12
28.655216495836939
 22
16.959734666833668
 32
0.0
 13
28.655216495836939
 23
16.959734666833668
 33
0.0
  0
INSERT
  5
26DF
  8
DIMENSIONS
  2
*U170
 10
0.0
 20
0.0
 30
0.0
  0
POINT
  5
26E0
  8
DEFPOINTS
 62
     0
 10
29.30602926725409
 20
16.609734666833671
 30
0.0
  0
POINT
  5
26E1
  8
DEFPOINTS
 62
     0
 10
29.906029267254091
 20
16.959734666833668
 30
0.0
  0
POINT
  5
26E2
  8
DEFPOINTS
 62
     0
 10
28.655216495836939
 20
16.959734666833668
 30
0.0
  0
ENDBLK
  5
15B4
  8
0
  0
BLOCK
  8
0
  2
*D4
 70
     1
 10
0.0
 20
0.0
 30
0.0
  3
*D4
  1

  0
LINE
  5
26E3
  8
DIMENSIONS
 62
     0
 10
31.768529267254049
 20
13.08317335376581
 30
0.0
 11
32.844744318380492
 21
13.08317335376581
 31
0.0
  0
LINE
  5
26E4
  8
DIMENSIONS
 62
     0
 10
31.768529267254049
 20
13.89317335376581
 30
0.0
 11
32.844744318380492
 21
13.89317335376581
 31
0.0
  0
LINE
  5
26E5
  8
DIMENSIONS
 62
     0
 10
32.664744318380478
 20
13.26317335376581
 30
0.0
 11
32.664744318380478
 21
13.31527161364165
 31
0.0
  0
LINE
  5
26E6
  8
DIMENSIONS
 62
     0
 10
32.664744318380478
 20
13.713173353765811
 30
0.0
 11
32.664744318380478
 21
13.655486484037279
 31
0.0
  0
SOLID
  5
26E7
  8
DIMENSIONS
 62
     0
 10
32.634744318380477
 20
13.26317335376581
 30
0.0
 11
32.694744318380486
 21
13.26317335376581
 31
0.0
 12
32.664744318380478
 22
13.08317335376581
 32
0.0
 13
32.664744318380478
 23
13.08317335376581
 33
0.0
  0
SOLID
  5
26E8
  8
DIMENSIONS
 62
     0
 10
32.634744318380477
 20
13.713173353765811
 30
0.0
 11
32.694744318380486
 21
13.713173353765811
 31
0.0
 12
32.664744318380478
 22
13.89317335376581
 32
0.0
 13
32.664744318380478
 23
13.89317335376581
 33
0.0
  0
INSERT
  5
26E9
  8
DIMENSIONS
  2
*U171
 10
0.0
 20
0.0
 30
0.0
  0
POINT
  5
26EA
  8
DEFPOINTS
 62
     0
 10
31.706029267254049
 20
13.08317335376581
 30
0.0
  0
POINT
  5
26EB
  8
DEFPOINTS
 62
     0
 10
31.706029267254049
 20
13.89317335376581
 30
0.0
  0
POINT
  5
26EC
  8
DEFPOINTS
 62
     0
 10
32.664744318380478
 20
13.89317335376581
 30
0.0
  0
ENDBLK
  5
15DF
  8
0
  0
BLOCK
  8
0
  2
*D5
 70
     1
 10
0.0
 20
0.0
 30
0.0
  3
*D5
  1

  0
LINE
  5
26ED
  8
DIMENSIONS
 62
     0
 10
29.243529267254051
 20
13.89317335376581
 30
0.0
 11
28.396191465359099
 21
13.89317335376581
 31
0.0
  0
LINE
  5
26EE
  8
DIMENSIONS
 62
     0
 10
29.82352926725406
 20
14.14317335376581
 30
0.0
 11
28.396191465359099
 21
14.14317335376581
 31
0.0
  0
LINE
  5
26EF
  8
DIMENSIONS
 62
     0
 10
28.576191465359098
 20
13.713173353765811
 30
0.0
 11
28.576191465359098
 21
13.533173353765809
 31
0.0
  0
LINE
  5
26F0
  8
DIMENSIONS
 62
     0
 10
28.576191465359098
 20
14.32317335376581
 30
0.0
 11
28.576191465359098
 21
14.579722482073119
 31
0.0
  0
LINE
  5
26F1
  8
DIMENSIONS
 62
     0
 10
28.576191465359098
 20
14.579722482073119
 30
0.0
 11
28.756191465359102
 21
14.579722482073119
 31
0.0
  0
SOLID
  5
26F2
  8
DIMENSIONS
 62
     0
 10
28.546191465359101
 20
13.713173353765811
 30
0.0
 11
28.6061914653591
 21
13.713173353765811
 31
0.0
 12
28.576191465359098
 22
13.89317335376581
 32
0.0
 13
28.576191465359098
 23
13.89317335376581
 33
0.0
  0
SOLID
  5
26F3
  8
DIMENSIONS
 62
     0
 10
28.546191465359101
 20
14.32317335376581
 30
0.0
 11
28.6061914653591
 21
14.32317335376581
 31
0.0
 12
28.576191465359098
 22
14.14317335376581
 32
0.0
 13
28.576191465359098
 23
14.14317335376581
 33
0.0
  0
INSERT
  5
26F4
  8
DIMENSIONS
  2
*U172
 10
0.0
 20
0.0
 30
0.0
  0
POINT
  5
26F5
  8
DEFPOINTS
 62
     0
 10
29.306029267254051
 20
13.89317335376581
 30
0.0
  0
POINT
  5
26F6
  8
DEFPOINTS
 62
     0
 10
29.88602926725406
 20
14.14317335376581
 30
0.0
  0
POINT
  5
26F7
  8
DEFPOINTS
 62
     0
 10
28.576191465359098
 20
14.14317335376581
 30
0.0
  0
ENDBLK
  5
15EC
  8
0
  0
BLOCK
  8
0
  2
*D6
 70
     1
 10
0.0
 20
0.0
 30
0.0
  3
*D6
  1

  0
LINE
  5
26F8
  8
DIMENSIONS
 62
     0
 10
29.30602926725409
 20
18.172234666833671
 30
0.0
 11
29.30602926725409
 21
19.190721995573458
 31
0.0
  0
LINE
  5
26F9
  8
DIMENSIONS
 62
     0
 10
31.706029267254092
 20
18.172234666833671
 30
0.0
 11
31.706029267254092
 21
19.190721995573458
 31
0.0
  0
LINE
  5
26FA
  8
DIMENSIONS
 62
     0
 10
29.486029267254089
 20
19.010721995573459
 30
0.0
 11
29.929676815420692
 21
19.010721995573459
 31
0.0
  0
LINE
  5
26FB
  8
DIMENSIONS
 62
     0
 10
31.526029267254088
 20
19.010721995573459
 30
0.0
 11
31.11274639250118
 21
19.010721995573459
 31
0.0
  0
SOLID
  5
26FC
  8
DIMENSIONS
 62
     0
 10
29.486029267254089
 20
19.04072199557347
 30
0.0
 11
29.486029267254089
 21
18.980721995573461
 31
0.0
 12
29.30602926725409
 22
19.010721995573459
 32
0.0
 13
29.30602926725409
 23
19.010721995573459
 33
0.0
  0
SOLID
  5
26FD
  8
DIMENSIONS
 62
     0
 10
31.526029267254088
 20
19.04072199557347
 30
0.0
 11
31.526029267254088
 21
18.980721995573461
 31
0.0
 12
31.706029267254092
 22
19.010721995573459
 32
0.0
 13
31.706029267254092
 23
19.010721995573459
 33
0.0
  0
INSERT
  5
26FE
  8
DIMENSIONS
  2
*U173
 10
0.0
 20
0.0
 30
0.0
  0
POINT
  5
26FF
  8
DEFPOINTS
 62
     0
 10
29.30602926725409
 20
18.109734666833671
 30
0.0
  0
POINT
  5
2700
  8
DEFPOINTS
 62
     0
 10
31.706029267254092
 20
18.109734666833671
 30
0.0
  0
POINT
  5
2701
  8
DEFPOINTS
 62
     0
 10
31.706029267254092
 20
19.010721995573459
 30
0.0
  0
ENDBLK
  5
15FA
  8
0
  0
BLOCK
  8
0
  2
*D7
 70
     1
 10
0.0
 20
0.0
 30
0.0
  3
*D7
  1

  0
LINE
  5
292F
  8
DIMENSIONS
 62
     0
 10
29.24352926725409
 20
18.109734666833671
 30
0.0
 11
26.572449415982941
 21
18.109734666833671
 31
0.0
  0
LINE
  5
2930
  8
DIMENSIONS
 62
     0
 10
29.24352926725409
 20
16.609734666833671
 30
0.0
 11
26.572449415982941
 21
16.609734666833671
 31
0.0
  0
LINE
  5
2931
  8
DIMENSIONS
 62
     0
 10
26.752449415982941
 20
17.929734666833671
 30
0.0
 11
26.752449415982941
 21
17.75486921237853
 31
0.0
  0
LINE
  5
2932
  8
DIMENSIONS
 62
     0
 10
26.752449415982941
 20
16.78973466683367
 30
0.0
 11
26.752449415982941
 21
17.414654341982899
 31
0.0
  0
SOLID
  5
2933
  8
DIMENSIONS
 62
     0
 10
26.72244941598294
 20
17.929734666833671
 30
0.0
 11
26.782449415982938
 21
17.929734666833671
 31
0.0
 12
26.752449415982941
 22
18.109734666833671
 32
0.0
 13
26.752449415982941
 23
18.109734666833671
 33
0.0
  0
SOLID
  5
2934
  8
DIMENSIONS
 62
     0
 10
26.72244941598294
 20
16.78973466683367
 30
0.0
 11
26.782449415982938
 21
16.78973466683367
 31
0.0
 12
26.752449415982941
 22
16.609734666833671
 32
0.0
 13
26.752449415982941
 23
16.609734666833671
 33
0.0
  0
INSERT
  5
2935
  8
DIMENSIONS
  2
*U197
 10
0.0
 20
0.0
 30
0.0
  0
POINT
  5
2936
  8
DEFPOINTS
 62
     0
 10
29.30602926725409
 20
18.109734666833671
 30
0.0
  0
POINT
  5
2937
  8
DEFPOINTS
 62
     0
 10
29.30602926725409
 20
16.609734666833671
 30
0.0
  0
POINT
  5
2938
  8
DEFPOINTS
 62
     0
 10
26.752449415982941
 20
16.609734666833671
 30
0.0
  0
ENDBLK
  5
1607
  8
0
  0
BLOCK
  8
0
  2
*D8
 70
     1
 10
0.0
 20
0.0
 30
0.0
  3
*D8
  1

  0
LINE
  5
270C
  8
DIMENSIONS
 62
     0
 10
29.30602926725409
 20
18.172234666833671
 30
0.0
 11
29.30602926725409
 21
18.756768060424889
 31
0.0
  0
LINE
  5
270D
  8
DIMENSIONS
 62
     0
 10
29.906029267254091
 20
17.822234666833669
 30
0.0
 11
29.906029267254091
 21
18.756768060424889
 31
0.0
  0
LINE
  5
270E
  8
DIMENSIONS
 62
     0
 10
29.726029267254091
 20
18.576768060424889
 30
0.0
 11
29.486029267254089
 21
18.576768060424889
 31
0.0
  0
LINE
  5
270F
  8
DIMENSIONS
 62
     0
 10
29.30602926725409
 20
18.576768060424889
 30
0.0
 11
29.12602926725409
 21
18.576768060424889
 31
0.0
  0
SOLID
  5
2710
  8
DIMENSIONS
 62
     0
 10
29.726029267254091
 20
18.606768060424891
 30
0.0
 11
29.726029267254091
 21
18.546768060424888
 31
0.0
 12
29.906029267254091
 22
18.576768060424889
 32
0.0
 13
29.906029267254091
 23
18.576768060424889
 33
0.0
  0
SOLID
  5
2711
  8
DIMENSIONS
 62
     0
 10
29.486029267254089
 20
18.606768060424891
 30
0.0
 11
29.486029267254089
 21
18.546768060424888
 31
0.0
 12
29.30602926725409
 22
18.576768060424889
 32
0.0
 13
29.30602926725409
 23
18.576768060424889
 33
0.0
  0
INSERT
  5
2712
  8
DIMENSIONS
  2
*U174
 10
0.0
 20
0.0
 30
0.0
  0
POINT
  5
2713
  8
DEFPOINTS
 62
     0
 10
29.30602926725409
 20
18.109734666833671
 30
0.0
  0
POINT
  5
2714
  8
DEFPOINTS
 62
     0
 10
29.906029267254091
 20
17.759734666833669
 30
0.0
  0
POINT
  5
2715
  8
DEFPOINTS
 62
     0
 10
29.906029267254091
 20
18.576768060424889
 30
0.0
  0
ENDBLK
  5
1614
  8
0
  0
BLOCK
  8
0
  2
*D9
 70
     1
 10
0.0
 20
0.0
 30
0.0
  3
*D9
  1

  0
LINE
  5
2716
  8
DIMENSIONS
 62
     0
 10
29.906029267254091
 20
17.822234666833669
 30
0.0
 11
29.906029267254091
 21
18.756768060424889
 31
0.0
  0
LINE
  5
2717
  8
DIMENSIONS
 62
     0
 10
31.10602926725409
 20
17.922234666833671
 30
0.0
 11
31.10602926725409
 21
18.756768060424889
 31
0.0
  0
LINE
  5
2718
  8
DIMENSIONS
 62
     0
 10
29.726029267254091
 20
18.576768060424889
 30
0.0
 11
29.546029267254092
 21
18.576768060424889
 31
0.0
  0
LINE
  5
2719
  8
DIMENSIONS
 62
     0
 10
31.286029267254101
 20
18.576768060424889
 30
0.0
 11
31.46602926725409
 21
18.576768060424889
 31
0.0
  0
SOLID
  5
271A
  8
DIMENSIONS
 62
     0
 10
29.726029267254091
 20
18.606768060424891
 30
0.0
 11
29.726029267254091
 21
18.546768060424888
 31
0.0
 12
29.906029267254091
 22
18.576768060424889
 32
0.0
 13
29.906029267254091
 23
18.576768060424889
 33
0.0
  0
SOLID
  5
271B
  8
DIMENSIONS
 62
     0
 10
31.286029267254101
 20
18.606768060424891
 30
0.0
 11
31.286029267254101
 21
18.546768060424888
 31
0.0
 12
31.10602926725409
 22
18.576768060424889
 32
0.0
 13
31.10602926725409
 23
18.576768060424889
 33
0.0
  0
INSERT
  5
271C
  8
DIMENSIONS
  2
*U175
 10
0.0
 20
0.0
 30
0.0
  0
POINT
  5
271D
  8
DEFPOINTS
 62
     0
 10
29.906029267254091
 20
17.759734666833669
 30
0.0
  0
POINT
  5
271E
  8
DEFPOINTS
 62
     0
 10
31.10602926725409
 20
17.859734666833671
 30
0.0
  0
POINT
  5
271F
  8
DEFPOINTS
 62
     0
 10
31.10602926725409
 20
18.576768060424889
 30
0.0
  0
ENDBLK
  5
1621
  8
0
  0
BLOCK
  8
0
  2
*D10
 70
     1
 10
0.0
 20
0.0
 30
0.0
  3
*D10
  1

  0
LINE
  5
2720
  8
DIMENSIONS
 62
     0
 10
31.10602926725409
 20
17.922234666833671
 30
0.0
 11
31.10602926725409
 21
18.756768060424889
 31
0.0
  0
LINE
  5
2721
  8
DIMENSIONS
 62
     0
 10
31.706029267254092
 20
18.172234666833671
 30
0.0
 11
31.706029267254092
 21
18.756768060424889
 31
0.0
  0
LINE
  5
2722
  8
DIMENSIONS
 62
     0
 10
31.286029267254101
 20
18.576768060424889
 30
0.0
 11
31.526029267254088
 21
18.576768060424889
 31
0.0
  0
LINE
  5
2723
  8
DIMENSIONS
 62
     0
 10
31.706029267254092
 20
18.576768060424889
 30
0.0
 11
31.886029267254091
 21
18.576768060424889
 31
0.0
  0
SOLID
  5
2724
  8
DIMENSIONS
 62
     0
 10
31.286029267254101
 20
18.606768060424891
 30
0.0
 11
31.286029267254101
 21
18.546768060424888
 31
0.0
 12
31.10602926725409
 22
18.576768060424889
 32
0.0
 13
31.10602926725409
 23
18.576768060424889
 33
0.0
  0
SOLID
  5
2725
  8
DIMENSIONS
 62
     0
 10
31.526029267254088
 20
18.606768060424891
 30
0.0
 11
31.526029267254088
 21
18.546768060424888
 31
0.0
 12
31.706029267254092
 22
18.576768060424889
 32
0.0
 13
31.706029267254092
 23
18.576768060424889
 33
0.0
  0
INSERT
  5
2726
  8
DIMENSIONS
  2
*U176
 10
0.0
 20
0.0
 30
0.0
  0
POINT
  5
2727
  8
DEFPOINTS
 62
     0
 10
31.10602926725409
 20
17.859734666833671
 30
0.0
  0
POINT
  5
2728
  8
DEFPOINTS
 62
     0
 10
31.706029267254092
 20
18.109734666833671
 30
0.0
  0
POINT
  5
2729
  8
DEFPOINTS
 62
     0
 10
31.706029267254092
 20
18.576768060424889
 30
0.0
  0
ENDBLK
  5
162E
  8
0
  0
BLOCK
  8
0
  2
*D11
 70
     1
 10
0.0
 20
0.0
 30
0.0
  3
*D11
  1

  0
LINE
  5
272A
  8
DIMENSIONS
 62
     0
 10
31.16852926725409
 20
17.859734666833671
 30
0.0
 11
32.611200581917501
 21
17.859734666833671
 31
0.0
  0
LINE
  5
272B
  8
DIMENSIONS
 62
     0
 10
31.768529267254092
 20
18.109734666833671
 30
0.0
 11
32.611200581917501
 21
18.109734666833671
 31
0.0
  0
LINE
  5
272C
  8
DIMENSIONS
 62
     0
 10
32.431200581917501
 20
17.679734666833671
 30
0.0
 11
32.431200581917501
 21
17.499734666833671
 31
0.0
  0
LINE
  5
272D
  8
DIMENSIONS
 62
     0
 10
32.431200581917501
 20
18.28973466683367
 30
0.0
 11
32.431200581917501
 21
18.46973466683367
 31
0.0
  0
SOLID
  5
272E
  8
DIMENSIONS
 62
     0
 10
32.4012005819175
 20
17.679734666833671
 30
0.0
 11
32.461200581917502
 21
17.679734666833671
 31
0.0
 12
32.431200581917501
 22
17.859734666833671
 32
0.0
 13
32.431200581917501
 23
17.859734666833671
 33
0.0
  0
SOLID
  5
272F
  8
DIMENSIONS
 62
     0
 10
32.4012005819175
 20
18.28973466683367
 30
0.0
 11
32.461200581917502
 21
18.28973466683367
 31
0.0
 12
32.431200581917501
 22
18.109734666833671
 32
0.0
 13
32.431200581917501
 23
18.109734666833671
 33
0.0
  0
INSERT
  5
2730
  8
DIMENSIONS
  2
*U177
 10
0.0
 20
0.0
 30
0.0
  0
POINT
  5
2731
  8
DEFPOINTS
 62
     0
 10
31.10602926725409
 20
17.859734666833671
 30
0.0
  0
POINT
  5
2732
  8
DEFPOINTS
 62
     0
 10
31.706029267254092
 20
18.109734666833671
 30
0.0
  0
POINT
  5
2733
  8
DEFPOINTS
 62
     0
 10
32.431200581917501
 20
18.109734666833671
 30
0.0
  0
ENDBLK
  5
163B
  8
0
  0
BLOCK
  8
0
  2
*D12
 70
     1
 10
0.0
 20
0.0
 30
0.0
  3
*D12
  1

  0
LINE
  5
2734
  8
DIMENSIONS
 62
     0
 10
31.768529267254092
 20
16.609734666833671
 30
0.0
 11
32.611200581917501
 21
16.609734666833671
 31
0.0
  0
LINE
  5
2735
  8
DIMENSIONS
 62
     0
 10
31.16852926725409
 20
16.859734666833671
 30
0.0
 11
32.611200581917501
 21
16.859734666833671
 31
0.0
  0
LINE
  5
2736
  8
DIMENSIONS
 62
     0
 10
32.431200581917501
 20
16.429734666833671
 30
0.0
 11
32.431200581917501
 21
16.249734666833671
 31
0.0
  0
LINE
  5
2737
  8
DIMENSIONS
 62
     0
 10
32.431200581917501
 20
17.03973466683367
 30
0.0
 11
32.431200581917501
 21
17.21973466683367
 31
0.0
  0
SOLID
  5
2738
  8
DIMENSIONS
 62
     0
 10
32.4012005819175
 20
16.429734666833671
 30
0.0
 11
32.461200581917502
 21
16.429734666833671
 31
0.0
 12
32.431200581917501
 22
16.609734666833671
 32
0.0
 13
32.431200581917501
 23
16.609734666833671
 33
0.0
  0
SOLID
  5
2739
  8
DIMENSIONS
 62
     0
 10
32.4012005819175
 20
17.03973466683367
 30
0.0
 11
32.461200581917502
 21
17.03973466683367
 31
0.0
 12
32.431200581917501
 22
16.859734666833671
 32
0.0
 13
32.431200581917501
 23
16.859734666833671
 33
0.0
  0
INSERT
  5
273A
  8
DIMENSIONS
  2
*U178
 10
0.0
 20
0.0
 30
0.0
  0
POINT
  5
273B
  8
DEFPOINTS
 62
     0
 10
31.706029267254092
 20
16.609734666833671
 30
0.0
  0
POINT
  5
273C
  8
DEFPOINTS
 62
     0
 10
31.10602926725409
 20
16.859734666833671
 30
0.0
  0
POINT
  5
273D
  8
DEFPOINTS
 62
     0
 10
32.431200581917501
 20
16.859734666833671
 30
0.0
  0
ENDBLK
  5
1648
  8
0
  0
BLOCK
  8
0
  2
*D13
 70
     1
 10
0.0
 20
0.0
 30
0.0
  3
*D13
  1

  0
LINE
  5
2F21
  8
DIMENSIONS
 62
     0
 10
31.16852926725409
 20
17.859734666833671
 30
0.0
 11
33.205381523673253
 21
17.859734666833671
 31
0.0
  0
LINE
  5
2F22
  8
DIMENSIONS
 62
     0
 10
31.16852926725409
 20
17.359734666833681
 30
0.0
 11
33.205381523673253
 21
17.359734666833681
 31
0.0
  0
LINE
  5
2F23
  8
DIMENSIONS
 62
     0
 10
33.025381523673254
 20
18.03973466683367
 30
0.0
 11
33.025381523673254
 21
18.21973466683367
 31
0.0
  0
LINE
  5
2F24
  8
DIMENSIONS
 62
     0
 10
33.025381523673254
 20
17.179734666833681
 30
0.0
 11
33.025381523673254
 21
16.999734666833682
 31
0.0
  0
LINE
  5
2F25
  8
DIMENSIONS
 62
     0
 10
33.025381523673254
 20
17.609734666833671
 30
0.0
 11
33.445794243572479
 21
17.642443702214639
 31
0.0
  0
LINE
  5
2F26
  8
DIMENSIONS
 62
     0
 10
33.445794243572479
 20
17.642443702214639
 30
0.0
 11
33.625794243572479
 21
17.642443702214639
 31
0.0
  0
TEXT
  8
DIMENSIONS
  40
0.125
  5
3247
  62
0
  72
0
  71
0
 10
33.9663
 20
17.4212
 30
0.000000
  1
0.500 [12.70]
  0
LINE
  5
2F28
  8
DIMENSIONS
 62
     0
 10
33.025381523673254
 20
17.859734666833671
 30
0.0
 11
33.025381523673254
 21
17.359734666833681
 31
0.0
  0
SOLID
  5
2F29
  8
DIMENSIONS
 62
     0
 10
32.995381523673252
 20
18.03973466683367
 30
0.0
 11
33.055381523673248
 21
18.03973466683367
 31
0.0
 12
33.025381523673254
 22
17.859734666833671
 32
0.0
 13
33.025381523673254
 23
17.859734666833671
 33
0.0
  0
SOLID
  5
2F2A
  8
DIMENSIONS
 62
     0
 10
32.995381523673252
 20
17.179734666833681
 30
0.0
 11
33.055381523673248
 21
17.179734666833681
 31
0.0
 12
33.025381523673254
 22
17.359734666833681
 32
0.0
 13
33.025381523673254
 23
17.359734666833681
 33
0.0
  0
POINT
  5
2F2B
  8
DEFPOINTS
 62
     0
 10
31.10602926725409
 20
17.859734666833671
 30
0.0
  0
POINT
  5
2F2C
  8
DEFPOINTS
 62
     0
 10
31.10602926725409
 20
17.359734666833681
 30
0.0
  0
POINT
  5
2F2D
  8
DEFPOINTS
 62
     0
 10
33.025381523673254
 20
17.359734666833681
 30
0.0
  0
ENDBLK
  5
1655
  8
0
  0
BLOCK
  8
0
  2
*D14
 70
     1
 10
0.0
 20
0.0
 30
0.0
  3
*D14
  1

  0
LINE
  5
2F2E
  8
DIMENSIONS
 62
     0
 10
31.16852926725409
 20
16.859734666833671
 30
0.0
 11
33.205381523673253
 21
16.859734666833671
 31
0.0
  0
LINE
  5
2F2F
  8
DIMENSIONS
 62
     0
 10
31.16852926725409
 20
17.359734666833681
 30
0.0
 11
33.205381523673253
 21
17.359734666833681
 31
0.0
  0
LINE
  5
2F30
  8
DIMENSIONS
 62
     0
 10
33.025381523673254
 20
16.679734666833671
 30
0.0
 11
33.025381523673254
 21
16.499734666833671
 31
0.0
  0
LINE
  5
2F31
  8
DIMENSIONS
 62
     0
 10
33.025381523673254
 20
17.53973466683367
 30
0.0
 11
33.025381523673254
 21
17.71973466683367
 31
0.0
  0
LINE
  5
2F32
  8
DIMENSIONS
 62
     0
 10
33.025381523673254
 20
17.109734666833671
 30
0.0
 11
33.509613793825842
 21
17.150971883891881
 31
0.0
  0
LINE
  5
2F33
  8
DIMENSIONS
 62
     0
 10
33.509613793825842
 20
17.150971883891881
 30
0.0
 11
33.689613793825842
 21
17.150971883891881
 31
0.0
  0
TEXT
  8
DIMENSIONS
  40
0.125
  5
3248
  62
0
  72
0
  71
0
 10
34.0301
 20
16.9297
 30
0.000000
  1
0.500 [12.70]
  0
LINE
  5
2F35
  8
DIMENSIONS
 62
     0
 10
33.025381523673254
 20
16.859734666833671
 30
0.0
 11
33.025381523673254
 21
17.359734666833681
 31
0.0
  0
SOLID
  5
2F36
  8
DIMENSIONS
 62
     0
 10
32.995381523673252
 20
16.679734666833671
 30
0.0
 11
33.055381523673248
 21
16.679734666833671
 31
0.0
 12
33.025381523673254
 22
16.859734666833671
 32
0.0
 13
33.025381523673254
 23
16.859734666833671
 33
0.0
  0
SOLID
  5
2F37
  8
DIMENSIONS
 62
     0
 10
32.995381523673252
 20
17.53973466683367
 30
0.0
 11
33.055381523673248
 21
17.53973466683367
 31
0.0
 12
33.025381523673254
 22
17.359734666833681
 32
0.0
 13
33.025381523673254
 23
17.359734666833681
 33
0.0
  0
POINT
  5
2F38
  8
DEFPOINTS
 62
     0
 10
31.10602926725409
 20
16.859734666833671
 30
0.0
  0
POINT
  5
2F39
  8
DEFPOINTS
 62
     0
 10
31.10602926725409
 20
17.359734666833681
 30
0.0
  0
POINT
  5
2F3A
  8
DEFPOINTS
 62
     0
 10
33.025381523673254
 20
17.359734666833681
 30
0.0
  0
ENDBLK
  5
1665
  8
0
  0
BLOCK
  8
0
  2
*T15
 70
     1
 10
0.0
 20
0.0
 30
0.0
  3
*T15
  1

  0
INSERT
  5
1771
  8
DIMENSIONS
  2
*U61
 10
0.0
 20
0.0
 30
0.0
  0
INSERT
  5
1772
  8
DIMENSIONS
  2
*U62
 10
0.0
 20
0.0
 30
0.0
  0
INSERT
  5
1773
  8
DIMENSIONS
  2
*U63
 10
0.0
 20
0.0
 30
0.0
  0
INSERT
  5
1774
  8
DIMENSIONS
  2
*U64
 10
0.0
 20
0.0
 30
0.0
  0
INSERT
  5
1775
  8
DIMENSIONS
  2
*U65
 10
0.0
 20
0.0
 30
0.0
  0
INSERT
  5
1776
  8
DIMENSIONS
  2
*U66
 10
0.0
 20
0.0
 30
0.0
  0
INSERT
  5
1777
  8
DIMENSIONS
  2
*U67
 10
0.0
 20
0.0
 30
0.0
  0
INSERT
  5
1778
  8
DIMENSIONS
  2
*U68
 10
0.0
 20
0.0
 30
0.0
  0
INSERT
  5
1779
  8
DIMENSIONS
  2
*U69
 10
0.0
 20
0.0
 30
0.0
  0
INSERT
  5
177A
  8
DIMENSIONS
  2
*U70
 10
0.0
 20
0.0
 30
0.0
  0
INSERT
  5
177B
  8
DIMENSIONS
  2
*U71
 10
0.0
 20
0.0
 30
0.0
  0
INSERT
  5
177C
  8
DIMENSIONS
  2
*U72
 10
0.0
 20
0.0
 30
0.0
  0
INSERT
  5
177D
  8
DIMENSIONS
  2
*U73
 10
0.0
 20
0.0
 30
0.0
  0
INSERT
  5
177E
  8
DIMENSIONS
  2
*U74
 10
0.0
 20
0.0
 30
0.0
  0
INSERT
  5
177F
  8
DIMENSIONS
  2
*U75
 10
0.0
 20
0.0
 30
0.0
  0
INSERT
  5
1780
  8
DIMENSIONS
  2
*U76
 10
0.0
 20
0.0
 30
0.0
  0
INSERT
  5
1781
  8
DIMENSIONS
  2
*U77
 10
0.0
 20
0.0
 30
0.0
  0
INSERT
  5
1782
  8
DIMENSIONS
  2
*U78
 10
0.0
 20
0.0
 30
0.0
  0
INSERT
  5
1783
  8
DIMENSIONS
  2
*U79
 10
0.0
 20
0.0
 30
0.0
  0
INSERT
  5
1784
  8
DIMENSIONS
  2
*U80
 10
0.0
 20
0.0
 30
0.0
  0
INSERT
  5
1785
  8
DIMENSIONS
  2
*U81
 10
0.0
 20
0.0
 30
0.0
  0
INSERT
  5
1786
  8
DIMENSIONS
  2
*U82
 10
0.0
 20
0.0
 30
0.0
  0
INSERT
  5
1787
  8
DIMENSIONS
  2
*U83
 10
0.0
 20
0.0
 30
0.0
  0
INSERT
  5
1788
  8
DIMENSIONS
  2
*U84
 10
0.0
 20
0.0
 30
0.0
  0
INSERT
  5
1789
  8
DIMENSIONS
  2
*U85
 10
0.0
 20
0.0
 30
0.0
  0
INSERT
  5
178A
  8
DIMENSIONS
  2
*U86
 10
0.0
 20
0.0
 30
0.0
  0
INSERT
  5
178B
  8
DIMENSIONS
  2
*U87
 10
0.0
 20
0.0
 30
0.0
  0
INSERT
  5
178C
  8
DIMENSIONS
  2
*U88
 10
0.0
 20
0.0
 30
0.0
  0
INSERT
  5
178D
  8
DIMENSIONS
  2
*U89
 10
0.0
 20
0.0
 30
0.0
  0
INSERT
  5
178E
  8
DIMENSIONS
  2
*U90
 10
0.0
 20
0.0
 30
0.0
  0
INSERT
  5
178F
  8
DIMENSIONS
  2
*U91
 10
0.0
 20
0.0
 30
0.0
  0
INSERT
  5
1790
  8
DIMENSIONS
  2
*U92
 10
0.0
 20
0.0
 30
0.0
  0
LINE
  5
1791
  8
CONVERTER
  6
BYBLOCK
 62
     0
 10
0.0
 20
0.0
 30
0.0
 11
6.5999999999999943
 21
0.0
 31
0.0
  0
LINE
  5
1792
  8
CONVERTER
  6
BYBLOCK
 62
     0
 10
1.0
 20
-0.4000000000000004
 30
0.0
 11
6.5999999999999943
 21
-0.4000000000000004
 31
0.0
  0
LINE
  5
1793
  8
CONVERTER
  6
BYBLOCK
 62
     0
 10
0.0
 20
-0.8000000000000007
 30
0.0
 11
6.5999999999999943
 21
-0.8000000000000007
 31
0.0
  0
LINE
  5
1794
  8
CONVERTER
  6
BYBLOCK
 62
     0
 10
0.0
 20
-1.2000000000000011
 30
0.0
 11
6.5999999999999943
 21
-1.2000000000000011
 31
0.0
  0
LINE
  5
1795
  8
CONVERTER
  6
BYBLOCK
 62
     0
 10
0.0
 20
-1.600000000000001
 30
0.0
 11
6.5999999999999943
 21
-1.600000000000001
 31
0.0
  0
LINE
  5
1796
  8
CONVERTER
  6
BYBLOCK
 62
     0
 10
0.0
 20
-2.0000000000000009
 30
0.0
 11
6.5999999999999943
 21
-2.0000000000000009
 31
0.0
  0
LINE
  5
1797
  8
CONVERTER
  6
BYBLOCK
 62
     0
 10
0.0
 20
-2.4000000000000021
 30
0.0
 11
6.5999999999999943
 21
-2.4000000000000021
 31
0.0
  0
LINE
  5
1798
  8
CONVERTER
  6
BYBLOCK
 62
     0
 10
0.0
 20
-2.800000000000002
 30
0.0
 11
6.5999999999999943
 21
-2.800000000000002
 31
0.0
  0
LINE
  5
1799
  8
CONVERTER
  6
BYBLOCK
 62
     0
 10
0.0
 20
0.0
 30
0.0
 11
0.0
 21
-2.800000000000002
 31
0.0
  0
LINE
  5
179A
  8
CONVERTER
  6
BYBLOCK
 62
     0
 10
1.0
 20
0.0
 30
0.0
 11
1.0
 21
-2.800000000000002
 31
0.0
  0
LINE
  5
179B
  8
CONVERTER
  6
BYBLOCK
 62
     0
 10
2.3999999999999981
 20
-0.4000000000000004
 30
0.0
 11
2.3999999999999981
 21
-2.800000000000002
 31
0.0
  0
LINE
  5
179C
  8
CONVERTER
  6
BYBLOCK
 62
     0
 10
3.7999999999999972
 20
0.0
 30
0.0
 11
3.7999999999999972
 21
-2.800000000000002
 31
0.0
  0
LINE
  5
179D
  8
CONVERTER
  6
BYBLOCK
 62
     0
 10
5.1999999999999948
 20
-0.4000000000000004
 30
0.0
 11
5.1999999999999948
 21
-2.800000000000002
 31
0.0
  0
LINE
  5
179E
  8
CONVERTER
  6
BYBLOCK
 62
     0
 10
6.5999999999999943
 20
0.0
 30
0.0
 11
6.5999999999999943
 21
-2.800000000000002
 31
0.0
  0
LINE
  5
179F
  8
DEFPOINTS
 62
     8
 10
0.0
 20
0.0
 30
0.0
 11
0.0
 21
0.0
 31
0.0
  0
ENDBLK
  5
17A1
  8
0
  0
BLOCK
  8
0
  2
*D16
 70
     1
 10
0.0
 20
0.0
 30
0.0
  3
*D16
  1

  0
LINE
  5
2FED
  8
DIMENSIONS
 62
     0
 10
40.598288827256518
 20
17.909734666833671
 30
0.0
 11
39.679976055839383
 21
17.909734666833671
 31
0.0
  0
LINE
  5
2FEE
  8
DIMENSIONS
 62
     0
 10
40.598288827256518
 20
16.959734666833668
 30
0.0
 11
39.679976055839383
 21
16.959734666833679
 31
0.0
  0
LINE
  5
2FEF
  8
DIMENSIONS
 62
     0
 10
39.859976055839383
 20
17.729734666833671
 30
0.0
 11
39.859976055839383
 21
17.139734666833679
 31
0.0
  0
LINE
  5
2FF0
  8
DIMENSIONS
 62
     0
 10
39.859976055839383
 20
17.43473466683368
 30
0.0
 11
39.749723705362371
 21
17.229596781058099
 31
0.0
  0
LINE
  5
2FF1
  8
DIMENSIONS
 62
     0
 10
39.749723705362371
 20
17.229596781058099
 30
0.0
 11
39.569723705362371
 21
17.229596781058099
 31
0.0
  0
TEXT
  8
DIMENSIONS
  40
0.125
  5
3249
  62
0
  72
0
  71
0
 10
38.7293
 20
17.0083
 30
0.000000
  1
0.950 [24.13]
  0
SOLID
  5
2FF3
  8
DIMENSIONS
 62
     0
 10
39.829976055839381
 20
17.729734666833671
 30
0.0
 11
39.889976055839377
 21
17.729734666833671
 31
0.0
 12
39.859976055839383
 22
17.909734666833671
 32
0.0
 13
39.859976055839383
 23
17.909734666833671
 33
0.0
  0
SOLID
  5
2FF4
  8
DIMENSIONS
 62
     0
 10
39.829976055839381
 20
17.139734666833679
 30
0.0
 11
39.889976055839377
 21
17.139734666833679
 31
0.0
 12
39.859976055839383
 22
16.959734666833679
 32
0.0
 13
39.859976055839383
 23
16.959734666833679
 33
0.0
  0
POINT
  5
2FF5
  8
DEFPOINTS
 62
     0
 10
40.660788827256511
 20
17.909734666833671
 30
0.0
  0
POINT
  5
2FF6
  8
DEFPOINTS
 62
     0
 10
40.660788827256511
 20
16.959734666833668
 30
0.0
  0
POINT
  5
2FF7
  8
DEFPOINTS
 62
     0
 10
39.859976055839383
 20
16.959734666833679
 30
0.0
  0
ENDBLK
  5
18DC
  8
0
  0
BLOCK
  8
0
  2
*D17
 70
     1
 10
0.0
 20
0.0
 30
0.0
  3
*D17
  1

  0
LINE
  5
2FF8
  8
DIMENSIONS
 62
     0
 10
40.448288827256519
 20
18.109734666833671
 30
0.0
 11
39.679976055839383
 21
18.109734666833681
 31
0.0
  0
LINE
  5
2FF9
  8
DIMENSIONS
 62
     0
 10
40.598288827256518
 20
17.909734666833671
 30
0.0
 11
39.679976055839383
 21
17.909734666833671
 31
0.0
  0
LINE
  5
2FFA
  8
DIMENSIONS
 62
     0
 10
39.859976055839383
 20
18.289734666833681
 30
0.0
 11
39.859976055839383
 21
18.46973466683367
 31
0.0
  0
LINE
  5
2FFB
  8
DIMENSIONS
 62
     0
 10
39.859976055839383
 20
17.729734666833671
 30
0.0
 11
39.859976055839383
 21
17.549734666833668
 31
0.0
  0
LINE
  5
2FFC
  8
DIMENSIONS
 62
     0
 10
39.859976055839383
 20
18.009734666833669
 30
0.0
 11
39.616995806758553
 21
18.298104811209019
 31
0.0
  0
LINE
  5
2FFD
  8
DIMENSIONS
 62
     0
 10
39.616995806758553
 20
18.298104811209019
 30
0.0
 11
39.436995806758553
 21
18.298104811209019
 31
0.0
  0
TEXT
  8
DIMENSIONS
  40
0.125
  5
324A
  62
0
  72
0
  71
0
 10
38.6451
 20
18.0769
 30
0.000000
  1
0.200 [5.08]
  0
LINE
  5
2FFF
  8
DIMENSIONS
 62
     0
 10
39.859976055839383
 20
18.109734666833681
 30
0.0
 11
39.859976055839383
 21
17.909734666833671
 31
0.0
  0
SOLID
  5
3000
  8
DIMENSIONS
 62
     0
 10
39.829976055839381
 20
18.289734666833681
 30
0.0
 11
39.889976055839377
 21
18.289734666833681
 31
0.0
 12
39.859976055839383
 22
18.109734666833681
 32
0.0
 13
39.859976055839383
 23
18.109734666833681
 33
0.0
  0
SOLID
  5
3001
  8
DIMENSIONS
 62
     0
 10
39.829976055839381
 20
17.729734666833671
 30
0.0
 11
39.889976055839377
 21
17.729734666833671
 31
0.0
 12
39.859976055839383
 22
17.909734666833671
 32
0.0
 13
39.859976055839383
 23
17.909734666833671
 33
0.0
  0
POINT
  5
3002
  8
DEFPOINTS
 62
     0
 10
40.510788827256519
 20
18.109734666833671
 30
0.0
  0
POINT
  5
3003
  8
DEFPOINTS
 62
     0
 10
40.660788827256511
 20
17.909734666833671
 30
0.0
  0
POINT
  5
3004
  8
DEFPOINTS
 62
     0
 10
39.859976055839383
 20
17.909734666833671
 30
0.0
  0
ENDBLK
  5
18E9
  8
0
  0
BLOCK
  8
0
  2
*D18
 70
     1
 10
0.0
 20
0.0
 30
0.0
  3
*D18
  1

  0
LINE
  5
276D
  8
DIMENSIONS
 62
     0
 10
42.823288827256519
 20
17.909734666833671
 30
0.0
 11
43.815960141919923
 21
17.909734666833671
 31
0.0
  0
LINE
  5
276E
  8
DIMENSIONS
 62
     0
 10
42.823288827256519
 20
16.80973466683367
 30
0.0
 11
43.815960141919923
 21
16.80973466683367
 31
0.0
  0
LINE
  5
276F
  8
DIMENSIONS
 62
     0
 10
43.635960141919917
 20
17.729734666833671
 30
0.0
 11
43.635960141919917
 21
17.529842102031481
 31
0.0
  0
LINE
  5
2770
  8
DIMENSIONS
 62
     0
 10
43.635960141919917
 20
16.98973466683367
 30
0.0
 11
43.635960141919917
 21
17.18962723163585
 31
0.0
  0
SOLID
  5
2771
  8
DIMENSIONS
 62
     0
 10
43.605960141919923
 20
17.729734666833671
 30
0.0
 11
43.665960141919918
 21
17.729734666833671
 31
0.0
 12
43.635960141919917
 22
17.909734666833671
 32
0.0
 13
43.635960141919917
 23
17.909734666833671
 33
0.0
  0
SOLID
  5
2772
  8
DIMENSIONS
 62
     0
 10
43.605960141919923
 20
16.98973466683367
 30
0.0
 11
43.665960141919918
 21
16.98973466683367
 31
0.0
 12
43.635960141919917
 22
16.80973466683367
 32
0.0
 13
43.635960141919917
 23
16.80973466683367
 33
0.0
  0
INSERT
  5
2773
  8
DIMENSIONS
  2
*U179
 10
0.0
 20
0.0
 30
0.0
  0
POINT
  5
2774
  8
DEFPOINTS
 62
     0
 10
42.760788827256512
 20
17.909734666833671
 30
0.0
  0
POINT
  5
2775
  8
DEFPOINTS
 62
     0
 10
42.760788827256512
 20
16.80973466683367
 30
0.0
  0
POINT
  5
2776
  8
DEFPOINTS
 62
     0
 10
43.635960141919917
 20
16.80973466683367
 30
0.0
  0
ENDBLK
  5
18F7
  8
0
  0
BLOCK
  8
0
  2
*D19
 70
     1
 10
0.0
 20
0.0
 30
0.0
  3
*D19
  1

  0
LINE
  5
2777
  8
DIMENSIONS
 62
     0
 10
40.448288827256519
 20
16.609734666833671
 30
0.0
 11
39.679976055839383
 21
16.609734666833671
 31
0.0
  0
LINE
  5
2778
  8
DIMENSIONS
 62
     0
 10
40.598288827256518
 20
16.959734666833668
 30
0.0
 11
39.679976055839383
 21
16.959734666833679
 31
0.0
  0
LINE
  5
2779
  8
DIMENSIONS
 62
     0
 10
39.859976055839383
 20
16.429734666833681
 30
0.0
 11
39.859976055839383
 21
16.249734666833682
 31
0.0
  0
LINE
  5
277A
  8
DIMENSIONS
 62
     0
 10
39.859976055839383
 20
17.139734666833679
 30
0.0
 11
39.859976055839383
 21
17.319734666833678
 31
0.0
  0
SOLID
  5
277B
  8
DIMENSIONS
 62
     0
 10
39.829976055839381
 20
16.429734666833681
 30
0.0
 11
39.889976055839377
 21
16.429734666833681
 31
0.0
 12
39.859976055839383
 22
16.609734666833671
 32
0.0
 13
39.859976055839383
 23
16.609734666833671
 33
0.0
  0
SOLID
  5
277C
  8
DIMENSIONS
 62
     0
 10
39.829976055839381
 20
17.139734666833679
 30
0.0
 11
39.889976055839377
 21
17.139734666833679
 31
0.0
 12
39.859976055839383
 22
16.959734666833679
 32
0.0
 13
39.859976055839383
 23
16.959734666833679
 33
0.0
  0
INSERT
  5
277D
  8
DIMENSIONS
  2
*U180
 10
0.0
 20
0.0
 30
0.0
  0
POINT
  5
277E
  8
DEFPOINTS
 62
     0
 10
40.510788827256519
 20
16.609734666833671
 30
0.0
  0
POINT
  5
277F
  8
DEFPOINTS
 62
     0
 10
40.660788827256511
 20
16.959734666833668
 30
0.0
  0
POINT
  5
2780
  8
DEFPOINTS
 62
     0
 10
39.859976055839383
 20
16.959734666833679
 30
0.0
  0
ENDBLK
  5
1904
  8
0
  0
BLOCK
  8
0
  2
*D20
 70
     1
 10
0.0
 20
0.0
 30
0.0
  3
*D20
  1

  0
LINE
  5
2781
  8
DIMENSIONS
 62
     0
 10
42.973288827256638
 20
13.08317335376581
 30
0.0
 11
44.049503878383071
 21
13.08317335376581
 31
0.0
  0
LINE
  5
2782
  8
DIMENSIONS
 62
     0
 10
42.973288827256638
 20
13.89317335376581
 30
0.0
 11
44.049503878383071
 21
13.89317335376581
 31
0.0
  0
LINE
  5
2783
  8
DIMENSIONS
 62
     0
 10
43.869503878383071
 20
13.26317335376581
 30
0.0
 11
43.869503878383071
 21
13.31527161364165
 31
0.0
  0
LINE
  5
2784
  8
DIMENSIONS
 62
     0
 10
43.869503878383071
 20
13.713173353765811
 30
0.0
 11
43.869503878383071
 21
13.655486484037279
 31
0.0
  0
SOLID
  5
2785
  8
DIMENSIONS
 62
     0
 10
43.83950387838307
 20
13.26317335376581
 30
0.0
 11
43.899503878383072
 21
13.26317335376581
 31
0.0
 12
43.869503878383071
 22
13.08317335376581
 32
0.0
 13
43.869503878383071
 23
13.08317335376581
 33
0.0
  0
SOLID
  5
2786
  8
DIMENSIONS
 62
     0
 10
43.83950387838307
 20
13.713173353765811
 30
0.0
 11
43.899503878383072
 21
13.713173353765811
 31
0.0
 12
43.869503878383071
 22
13.89317335376581
 32
0.0
 13
43.869503878383071
 23
13.89317335376581
 33
0.0
  0
INSERT
  5
2787
  8
DIMENSIONS
  2
*U181
 10
0.0
 20
0.0
 30
0.0
  0
POINT
  5
2788
  8
DEFPOINTS
 62
     0
 10
42.910788827256638
 20
13.08317335376581
 30
0.0
  0
POINT
  5
2789
  8
DEFPOINTS
 62
     0
 10
42.910788827256638
 20
13.89317335376581
 30
0.0
  0
POINT
  5
278A
  8
DEFPOINTS
 62
     0
 10
43.869503878383071
 20
13.89317335376581
 30
0.0
  0
ENDBLK
  5
193A
  8
0
  0
BLOCK
  8
0
  2
*D21
 70
     1
 10
0.0
 20
0.0
 30
0.0
  3
*D21
  1

  0
LINE
  5
278B
  8
DIMENSIONS
 62
     0
 10
40.44828882725664
 20
13.89317335376581
 30
0.0
 11
39.600951025361702
 21
13.89317335376581
 31
0.0
  0
LINE
  5
278C
  8
DIMENSIONS
 62
     0
 10
40.578288827256642
 20
14.14317335376581
 30
0.0
 11
39.600951025361702
 21
14.14317335376581
 31
0.0
  0
LINE
  5
278D
  8
DIMENSIONS
 62
     0
 10
39.780951025361688
 20
13.713173353765811
 30
0.0
 11
39.780951025361688
 21
13.533173353765809
 31
0.0
  0
LINE
  5
278E
  8
DIMENSIONS
 62
     0
 10
39.780951025361688
 20
14.32317335376581
 30
0.0
 11
39.780951025361688
 21
14.579722482073119
 31
0.0
  0
LINE
  5
278F
  8
DIMENSIONS
 62
     0
 10
39.780951025361688
 20
14.579722482073119
 30
0.0
 11
39.960951025361702
 21
14.579722482073119
 31
0.0
  0
SOLID
  5
2790
  8
DIMENSIONS
 62
     0
 10
39.750951025361687
 20
13.713173353765811
 30
0.0
 11
39.810951025361689
 21
13.713173353765811
 31
0.0
 12
39.780951025361688
 22
13.89317335376581
 32
0.0
 13
39.780951025361688
 23
13.89317335376581
 33
0.0
  0
SOLID
  5
2791
  8
DIMENSIONS
 62
     0
 10
39.750951025361687
 20
14.32317335376581
 30
0.0
 11
39.810951025361689
 21
14.32317335376581
 31
0.0
 12
39.780951025361688
 22
14.14317335376581
 32
0.0
 13
39.780951025361688
 23
14.14317335376581
 33
0.0
  0
INSERT
  5
2792
  8
DIMENSIONS
  2
*U182
 10
0.0
 20
0.0
 30
0.0
  0
POINT
  5
2793
  8
DEFPOINTS
 62
     0
 10
40.51078882725664
 20
13.89317335376581
 30
0.0
  0
POINT
  5
2794
  8
DEFPOINTS
 62
     0
 10
40.64078882725665
 20
14.14317335376581
 30
0.0
  0
POINT
  5
2795
  8
DEFPOINTS
 62
     0
 10
39.780951025361688
 20
14.14317335376581
 30
0.0
  0
ENDBLK
  5
1947
  8
0
  0
BLOCK
  8
0
  2
*D22
 70
     1
 10
0.0
 20
0.0
 30
0.0
  3
*D22
  1

  0
LINE
  5
2796
  8
DIMENSIONS
 62
     0
 10
40.510788827256519
 20
18.172234666833671
 30
0.0
 11
40.510788827256519
 21
19.190721995573458
 31
0.0
  0
LINE
  5
2797
  8
DIMENSIONS
 62
     0
 10
42.910788827256518
 20
18.172234666833671
 30
0.0
 11
42.910788827256518
 21
19.190721995573458
 31
0.0
  0
LINE
  5
2798
  8
DIMENSIONS
 62
     0
 10
40.690788827256512
 20
19.010721995573459
 30
0.0
 11
41.134436375423107
 21
19.010721995573459
 31
0.0
  0
LINE
  5
2799
  8
DIMENSIONS
 62
     0
 10
42.730788827256511
 20
19.010721995573459
 30
0.0
 11
42.317505952503602
 21
19.010721995573459
 31
0.0
  0
SOLID
  5
279A
  8
DIMENSIONS
 62
     0
 10
40.690788827256512
 20
19.04072199557346
 30
0.0
 11
40.690788827256512
 21
18.980721995573461
 31
0.0
 12
40.510788827256519
 22
19.010721995573459
 32
0.0
 13
40.510788827256519
 23
19.010721995573459
 33
0.0
  0
SOLID
  5
279B
  8
DIMENSIONS
 62
     0
 10
42.730788827256511
 20
19.04072199557346
 30
0.0
 11
42.730788827256511
 21
18.980721995573461
 31
0.0
 12
42.910788827256518
 22
19.010721995573459
 32
0.0
 13
42.910788827256518
 23
19.010721995573459
 33
0.0
  0
INSERT
  5
279C
  8
DIMENSIONS
  2
*U183
 10
0.0
 20
0.0
 30
0.0
  0
POINT
  5
279D
  8
DEFPOINTS
 62
     0
 10
40.510788827256519
 20
18.109734666833671
 30
0.0
  0
POINT
  5
279E
  8
DEFPOINTS
 62
     0
 10
42.910788827256518
 20
18.109734666833671
 30
0.0
  0
POINT
  5
279F
  8
DEFPOINTS
 62
     0
 10
42.910788827256518
 20
19.010721995573459
 30
0.0
  0
ENDBLK
  5
1955
  8
0
  0
BLOCK
  8
0
  2
*D23
 70
     1
 10
0.0
 20
0.0
 30
0.0
  3
*D23
  1

  0
LINE
  5
297E
  8
DIMENSIONS
 62
     0
 10
40.448288827256519
 20
18.109734666833671
 30
0.0
 11
38.033988238570281
 21
18.109734666833681
 31
0.0
  0
LINE
  5
297F
  8
DIMENSIONS
 62
     0
 10
40.448288827256519
 20
16.609734666833671
 30
0.0
 11
38.033988238570281
 21
16.609734666833671
 31
0.0
  0
LINE
  5
2980
  8
DIMENSIONS
 62
     0
 10
38.213988238570273
 20
17.929734666833681
 30
0.0
 11
38.213988238570273
 21
17.760371554787412
 31
0.0
  0
LINE
  5
2981
  8
DIMENSIONS
 62
     0
 10
38.213988238570273
 20
16.78973466683367
 30
0.0
 11
38.213988238570273
 21
17.420156684391781
 31
0.0
  0
SOLID
  5
2982
  8
DIMENSIONS
 62
     0
 10
38.183988238570272
 20
17.929734666833681
 30
0.0
 11
38.243988238570267
 21
17.929734666833681
 31
0.0
 12
38.213988238570273
 22
18.109734666833681
 32
0.0
 13
38.213988238570273
 23
18.109734666833681
 33
0.0
  0
SOLID
  5
2983
  8
DIMENSIONS
 62
     0
 10
38.183988238570272
 20
16.78973466683367
 30
0.0
 11
38.243988238570267
 21
16.78973466683367
 31
0.0
 12
38.213988238570273
 22
16.609734666833671
 32
0.0
 13
38.213988238570273
 23
16.609734666833671
 33
0.0
  0
INSERT
  5
2984
  8
DIMENSIONS
  2
*U198
 10
0.0
 20
0.0
 30
0.0
  0
POINT
  5
2985
  8
DEFPOINTS
 62
     0
 10
40.510788827256519
 20
18.109734666833671
 30
0.0
  0
POINT
  5
2986
  8
DEFPOINTS
 62
     0
 10
40.510788827256519
 20
16.609734666833671
 30
0.0
  0
POINT
  5
2987
  8
DEFPOINTS
 62
     0
 10
38.213988238570273
 20
16.609734666833671
 30
0.0
  0
ENDBLK
  5
1962
  8
0
  0
BLOCK
  8
0
  2
*D24
 70
     1
 10
0.0
 20
0.0
 30
0.0
  3
*D24
  1

  0
LINE
  5
27AA
  8
DIMENSIONS
 62
     0
 10
40.510788827256519
 20
18.172234666833671
 30
0.0
 11
40.510788827256519
 21
18.80676806042489
 31
0.0
  0
LINE
  5
27AB
  8
DIMENSIONS
 62
     0
 10
40.660788827256511
 20
17.972234666833671
 30
0.0
 11
40.660788827256511
 21
18.80676806042489
 31
0.0
  0
LINE
  5
27AC
  8
DIMENSIONS
 62
     0
 10
40.84078882725651
 20
18.62676806042489
 30
0.0
 11
41.020788827256517
 21
18.62676806042489
 31
0.0
  0
LINE
  5
27AD
  8
DIMENSIONS
 62
     0
 10
40.330788827256519
 20
18.62676806042489
 30
0.0
 11
40.15078882725652
 21
18.62676806042489
 31
0.0
  0
SOLID
  5
27AE
  8
DIMENSIONS
 62
     0
 10
40.84078882725651
 20
18.656768060424891
 30
0.0
 11
40.84078882725651
 21
18.596768060424889
 31
0.0
 12
40.660788827256511
 22
18.62676806042489
 32
0.0
 13
40.660788827256511
 23
18.62676806042489
 33
0.0
  0
SOLID
  5
27AF
  8
DIMENSIONS
 62
     0
 10
40.330788827256519
 20
18.656768060424891
 30
0.0
 11
40.330788827256519
 21
18.596768060424889
 31
0.0
 12
40.510788827256519
 22
18.62676806042489
 32
0.0
 13
40.510788827256519
 23
18.62676806042489
 33
0.0
  0
INSERT
  5
27B0
  8
DIMENSIONS
  2
*U184
 10
0.0
 20
0.0
 30
0.0
  0
POINT
  5
27B1
  8
DEFPOINTS
 62
     0
 10
40.510788827256519
 20
18.109734666833671
 30
0.0
  0
POINT
  5
27B2
  8
DEFPOINTS
 62
     0
 10
40.660788827256511
 20
17.909734666833671
 30
0.0
  0
POINT
  5
27B3
  8
DEFPOINTS
 62
     0
 10
40.660788827256511
 20
18.62676806042489
 30
0.0
  0
ENDBLK
  5
196F
  8
0
  0
BLOCK
  8
0
  2
*D25
 70
     1
 10
0.0
 20
0.0
 30
0.0
  3
*D25
  1

  0
LINE
  5
27B4
  8
DIMENSIONS
 62
     0
 10
40.660788827256511
 20
17.972234666833671
 30
0.0
 11
40.660788827256511
 21
18.80676806042489
 31
0.0
  0
LINE
  5
27B5
  8
DIMENSIONS
 62
     0
 10
42.760788827256512
 20
17.972234666833671
 30
0.0
 11
42.760788827256512
 21
18.80676806042489
 31
0.0
  0
LINE
  5
27B6
  8
DIMENSIONS
 62
     0
 10
40.84078882725651
 20
18.62676806042489
 30
0.0
 11
41.081129371727869
 21
18.62676806042489
 31
0.0
  0
LINE
  5
27B7
  8
DIMENSIONS
 62
     0
 10
42.580788827256512
 20
18.62676806042489
 30
0.0
 11
42.264198948808357
 21
18.62676806042489
 31
0.0
  0
SOLID
  5
27B8
  8
DIMENSIONS
 62
     0
 10
40.84078882725651
 20
18.656768060424891
 30
0.0
 11
40.84078882725651
 21
18.596768060424889
 31
0.0
 12
40.660788827256511
 22
18.62676806042489
 32
0.0
 13
40.660788827256511
 23
18.62676806042489
 33
0.0
  0
SOLID
  5
27B9
  8
DIMENSIONS
 62
     0
 10
42.580788827256512
 20
18.656768060424891
 30
0.0
 11
42.580788827256512
 21
18.596768060424889
 31
0.0
 12
42.760788827256512
 22
18.62676806042489
 32
0.0
 13
42.760788827256512
 23
18.62676806042489
 33
0.0
  0
INSERT
  5
27BA
  8
DIMENSIONS
  2
*U185
 10
0.0
 20
0.0
 30
0.0
  0
POINT
  5
27BB
  8
DEFPOINTS
 62
     0
 10
40.660788827256511
 20
17.909734666833671
 30
0.0
  0
POINT
  5
27BC
  8
DEFPOINTS
 62
     0
 10
42.760788827256512
 20
17.909734666833671
 30
0.0
  0
POINT
  5
27BD
  8
DEFPOINTS
 62
     0
 10
42.760788827256512
 20
18.62676806042489
 30
0.0
  0
ENDBLK
  5
197C
  8
0
  0
BLOCK
  8
0
  2
*D26
 70
     1
 10
0.0
 20
0.0
 30
0.0
  3
*D26
  1

  0
LINE
  5
27BE
  8
DIMENSIONS
 62
     0
 10
42.760788827256512
 20
17.972234666833671
 30
0.0
 11
42.760788827256512
 21
18.80676806042489
 31
0.0
  0
LINE
  5
27BF
  8
DIMENSIONS
 62
     0
 10
42.910788827256518
 20
18.172234666833671
 30
0.0
 11
42.910788827256518
 21
18.80676806042489
 31
0.0
  0
LINE
  5
27C0
  8
DIMENSIONS
 62
     0
 10
42.580788827256512
 20
18.62676806042489
 30
0.0
 11
42.40078882725652
 21
18.62676806042489
 31
0.0
  0
LINE
  5
27C1
  8
DIMENSIONS
 62
     0
 10
43.090788827256517
 20
18.62676806042489
 30
0.0
 11
43.27078882725651
 21
18.62676806042489
 31
0.0
  0
SOLID
  5
27C2
  8
DIMENSIONS
 62
     0
 10
42.580788827256512
 20
18.656768060424891
 30
0.0
 11
42.580788827256512
 21
18.596768060424889
 31
0.0
 12
42.760788827256512
 22
18.62676806042489
 32
0.0
 13
42.760788827256512
 23
18.62676806042489
 33
0.0
  0
SOLID
  5
27C3
  8
DIMENSIONS
 62
     0
 10
43.090788827256517
 20
18.656768060424891
 30
0.0
 11
43.090788827256517
 21
18.596768060424889
 31
0.0
 12
42.910788827256518
 22
18.62676806042489
 32
0.0
 13
42.910788827256518
 23
18.62676806042489
 33
0.0
  0
INSERT
  5
27C4
  8
DIMENSIONS
  2
*U186
 10
0.0
 20
0.0
 30
0.0
  0
POINT
  5
27C5
  8
DEFPOINTS
 62
     0
 10
42.760788827256512
 20
17.909734666833671
 30
0.0
  0
POINT
  5
27C6
  8
DEFPOINTS
 62
     0
 10
42.910788827256518
 20
18.109734666833671
 30
0.0
  0
POINT
  5
27C7
  8
DEFPOINTS
 62
     0
 10
42.910788827256518
 20
18.62676806042489
 30
0.0
  0
ENDBLK
  5
1989
  8
0
  0
BLOCK
  8
0
  2
*D27
 70
     1
 10
0.0
 20
0.0
 30
0.0
  3
*D27
  1

  0
LINE
  5
27C8
  8
DIMENSIONS
 62
     0
 10
42.823288827256519
 20
17.909734666833671
 30
0.0
 11
43.815960141919923
 21
17.909734666833671
 31
0.0
  0
LINE
  5
27C9
  8
DIMENSIONS
 62
     0
 10
42.973288827256511
 20
18.109734666833671
 30
0.0
 11
43.815960141919923
 21
18.109734666833671
 31
0.0
  0
LINE
  5
27CA
  8
DIMENSIONS
 62
     0
 10
43.635960141919917
 20
17.729734666833671
 30
0.0
 11
43.635960141919917
 21
17.549734666833668
 31
0.0
  0
LINE
  5
27CB
  8
DIMENSIONS
 62
     0
 10
43.635960141919917
 20
18.28973466683367
 30
0.0
 11
43.635960141919917
 21
18.46973466683367
 31
0.0
  0
SOLID
  5
27CC
  8
DIMENSIONS
 62
     0
 10
43.605960141919923
 20
17.729734666833671
 30
0.0
 11
43.665960141919918
 21
17.729734666833671
 31
0.0
 12
43.635960141919917
 22
17.909734666833671
 32
0.0
 13
43.635960141919917
 23
17.909734666833671
 33
0.0
  0
SOLID
  5
27CD
  8
DIMENSIONS
 62
     0
 10
43.605960141919923
 20
18.28973466683367
 30
0.0
 11
43.665960141919918
 21
18.28973466683367
 31
0.0
 12
43.635960141919917
 22
18.109734666833671
 32
0.0
 13
43.635960141919917
 23
18.109734666833671
 33
0.0
  0
INSERT
  5
27CE
  8
DIMENSIONS
  2
*U187
 10
0.0
 20
0.0
 30
0.0
  0
POINT
  5
27CF
  8
DEFPOINTS
 62
     0
 10
42.760788827256512
 20
17.909734666833671
 30
0.0
  0
POINT
  5
27D0
  8
DEFPOINTS
 62
     0
 10
42.910788827256518
 20
18.109734666833671
 30
0.0
  0
POINT
  5
27D1
  8
DEFPOINTS
 62
     0
 10
43.635960141919917
 20
18.109734666833671
 30
0.0
  0
ENDBLK
  5
1996
  8
0
  0
BLOCK
  8
0
  2
*D28
 70
     1
 10
0.0
 20
0.0
 30
0.0
  3
*D28
  1

  0
LINE
  5
27D2
  8
DIMENSIONS
 62
     0
 10
42.973288827256511
 20
16.609734666833671
 30
0.0
 11
43.815960141919923
 21
16.609734666833671
 31
0.0
  0
LINE
  5
27D3
  8
DIMENSIONS
 62
     0
 10
42.823288827256519
 20
16.80973466683367
 30
0.0
 11
43.815960141919923
 21
16.80973466683367
 31
0.0
  0
LINE
  5
27D4
  8
DIMENSIONS
 62
     0
 10
43.635960141919917
 20
16.429734666833671
 30
0.0
 11
43.635960141919917
 21
16.249734666833671
 31
0.0
  0
LINE
  5
27D5
  8
DIMENSIONS
 62
     0
 10
43.635960141919917
 20
16.98973466683367
 30
0.0
 11
43.635960141919917
 21
17.169734666833669
 31
0.0
  0
SOLID
  5
27D6
  8
DIMENSIONS
 62
     0
 10
43.605960141919923
 20
16.429734666833671
 30
0.0
 11
43.665960141919918
 21
16.429734666833671
 31
0.0
 12
43.635960141919917
 22
16.609734666833671
 32
0.0
 13
43.635960141919917
 23
16.609734666833671
 33
0.0
  0
SOLID
  5
27D7
  8
DIMENSIONS
 62
     0
 10
43.605960141919923
 20
16.98973466683367
 30
0.0
 11
43.665960141919918
 21
16.98973466683367
 31
0.0
 12
43.635960141919917
 22
16.80973466683367
 32
0.0
 13
43.635960141919917
 23
16.80973466683367
 33
0.0
  0
INSERT
  5
27D8
  8
DIMENSIONS
  2
*U188
 10
0.0
 20
0.0
 30
0.0
  0
POINT
  5
27D9
  8
DEFPOINTS
 62
     0
 10
42.910788827256518
 20
16.609734666833671
 30
0.0
  0
POINT
  5
27DA
  8
DEFPOINTS
 62
     0
 10
42.760788827256512
 20
16.80973466683367
 30
0.0
  0
POINT
  5
27DB
  8
DEFPOINTS
 62
     0
 10
43.635960141919917
 20
16.80973466683367
 30
0.0
  0
ENDBLK
  5
19A3
  8
0
  0
BLOCK
  8
0
  2
A$C31745E68
 70
     0
 10
0.0
 20
0.0
 30
0.0
  3
A$C31745E68
  1

  0
INSERT
  5
1AA6
  8
DIMENSIONS
  2
*U105
 10
0.0
 20
0.0
 30
0.0
  0
ENDBLK
  5
1AA9
  8
0
  0
BLOCK
  8
0
  2
*T30
 70
     1
 10
0.0
 20
0.0
 30
0.0
  3
*T30
  1

  0
INSERT
  5
1AAB
  8
DIMENSIONS
  2
*U106
 10
0.0
 20
0.0
 30
0.0
  0
INSERT
  5
1AAC
  8
DIMENSIONS
  2
*U107
 10
0.0
 20
0.0
 30
0.0
  0
INSERT
  5
1AAD
  8
DIMENSIONS
  2
*U108
 10
0.0
 20
0.0
 30
0.0
  0
INSERT
  5
1AAE
  8
DIMENSIONS
  2
*U109
 10
0.0
 20
0.0
 30
0.0
  0
INSERT
  5
1AAF
  8
DIMENSIONS
  2
*U110
 10
0.0
 20
0.0
 30
0.0
  0
INSERT
  5
1AB0
  8
DIMENSIONS
  2
*U111
 10
0.0
 20
0.0
 30
0.0
  0
INSERT
  5
1AB1
  8
DIMENSIONS
  2
*U112
 10
0.0
 20
0.0
 30
0.0
  0
INSERT
  5
1AB2
  8
DIMENSIONS
  2
*U113
 10
0.0
 20
0.0
 30
0.0
  0
INSERT
  5
1AB3
  8
DIMENSIONS
  2
*U114
 10
0.0
 20
0.0
 30
0.0
  0
INSERT
  5
1AB4
  8
DIMENSIONS
  2
*U115
 10
0.0
 20
0.0
 30
0.0
  0
INSERT
  5
1AB5
  8
DIMENSIONS
  2
*U116
 10
0.0
 20
0.0
 30
0.0
  0
INSERT
  5
1AB6
  8
DIMENSIONS
  2
*U117
 10
0.0
 20
0.0
 30
0.0
  0
INSERT
  5
1AB7
  8
DIMENSIONS
  2
*U118
 10
0.0
 20
0.0
 30
0.0
  0
INSERT
  5
1AB8
  8
DIMENSIONS
  2
*U119
 10
0.0
 20
0.0
 30
0.0
  0
INSERT
  5
1AB9
  8
DIMENSIONS
  2
*U120
 10
0.0
 20
0.0
 30
0.0
  0
INSERT
  5
1ABA
  8
DIMENSIONS
  2
*U121
 10
0.0
 20
0.0
 30
0.0
  0
INSERT
  5
1ABB
  8
DIMENSIONS
  2
*U122
 10
0.0
 20
0.0
 30
0.0
  0
INSERT
  5
1ABC
  8
DIMENSIONS
  2
*U123
 10
0.0
 20
0.0
 30
0.0
  0
INSERT
  5
1ABD
  8
DIMENSIONS
  2
*U124
 10
0.0
 20
0.0
 30
0.0
  0
INSERT
  5
1ABE
  8
DIMENSIONS
  2
*U125
 10
0.0
 20
0.0
 30
0.0
  0
INSERT
  5
1ABF
  8
DIMENSIONS
  2
*U126
 10
0.0
 20
0.0
 30
0.0
  0
INSERT
  5
1AC0
  8
DIMENSIONS
  2
*U127
 10
0.0
 20
0.0
 30
0.0
  0
INSERT
  5
1AC1
  8
DIMENSIONS
  2
*U128
 10
0.0
 20
0.0
 30
0.0
  0
INSERT
  5
1AC2
  8
DIMENSIONS
  2
*U129
 10
0.0
 20
0.0
 30
0.0
  0
INSERT
  5
1AC3
  8
DIMENSIONS
  2
*U130
 10
0.0
 20
0.0
 30
0.0
  0
INSERT
  5
1AC4
  8
DIMENSIONS
  2
*U131
 10
0.0
 20
0.0
 30
0.0
  0
INSERT
  5
1AC5
  8
DIMENSIONS
  2
*U132
 10
0.0
 20
0.0
 30
0.0
  0
INSERT
  5
1AC6
  8
DIMENSIONS
  2
*U133
 10
0.0
 20
0.0
 30
0.0
  0
INSERT
  5
1AC7
  8
DIMENSIONS
  2
*U134
 10
0.0
 20
0.0
 30
0.0
  0
INSERT
  5
1AC8
  8
DIMENSIONS
  2
*U135
 10
0.0
 20
0.0
 30
0.0
  0
INSERT
  5
1AC9
  8
DIMENSIONS
  2
*U136
 10
0.0
 20
0.0
 30
0.0
  0
INSERT
  5
1ACA
  8
DIMENSIONS
  2
*U137
 10
0.0
 20
0.0
 30
0.0
  0
LINE
  5
1ACB
  8
DEFPOINTS
  6
BYBLOCK
 62
     0
 10
0.0
 20
0.0
 30
0.0
 11
6.5999999999999988
 21
0.0
 31
0.0
  0
LINE
  5
1ACC
  8
DEFPOINTS
  6
BYBLOCK
 62
     0
 10
1.0
 20
-0.3999999999999999
 30
0.0
 11
6.5999999999999988
 21
-0.3999999999999999
 31
0.0
  0
LINE
  5
1ACD
  8
DEFPOINTS
  6
BYBLOCK
 62
     0
 10
0.0
 20
-0.7999999999999999
 30
0.0
 11
6.5999999999999988
 21
-0.7999999999999999
 31
0.0
  0
LINE
  5
1ACE
  8
DEFPOINTS
  6
BYBLOCK
 62
     0
 10
0.0
 20
-1.1999999999999991
 30
0.0
 11
6.5999999999999988
 21
-1.1999999999999991
 31
0.0
  0
LINE
  5
1ACF
  8
DEFPOINTS
  6
BYBLOCK
 62
     0
 10
0.0
 20
-1.599999999999999
 30
0.0
 11
6.5999999999999988
 21
-1.599999999999999
 31
0.0
  0
LINE
  5
1AD0
  8
DEFPOINTS
  6
BYBLOCK
 62
     0
 10
0.0
 20
-1.9999999999999989
 30
0.0
 11
6.5999999999999988
 21
-1.9999999999999989
 31
0.0
  0
LINE
  5
1AD1
  8
DEFPOINTS
  6
BYBLOCK
 62
     0
 10
0.0
 20
-2.399999999999999
 30
0.0
 11
6.5999999999999988
 21
-2.399999999999999
 31
0.0
  0
LINE
  5
1AD2
  8
DEFPOINTS
  6
BYBLOCK
 62
     0
 10
0.0
 20
-2.7999999999999989
 30
0.0
 11
6.5999999999999988
 21
-2.7999999999999989
 31
0.0
  0
LINE
  5
1AD3
  8
DEFPOINTS
  6
BYBLOCK
 62
     0
 10
0.0
 20
0.0
 30
0.0
 11
0.0
 21
-2.7999999999999989
 31
0.0
  0
LINE
  5
1AD4
  8
DEFPOINTS
  6
BYBLOCK
 62
     0
 10
1.0
 20
0.0
 30
0.0
 11
1.0
 21
-2.7999999999999989
 31
0.0
  0
LINE
  5
1AD5
  8
DEFPOINTS
  6
BYBLOCK
 62
     0
 10
2.399999999999999
 20
-0.3999999999999999
 30
0.0
 11
2.399999999999999
 21
-2.7999999999999989
 31
0.0
  0
LINE
  5
1AD6
  8
DEFPOINTS
  6
BYBLOCK
 62
     0
 10
3.7999999999999989
 20
0.0
 30
0.0
 11
3.7999999999999989
 21
-2.7999999999999989
 31
0.0
  0
LINE
  5
1AD7
  8
DEFPOINTS
  6
BYBLOCK
 62
     0
 10
5.1999999999999993
 20
-0.3999999999999999
 30
0.0
 11
5.1999999999999993
 21
-2.7999999999999989
 31
0.0
  0
LINE
  5
1AD8
  8
DEFPOINTS
  6
BYBLOCK
 62
     0
 10
6.5999999999999988
 20
0.0
 30
0.0
 11
6.5999999999999988
 21
-2.7999999999999989
 31
0.0
  0
LINE
  5
1AD9
  8
DEFPOINTS
 62
     8
 10
0.0
 20
0.0
 30
0.0
 11
0.0
 21
0.0
 31
0.0
  0
ENDBLK
  5
1ADB
  8
0
  0
BLOCK
  8
0
  2
*T31
 70
     1
 10
0.0
 20
0.0
 30
0.0
  3
*T31
  1

  0
INSERT
  5
1ADE
  8
DIMENSIONS
  2
*U139
 10
0.0
 20
0.0
 30
0.0
  0
INSERT
  5
1ADF
  8
DIMENSIONS
  2
*U140
 10
0.0
 20
0.0
 30
0.0
  0
INSERT
  5
1AE0
  8
DIMENSIONS
  2
*U141
 10
0.0
 20
0.0
 30
0.0
  0
INSERT
  5
1AE1
  8
DIMENSIONS
  2
*U142
 10
0.0
 20
0.0
 30
0.0
  0
INSERT
  5
1AE2
  8
DIMENSIONS
  2
*U143
 10
0.0
 20
0.0
 30
0.0
  0
INSERT
  5
1AE3
  8
DIMENSIONS
  2
*U144
 10
0.0
 20
0.0
 30
0.0
  0
INSERT
  5
1AE4
  8
DIMENSIONS
  2
*U145
 10
0.0
 20
0.0
 30
0.0
  0
INSERT
  5
1AE5
  8
DIMENSIONS
  2
*U146
 10
0.0
 20
0.0
 30
0.0
  0
INSERT
  5
1AE6
  8
DIMENSIONS
  2
*U147
 10
0.0
 20
0.0
 30
0.0
  0
INSERT
  5
1AE7
  8
DIMENSIONS
  2
*U148
 10
0.0
 20
0.0
 30
0.0
  0
LINE
  5
1AFE
  8
CONVERTER
  6
BYBLOCK
 62
     0
 10
0.0
 20
0.0
 30
0.0
 11
4.5020959119810859
 21
0.0
 31
0.0
  0
LINE
  5
1AFF
  8
CONVERTER
  6
BYBLOCK
 62
     0
 10
0.0
 20
-0.8000000000000007
 30
0.0
 11
4.5020959119810859
 21
-0.8000000000000007
 31
0.0
  0
LINE
  5
1B00
  8
CONVERTER
  6
BYBLOCK
 62
     0
 10
0.0
 20
-1.2000000000000011
 30
0.0
 11
4.5020959119810859
 21
-1.2000000000000011
 31
0.0
  0
LINE
  5
1B01
  8
CONVERTER
  6
BYBLOCK
 62
     0
 10
0.0
 20
-1.600000000000001
 30
0.0
 11
4.5020959119810859
 21
-1.600000000000001
 31
0.0
  0
LINE
  5
1B02
  8
CONVERTER
  6
BYBLOCK
 62
     0
 10
0.0
 20
-2.0000000000000009
 30
0.0
 11
4.5020959119810859
 21
-2.0000000000000009
 31
0.0
  0
LINE
  5
1B03
  8
CONVERTER
  6
BYBLOCK
 62
     0
 10
0.0
 20
-2.4000000000000021
 30
0.0
 11
4.5020959119810859
 21
-2.4000000000000021
 31
0.0
  0
LINE
  5
1B04
  8
CONVERTER
  6
BYBLOCK
 62
     0
 10
0.0
 20
0.0
 30
0.0
 11
0.0
 21
-2.4000000000000021
 31
0.0
  0
LINE
  5
1B05
  8
CONVERTER
  6
BYBLOCK
 62
     0
 10
1.0
 20
0.0
 30
0.0
 11
1.0
 21
-2.4000000000000021
 31
0.0
  0
LINE
  5
1B06
  8
CONVERTER
  6
BYBLOCK
 62
     0
 10
4.5020959119810859
 20
0.0
 30
0.0
 11
4.5020959119810859
 21
-2.4000000000000021
 31
0.0
  0
LINE
  5
1B07
  8
DEFPOINTS
 62
     8
 10
0.0
 20
0.0
 30
0.0
 11
0.0
 21
0.0
 31
0.0
  0
ENDBLK
  5
1B0E
  8
0
  0
BLOCK
  8
0
  2
*D32
 70
     1
 10
0.0
 20
0.0
 30
0.0
  3
*D32
  1

  0
LINE
  5
27DC
  8
DIM
 62
     0
 10
53.511072969236331
 20
16.83723466683367
 30
0.0
 11
53.511072969236331
 21
16.062162292961379
 31
0.0
  0
LINE
  5
27DD
  8
DIM
 62
     0
 10
55.871759864825982
 20
16.83723466683367
 30
0.0
 11
55.871759864825982
 21
16.062162292961379
 31
0.0
  0
LINE
  5
27DE
  8
DIM
 62
     0
 10
53.69107296923633
 20
16.242162292961378
 30
0.0
 11
54.074941314711921
 21
16.242162292961378
 31
0.0
  0
LINE
  5
27DF
  8
DIM
 62
     0
 10
55.691759864825983
 20
16.242162292961378
 30
0.0
 11
55.307891519350392
 21
16.242162292961378
 31
0.0
  0
SOLID
  5
27E0
  8
DIM
 62
     0
 10
53.69107296923633
 20
16.272162292961379
 30
0.0
 11
53.69107296923633
 21
16.212162292961381
 31
0.0
 12
53.511072969236331
 22
16.242162292961378
 32
0.0
 13
53.511072969236331
 23
16.242162292961378
 33
0.0
  0
SOLID
  5
27E1
  8
DIM
 62
     0
 10
55.691759864825983
 20
16.272162292961379
 30
0.0
 11
55.691759864825983
 21
16.212162292961381
 31
0.0
 12
55.871759864825982
 22
16.242162292961378
 32
0.0
 13
55.871759864825982
 23
16.242162292961378
 33
0.0
  0
INSERT
  5
27E2
  8
DIMENSIONS
  2
*U189
 10
0.0
 20
0.0
 30
0.0
  0
POINT
  5
27E3
  8
DEFPOINTS
 62
     0
 10
53.511072969236331
 20
16.89973466683367
 30
0.0
  0
POINT
  5
27E4
  8
DEFPOINTS
 62
     0
 10
55.871759864825982
 20
16.89973466683367
 30
0.0
  0
POINT
  5
27E5
  8
DEFPOINTS
 62
     0
 10
55.871759864825982
 20
16.242162292961378
 30
0.0
  0
ENDBLK
  5
1CEE
  8
0
  0
BLOCK
  8
0
  2
*D33
 70
     1
 10
0.0
 20
0.0
 30
0.0
  3
*D33
  1

  0
LINE
  5
27E6
  8
DIM
 62
     0
 10
52.111072969236339
 20
16.897234666833668
 30
0.0
 11
52.111072969236339
 21
16.062162292961379
 31
0.0
  0
LINE
  5
27E7
  8
DIM
 62
     0
 10
53.511072969236331
 20
16.83723466683367
 30
0.0
 11
53.511072969236331
 21
16.062162292961379
 31
0.0
  0
LINE
  5
27E8
  8
DIM
 62
     0
 10
51.93107296923634
 20
16.242162292961378
 30
0.0
 11
51.75107296923634
 21
16.242162292961378
 31
0.0
  0
LINE
  5
27E9
  8
DIM
 62
     0
 10
53.69107296923633
 20
16.242162292961378
 30
0.0
 11
53.871072969236337
 21
16.242162292961378
 31
0.0
  0
SOLID
  5
27EA
  8
DIM
 62
     0
 10
51.93107296923634
 20
16.272162292961379
 30
0.0
 11
51.93107296923634
 21
16.212162292961381
 31
0.0
 12
52.111072969236339
 22
16.242162292961378
 32
0.0
 13
52.111072969236339
 23
16.242162292961378
 33
0.0
  0
SOLID
  5
27EB
  8
DIM
 62
     0
 10
53.69107296923633
 20
16.272162292961379
 30
0.0
 11
53.69107296923633
 21
16.212162292961381
 31
0.0
 12
53.511072969236331
 22
16.242162292961378
 32
0.0
 13
53.511072969236331
 23
16.242162292961378
 33
0.0
  0
INSERT
  5
27EC
  8
DIMENSIONS
  2
*U190
 10
0.0
 20
0.0
 30
0.0
  0
POINT
  5
27ED
  8
DEFPOINTS
 62
     0
 10
52.111072969236339
 20
16.959734666833668
 30
0.0
  0
POINT
  5
27EE
  8
DEFPOINTS
 62
     0
 10
53.511072969236331
 20
16.89973466683367
 30
0.0
  0
POINT
  5
27EF
  8
DEFPOINTS
 62
     0
 10
53.511072969236331
 20
16.242162292961378
 30
0.0
  0
ENDBLK
  5
1D08
  8
0
  0
BLOCK
  8
0
  2
*D34
 70
     1
 10
0.0
 20
0.0
 30
0.0
  3
*D34
  1

  0
LINE
  5
27F0
  8
DIM
 62
     0
 10
51.511072969236331
 20
16.547234666833671
 30
0.0
 11
51.511072969236331
 21
16.062162292961379
 31
0.0
  0
LINE
  5
27F1
  8
DIM
 62
     0
 10
52.111072969236339
 20
16.897234666833668
 30
0.0
 11
52.111072969236339
 21
16.062162292961379
 31
0.0
  0
LINE
  5
27F2
  8
DIM
 62
     0
 10
51.93107296923634
 20
16.242162292961378
 30
0.0
 11
51.691072969236338
 21
16.242162292961378
 31
0.0
  0
LINE
  5
27F3
  8
DIM
 62
     0
 10
51.511072969236331
 20
16.242162292961378
 30
0.0
 11
51.257820055615937
 21
16.242162292961378
 31
0.0
  0
SOLID
  5
27F4
  8
DIM
 62
     0
 10
51.93107296923634
 20
16.272162292961379
 30
0.0
 11
51.93107296923634
 21
16.212162292961381
 31
0.0
 12
52.111072969236339
 22
16.242162292961378
 32
0.0
 13
52.111072969236339
 23
16.242162292961378
 33
0.0
  0
SOLID
  5
27F5
  8
DIM
 62
     0
 10
51.691072969236338
 20
16.272162292961379
 30
0.0
 11
51.691072969236338
 21
16.212162292961381
 31
0.0
 12
51.511072969236331
 22
16.242162292961378
 32
0.0
 13
51.511072969236331
 23
16.242162292961378
 33
0.0
  0
INSERT
  5
27F6
  8
DIMENSIONS
  2
*U191
 10
0.0
 20
0.0
 30
0.0
  0
POINT
  5
27F7
  8
DEFPOINTS
 62
     0
 10
51.511072969236331
 20
16.609734666833671
 30
0.0
  0
POINT
  5
27F8
  8
DEFPOINTS
 62
     0
 10
52.111072969236339
 20
16.959734666833668
 30
0.0
  0
POINT
  5
27F9
  8
DEFPOINTS
 62
     0
 10
52.111072969236339
 20
16.242162292961378
 30
0.0
  0
ENDBLK
  5
1D15
  8
0
  0
BLOCK
  8
0
  2
*D35
 70
     1
 10
0.0
 20
0.0
 30
0.0
  3
*D35
  1

  0
LINE
  5
2804
  8
DIM
 62
     0
 10
51.448572969236338
 20
13.08317335376581
 30
0.0
 11
50.716473317077011
 21
13.08317335376581
 31
0.0
  0
LINE
  5
2805
  8
DIM
 62
     0
 10
51.448572969236338
 20
13.89317335376581
 30
0.0
 11
50.716473317077011
 21
13.89317335376581
 31
0.0
  0
LINE
  5
2806
  8
DIM
 62
     0
 10
50.89647331707701
 20
13.26317335376581
 30
0.0
 11
50.89647331707701
 21
13.34640092569127
 31
0.0
  0
LINE
  5
2807
  8
DIM
 62
     0
 10
50.89647331707701
 20
13.713173353765811
 30
0.0
 11
50.89647331707701
 21
13.686615796086899
 31
0.0
  0
SOLID
  5
2808
  8
DIM
 62
     0
 10
50.866473317077009
 20
13.26317335376581
 30
0.0
 11
50.926473317077011
 21
13.26317335376581
 31
0.0
 12
50.89647331707701
 22
13.08317335376581
 32
0.0
 13
50.89647331707701
 23
13.08317335376581
 33
0.0
  0
SOLID
  5
2809
  8
DIM
 62
     0
 10
50.866473317077009
 20
13.713173353765811
 30
0.0
 11
50.926473317077011
 21
13.713173353765811
 31
0.0
 12
50.89647331707701
 22
13.89317335376581
 32
0.0
 13
50.89647331707701
 23
13.89317335376581
 33
0.0
  0
INSERT
  5
280A
  8
DIMENSIONS
  2
*U192
 10
0.0
 20
0.0
 30
0.0
  0
POINT
  5
280B
  8
DEFPOINTS
 62
     0
 10
51.511072969236331
 20
13.08317335376581
 30
0.0
  0
POINT
  5
280C
  8
DEFPOINTS
 62
     0
 10
51.511072969236331
 20
13.89317335376581
 30
0.0
  0
POINT
  5
280D
  8
DEFPOINTS
 62
     0
 10
50.89647331707701
 20
13.89317335376581
 30
0.0
  0
ENDBLK
  5
1D2F
  8
0
  0
BLOCK
  8
0
  2
*D36
 70
     1
 10
0.0
 20
0.0
 30
0.0
  3
*D36
  1

  0
LINE
  5
3142
  8
DIM
 62
     0
 10
52.048572969236339
 20
16.959734666833668
 30
0.0
 11
50.754618880248742
 21
16.959734666833668
 31
0.0
  0
LINE
  5
3143
  8
DIM
 62
     0
 10
52.048572969236339
 20
17.759734666833669
 30
0.0
 11
50.754618880248742
 21
17.759734666833669
 31
0.0
  0
LINE
  5
3144
  8
DIM
 62
     0
 10
50.934618880248742
 20
17.139734666833672
 30
0.0
 11
50.934618880248742
 21
17.22096675961652
 31
0.0
  0
LINE
  5
3145
  8
DIM
 62
     0
 10
50.934618880248742
 20
17.579734666833669
 30
0.0
 11
50.934618880248742
 21
17.56118163001215
 31
0.0
  0
SOLID
  5
3146
  8
DIM
 62
     0
 10
50.904618880248741
 20
17.139734666833672
 30
0.0
 11
50.964618880248743
 21
17.139734666833672
 31
0.0
 12
50.934618880248742
 22
16.959734666833668
 32
0.0
 13
50.934618880248742
 23
16.959734666833668
 33
0.0
  0
SOLID
  5
3147
  8
DIM
 62
     0
 10
50.904618880248741
 20
17.579734666833669
 30
0.0
 11
50.964618880248743
 21
17.579734666833669
 31
0.0
 12
50.934618880248742
 22
17.759734666833669
 32
0.0
 13
50.934618880248742
 23
17.759734666833669
 33
0.0
  0
TEXT
  8
DIM
  40
0.125
  5
324B
  62
0
  72
0
  71
0
 10
50.6846
 20
17.1698
 30
0.000000
  1
0.800 [20.32]
  0
POINT
  5
3149
  8
DEFPOINTS
 62
     0
 10
52.111072969236339
 20
16.959734666833668
 30
0.0
  0
POINT
  5
314A
  8
DEFPOINTS
 62
     0
 10
52.111072969236339
 20
17.759734666833669
 30
0.0
  0
POINT
  5
314B
  8
DEFPOINTS
 62
     0
 10
50.934618880248742
 20
17.759734666833669
 30
0.0
  0
ENDBLK
  5
1D3C
  8
0
  0
BLOCK
  8
0
  2
*D37
 70
     1
 10
0.0
 20
0.0
 30
0.0
  3
*D37
  1

  0
LINE
  5
2A5B
  8
DIM
 62
     0
 10
52.498572969236328
 20
16.759734666833669
 30
0.0
 11
49.850564840705097
 21
16.759734666833669
 31
0.0
  0
LINE
  5
2A5C
  8
DIM
 62
     0
 10
52.465452886674761
 20
17.959734666833668
 30
0.0
 11
49.850564840705097
 21
17.959734666833668
 31
0.0
  0
LINE
  5
2A5D
  8
DIM
 62
     0
 10
50.030564840705097
 20
16.939734666833669
 30
0.0
 11
50.030564840705097
 21
16.95632650249026
 31
0.0
  0
LINE
  5
2A5E
  8
DIM
 62
     0
 10
50.030564840705097
 20
17.779734666833669
 30
0.0
 11
50.030564840705097
 21
17.296541372885891
 31
0.0
  0
SOLID
  5
2A5F
  8
DIM
 62
     0
 10
50.000564840705103
 20
16.939734666833669
 30
0.0
 11
50.060564840705098
 21
16.939734666833669
 31
0.0
 12
50.030564840705097
 22
16.759734666833669
 32
0.0
 13
50.030564840705097
 23
16.759734666833669
 33
0.0
  0
SOLID
  5
2A60
  8
DIM
 62
     0
 10
50.000564840705103
 20
17.779734666833669
 30
0.0
 11
50.060564840705098
 21
17.779734666833669
 31
0.0
 12
50.030564840705097
 22
17.959734666833668
 32
0.0
 13
50.030564840705097
 23
17.959734666833668
 33
0.0
  0
INSERT
  5
2A61
  8
DIMENSIONS
  2
*U199
 10
0.0
 20
0.0
 30
0.0
  0
POINT
  5
2A62
  8
DEFPOINTS
 62
     0
 10
52.561072969236342
 20
16.759734666833669
 30
0.0
  0
POINT
  5
2A63
  8
DEFPOINTS
 62
     0
 10
52.527952886674761
 20
17.959734666833668
 30
0.0
  0
POINT
  5
2A64
  8
DEFPOINTS
 62
     0
 10
50.030564840705097
 20
17.959734666833668
 30
0.0
  0
ENDBLK
  5
1D49
  8
0
  0
BLOCK
  8
0
  2
*D38
 70
     1
 10
0.0
 20
0.0
 30
0.0
  3
*D38
  1

  0
LINE
  5
2822
  8
DIM
 62
     0
 10
51.511072969236331
 20
18.172234666833671
 30
0.0
 11
51.511072969236331
 21
19.08608487013921
 31
0.0
  0
LINE
  5
2823
  8
DIM
 62
     0
 10
52.561072969236342
 20
18.022234666833668
 30
0.0
 11
52.561072969236342
 21
19.08608487013921
 31
0.0
  0
LINE
  5
2824
  8
DIM
 62
     0
 10
52.381072969236328
 20
18.906084870139221
 30
0.0
 11
51.691072969236338
 21
18.906084870139221
 31
0.0
  0
LINE
  5
2825
  8
DIM
 62
     0
 10
51.511072969236331
 20
18.906084870139221
 30
0.0
 11
51.331072969236331
 21
18.906084870139221
 31
0.0
  0
SOLID
  5
2826
  8
DIM
 62
     0
 10
52.381072969236328
 20
18.936084870139219
 30
0.0
 11
52.381072969236328
 21
18.876084870139209
 31
0.0
 12
52.561072969236342
 22
18.906084870139221
 32
0.0
 13
52.561072969236342
 23
18.906084870139221
 33
0.0
  0
SOLID
  5
2827
  8
DIM
 62
     0
 10
51.691072969236338
 20
18.936084870139219
 30
0.0
 11
51.691072969236338
 21
18.876084870139209
 31
0.0
 12
51.511072969236331
 22
18.906084870139221
 32
0.0
 13
51.511072969236331
 23
18.906084870139221
 33
0.0
  0
INSERT
  5
2828
  8
DIMENSIONS
  2
*U193
 10
0.0
 20
0.0
 30
0.0
  0
POINT
  5
2829
  8
DEFPOINTS
 62
     0
 10
51.511072969236331
 20
18.109734666833671
 30
0.0
  0
POINT
  5
282A
  8
DEFPOINTS
 62
     0
 10
52.561072969236342
 20
17.959734666833668
 30
0.0
  0
POINT
  5
282B
  8
DEFPOINTS
 62
     0
 10
52.561072969236342
 20
18.906084870139221
 30
0.0
  0
ENDBLK
  5
1D56
  8
0
  0
BLOCK
  8
0
  2
*D39
 70
     1
 10
0.0
 20
0.0
 30
0.0
  3
*D39
  1

  0
LINE
  5
2A7A
  8
DIM
 62
     0
 10
51.448572969236338
 20
16.609734666833671
 30
0.0
 11
49.099745489570481
 21
16.609734666833671
 31
0.0
  0
LINE
  5
2A7B
  8
DIM
 62
     0
 10
51.448572969236338
 20
18.109734666833671
 30
0.0
 11
49.099745489570481
 21
18.109734666833671
 31
0.0
  0
LINE
  5
2A7C
  8
DIM
 62
     0
 10
49.27974548957048
 20
16.78973466683367
 30
0.0
 11
49.27974548957048
 21
17.313037132505698
 31
0.0
  0
LINE
  5
2A7D
  8
DIM
 62
     0
 10
49.27974548957048
 20
17.929734666833671
 30
0.0
 11
49.27974548957048
 21
17.653252002901329
 31
0.0
  0
SOLID
  5
2A7E
  8
DIM
 62
     0
 10
49.249745489570479
 20
16.78973466683367
 30
0.0
 11
49.309745489570481
 21
16.78973466683367
 31
0.0
 12
49.27974548957048
 22
16.609734666833671
 32
0.0
 13
49.27974548957048
 23
16.609734666833671
 33
0.0
  0
SOLID
  5
2A7F
  8
DIM
 62
     0
 10
49.249745489570479
 20
17.929734666833671
 30
0.0
 11
49.309745489570481
 21
17.929734666833671
 31
0.0
 12
49.27974548957048
 22
18.109734666833671
 32
0.0
 13
49.27974548957048
 23
18.109734666833671
 33
0.0
  0
INSERT
  5
2A80
  8
DIMENSIONS
  2
*U200
 10
0.0
 20
0.0
 30
0.0
  0
POINT
  5
2A81
  8
DEFPOINTS
 62
     0
 10
51.511072969236331
 20
16.609734666833671
 30
0.0
  0
POINT
  5
2A82
  8
DEFPOINTS
 62
     0
 10
51.511072969236331
 20
18.109734666833671
 30
0.0
  0
POINT
  5
2A83
  8
DEFPOINTS
 62
     0
 10
49.27974548957048
 20
18.109734666833671
 30
0.0
  0
ENDBLK
  5
1D63
  8
0
  0
BLOCK
  8
0
  2
*D40
 70
     1
 10
0.0
 20
0.0
 30
0.0
  3
*D40
  1

  0
LINE
  5
2A84
  8
DIM
 62
     0
 10
51.448572969236338
 20
18.109734666833671
 30
0.0
 11
49.850564840705097
 21
18.109734666833671
 31
0.0
  0
LINE
  5
2A85
  8
DIM
 62
     0
 10
52.498572969236328
 20
17.959734666833668
 30
0.0
 11
49.850564840705097
 21
17.959734666833668
 31
0.0
  0
LINE
  5
2A86
  8
DIM
 62
     0
 10
50.030564840705097
 20
17.779734666833669
 30
0.0
 11
50.030564840705097
 21
17.599734666833669
 31
0.0
  0
LINE
  5
2A87
  8
DIM
 62
     0
 10
50.030564840705097
 20
18.28973466683367
 30
0.0
 11
50.030564840705097
 21
18.46973466683367
 31
0.0
  0
LINE
  5
2A88
  8
DIM
 62
     0
 10
50.030564840705097
 20
18.46973466683367
 30
0.0
 11
50.210564840705104
 21
18.46973466683367
 31
0.0
  0
SOLID
  5
2A89
  8
DIM
 62
     0
 10
50.000564840705103
 20
17.779734666833669
 30
0.0
 11
50.060564840705098
 21
17.779734666833669
 31
0.0
 12
50.030564840705097
 22
17.959734666833668
 32
0.0
 13
50.030564840705097
 23
17.959734666833668
 33
0.0
  0
SOLID
  5
2A8A
  8
DIM
 62
     0
 10
50.000564840705103
 20
18.28973466683367
 30
0.0
 11
50.060564840705098
 21
18.28973466683367
 31
0.0
 12
50.030564840705097
 22
18.109734666833671
 32
0.0
 13
50.030564840705097
 23
18.109734666833671
 33
0.0
  0
INSERT
  5
2A8B
  8
DIMENSIONS
  2
*U201
 10
0.0
 20
0.0
 30
0.0
  0
POINT
  5
2A8C
  8
DEFPOINTS
 62
     0
 10
51.511072969236331
 20
18.109734666833671
 30
0.0
  0
POINT
  5
2A8D
  8
DEFPOINTS
 62
     0
 10
52.561072969236342
 20
17.959734666833668
 30
0.0
  0
POINT
  5
2A8E
  8
DEFPOINTS
 62
     0
 10
50.030564840705097
 20
17.959734666833668
 30
0.0
  0
ENDBLK
  5
1D70
  8
0
  0
BLOCK
  8
0
  2
*D41
 70
     1
 10
0.0
 20
0.0
 30
0.0
  3
*D41
  1

  0
LINE
  5
3166
  8
DIM
 62
     0
 10
51.448572969236338
 20
13.89317335376581
 30
0.0
 11
50.716473317077011
 21
13.89317335376581
 31
0.0
  0
LINE
  5
3167
  8
DIM
 62
     0
 10
52.028572969236329
 20
14.14317335376581
 30
0.0
 11
50.716473317077011
 21
14.14317335376581
 31
0.0
  0
LINE
  5
3168
  8
DIM
 62
     0
 10
50.89647331707701
 20
13.713173353765811
 30
0.0
 11
50.89647331707701
 21
13.533173353765809
 31
0.0
  0
LINE
  5
3169
  8
DIM
 62
     0
 10
50.89647331707701
 20
14.32317335376581
 30
0.0
 11
50.89647331707701
 21
14.50317335376581
 31
0.0
  0
LINE
  5
316A
  8
DIM
 62
     0
 10
51.07647331707701
 20
14.87618241609948
 30
0.0
 11
50.89647331707701
 21
14.87618241609948
 31
0.0
  0
LINE
  5
316B
  8
DIM
 62
     0
 10
50.89647331707701
 20
14.87618241609948
 30
0.0
 11
50.89647331707701
 21
14.50317335376581
 31
0.0
  0
TEXT
  8
DIM
  40
0.125
  5
324C
  62
0
  72
0
  71
0
 10
51.4676
 20
14.6549
 30
0.000000
  1
 0.400/0.250 %%o%%u[ 10.16/6.35%%o%%u]
  0
SOLID
  5
316D
  8
DIM
 62
     0
 10
50.866473317077009
 20
13.713173353765811
 30
0.0
 11
50.926473317077011
 21
13.713173353765811
 31
0.0
 12
50.89647331707701
 22
13.89317335376581
 32
0.0
 13
50.89647331707701
 23
13.89317335376581
 33
0.0
  0
SOLID
  5
316E
  8
DIM
 62
     0
 10
50.866473317077009
 20
14.32317335376581
 30
0.0
 11
50.926473317077011
 21
14.32317335376581
 31
0.0
 12
50.89647331707701
 22
14.14317335376581
 32
0.0
 13
50.89647331707701
 23
14.14317335376581
 33
0.0
  0
POINT
  5
316F
  8
DEFPOINTS
 62
     0
 10
51.511072969236331
 20
13.89317335376581
 30
0.0
  0
POINT
  5
3170
  8
DEFPOINTS
 62
     0
 10
52.091072969236329
 20
14.14317335376581
 30
0.0
  0
POINT
  5
3171
  8
DEFPOINTS
 62
     0
 10
50.89647331707701
 20
14.14317335376581
 30
0.0
  0
ENDBLK
  5
1D7E
  8
0
  0
BLOCK
  8
0
  2
*T42
 70
     1
 10
0.0
 20
0.0
 30
0.0
  3
*T42
  1

  0
INSERT
  5
2483
  8
DIMENSIONS
  2
*U156
 10
0.0
 20
0.0
 30
0.0
  0
INSERT
  5
2484
  8
DIMENSIONS
  2
*U157
 10
0.0
 20
0.0
 30
0.0
  0
INSERT
  5
2485
  8
DIMENSIONS
  2
*U158
 10
0.0
 20
0.0
 30
0.0
  0
INSERT
  5
2486
  8
DIMENSIONS
  2
*U159
 10
0.0
 20
0.0
 30
0.0
  0
INSERT
  5
2487
  8
DIMENSIONS
  2
*U160
 10
0.0
 20
0.0
 30
0.0
  0
INSERT
  5
2488
  8
DIMENSIONS
  2
*U161
 10
0.0
 20
0.0
 30
0.0
  0
INSERT
  5
2489
  8
DIMENSIONS
  2
*U162
 10
0.0
 20
0.0
 30
0.0
  0
INSERT
  5
248A
  8
DIMENSIONS
  2
*U163
 10
0.0
 20
0.0
 30
0.0
  0
INSERT
  5
248B
  8
DIMENSIONS
  2
*U164
 10
0.0
 20
0.0
 30
0.0
  0
INSERT
  5
248C
  8
DIMENSIONS
  2
*U165
 10
0.0
 20
0.0
 30
0.0
  0
LINE
  5
248D
  8
CONVERTER
  6
BYBLOCK
 62
     0
 10
0.0
 20
0.0
 30
0.0
 11
4.5020959119810859
 21
0.0
 31
0.0
  0
LINE
  5
248E
  8
CONVERTER
  6
BYBLOCK
 62
     0
 10
0.0
 20
-0.8000000000000007
 30
0.0
 11
4.5020959119810859
 21
-0.8000000000000007
 31
0.0
  0
LINE
  5
248F
  8
CONVERTER
  6
BYBLOCK
 62
     0
 10
0.0
 20
-1.2000000000000011
 30
0.0
 11
4.5020959119810859
 21
-1.2000000000000011
 31
0.0
  0
LINE
  5
2490
  8
CONVERTER
  6
BYBLOCK
 62
     0
 10
0.0
 20
-1.600000000000001
 30
0.0
 11
4.5020959119810859
 21
-1.600000000000001
 31
0.0
  0
LINE
  5
2491
  8
CONVERTER
  6
BYBLOCK
 62
     0
 10
0.0
 20
-2.0000000000000009
 30
0.0
 11
4.5020959119810859
 21
-2.0000000000000009
 31
0.0
  0
LINE
  5
2492
  8
CONVERTER
  6
BYBLOCK
 62
     0
 10
0.0
 20
-2.4000000000000021
 30
0.0
 11
4.5020959119810859
 21
-2.4000000000000021
 31
0.0
  0
LINE
  5
2493
  8
CONVERTER
  6
BYBLOCK
 62
     0
 10
0.0
 20
0.0
 30
0.0
 11
0.0
 21
-2.4000000000000021
 31
0.0
  0
LINE
  5
2494
  8
CONVERTER
  6
BYBLOCK
 62
     0
 10
1.0
 20
0.0
 30
0.0
 11
1.0
 21
-2.4000000000000021
 31
0.0
  0
LINE
  5
2495
  8
CONVERTER
  6
BYBLOCK
 62
     0
 10
4.5020959119810859
 20
0.0
 30
0.0
 11
4.5020959119810859
 21
-2.4000000000000021
 31
0.0
  0
LINE
  5
2496
  8
DEFPOINTS
 62
     8
 10
0.0
 20
0.0
 30
0.0
 11
0.0
 21
0.0
 31
0.0
  0
ENDBLK
  5
2498
  8
0
  0
BLOCK
  8
0
  2
*D43
 70
     1
 10
0.0
 20
0.0
 30
0.0
  3
*D43
  1

  0
LINE
  5
286C
  8
DIMENSIONS
 62
     0
 10
51.511072969236331
 20
18.172234666833671
 30
0.0
 11
51.511072969236331
 21
19.47458896000596
 31
0.0
  0
LINE
  5
286D
  8
DIMENSIONS
 62
     0
 10
53.911072969236329
 20
18.172234666833671
 30
0.0
 11
53.911072969236329
 21
19.47458896000596
 31
0.0
  0
LINE
  5
286E
  8
DIMENSIONS
 62
     0
 10
51.691072969236338
 20
19.29458896000596
 30
0.0
 11
52.11953818069609
 21
19.29458896000596
 31
0.0
  0
LINE
  5
286F
  8
DIMENSIONS
 62
     0
 10
53.731072969236337
 20
19.29458896000596
 30
0.0
 11
53.302607757776578
 21
19.29458896000596
 31
0.0
  0
SOLID
  5
2870
  8
DIMENSIONS
 62
     0
 10
51.691072969236338
 20
19.324588960005961
 30
0.0
 11
51.691072969236338
 21
19.264588960005959
 31
0.0
 12
51.511072969236331
 22
19.29458896000596
 32
0.0
 13
51.511072969236331
 23
19.29458896000596
 33
0.0
  0
SOLID
  5
2871
  8
DIMENSIONS
 62
     0
 10
53.731072969236337
 20
19.324588960005961
 30
0.0
 11
53.731072969236337
 21
19.264588960005959
 31
0.0
 12
53.911072969236329
 22
19.29458896000596
 32
0.0
 13
53.911072969236329
 23
19.29458896000596
 33
0.0
  0
INSERT
  5
2872
  8
DIMENSIONS
  2
*U196
 10
0.0
 20
0.0
 30
0.0
  0
POINT
  5
2873
  8
DEFPOINTS
 62
     0
 10
51.511072969236331
 20
18.109734666833671
 30
0.0
  0
POINT
  5
2874
  8
DEFPOINTS
 62
     0
 10
53.911072969236329
 20
18.109734666833671
 30
0.0
  0
POINT
  5
2875
  8
DEFPOINTS
 62
     0
 10
53.911072969236329
 20
19.29458896000596
 30
0.0
  0
ENDBLK
  5
2860
  8
0
  0
BLOCK
  8
0
  2
_CLOSEDBLANK
 70
     0
 10
0.0
 20
0.0
 30
0.0
  3
_CLOSEDBLANK
  1

  0
LINE
  5
2A0F
  8
0
  6
BYBLOCK
 62
     0
 10
-1.0
 20
0.1666666666666666
 30
0.0
 11
0.0
 21
0.0
 31
0.0
  0
LINE
  5
2A10
  8
0
  6
BYBLOCK
 62
     0
 10
0.0
 20
0.0
 30
0.0
 11
-1.0
 21
-0.1666666666666666
 31
0.0
  0
LINE
  5
2A11
  8
0
  6
BYBLOCK
 62
     0
 10
-1.0
 20
0.1666666666666666
 30
0.0
 11
-1.0
 21
-0.1666666666666666
 31
0.0
  0
ENDBLK
  5
2A13
  8
0
  0
BLOCK
  8
0
  2
*U47
 70
     1
 10
0.0
 20
0.0
 30
0.0
  3
*U47
  1

  0
TEXT
  5
2EDF
  8
DIMENSIONS
 10
28.675964257628749
 20
14.75098457965932
 30
0.0
 40
0.125
  1
MIN PIN LENGTH
  0
ENDBLK
  5
2EE1
  8
0
  0
BLOCK
  8
0
  2
*U48
 70
     1
 10
0.0
 20
0.0
 30
0.0
  3
*U48
  1

  0
TEXT
  5
2EE3
  8
CONVERTER
 10
29.967563484055528
 20
17.7296319750421
 30
0.0
 40
0.08
  1
1
  0
ENDBLK
  5
2EE5
  8
0
  0
BLOCK
  8
0
  2
*U49
 70
     1
 10
0.0
 20
0.0
 30
0.0
  3
*U49
  1

  0
TEXT
  5
2EE7
  8
CONVERTER
 10
29.976458436306551
 20
16.929631975042099
 30
0.0
 40
0.08
  1
2
  0
ENDBLK
  5
2EE9
  8
0
  0
BLOCK
  8
0
  2
*U50
 70
     1
 10
0.0
 20
0.0
 30
0.0
  3
*U50
  1

  0
TEXT
  5
2EEB
  8
CONVERTER
 10
30.975572813072031
 20
16.829959396597349
 30
0.0
 40
0.08
  1
4
  0
ENDBLK
  5
2EED
  8
0
  0
BLOCK
  8
0
  2
*U51
 70
     1
 10
0.0
 20
0.0
 30
0.0
  3
*U51
  1

  0
TEXT
  5
2EEF
  8
CONVERTER
 10
30.975245391516779
 20
17.829631975042101
 30
0.0
 40
0.08
  1
3
  0
ENDBLK
  5
2EF1
  8
0
  0
BLOCK
  8
0
  2
*U52
 70
     1
 10
0.0
 20
0.0
 30
0.0
  3
*U52
  1

  0
SOLID
  5
2EF3
  8
DIMENSIONS
 10
30.601595971859648
 20
12.927715948117751
 30
0.0
 11
30.50602926725405
 21
13.08317335376581
 31
0.0
 12
30.646848822091151
 22
12.967113658024861
 32
0.0
 13
30.646848822091151
 23
12.967113658024861
 33
0.0
  0
POLYLINE
  5
2EF4
  8
DIMENSIONS
 66
     1
 10
0.0
 20
0.0
 30
0.0
  0
VERTEX
  5
2EF5
  8
DIMENSIONS
 10
30.624222396975401
 20
12.947414803071309
 30
0.0
  0
VERTEX
  5
2EF6
  8
DIMENSIONS
 10
30.896905501870631
 20
12.634206554785409
 30
0.0
  0
VERTEX
  5
2EF7
  8
DIMENSIONS
 10
31.085355743720509
 20
12.633901838482
 30
0.0
  0
SEQEND
  5
2EF8
  8
DIMENSIONS
  0
ENDBLK
  5
2EFA
  8
0
  0
BLOCK
  8
0
  2
*U53
 70
     1
 10
0.0
 20
0.0
 30
0.0
  3
*U53
  1

  0
TEXT
  5
2EFC
  8
DIMENSIONS
 10
31.151999133001841
 20
12.586908162687889
 30
0.0
 40
0.125
  1
BLACK PHENOLIC CASE
  0
ENDBLK
  5
2EFE
  8
0
  0
BLOCK
  8
0
  2
*U54
 70
     1
 10
0.0
 20
0.0
 30
0.0
  3
*U54
  1

  0
SOLID
  5
2F00
  8
DIMENSIONS
 10
30.615009627096981
 20
14.03954029391455
 30
0.0
 11
30.50602926725405
 21
13.89317335376581
 31
0.0
 12
30.56164843786804
 22
14.066973548990701
 32
0.0
 13
30.56164843786804
 23
14.066973548990701
 33
0.0
  0
POLYLINE
  5
2F01
  8
DIMENSIONS
 66
     1
 10
0.0
 20
0.0
 30
0.0
  0
VERTEX
  5
2F02
  8
DIMENSIONS
 10
30.588329032482509
 20
14.053256921452631
 30
0.0
  0
VERTEX
  5
2F03
  8
DIMENSIONS
 10
31.112620665053822
 20
15.073071192093281
 30
0.0
  0
VERTEX
  5
2F04
  8
DIMENSIONS
 10
31.28586712230517
 20
15.07311969688385
 30
0.0
  0
SEQEND
  5
2F05
  8
DIMENSIONS
  0
ENDBLK
  5
2F07
  8
0
  0
BLOCK
  8
0
  2
*U55
 70
     1
 10
0.0
 20
0.0
 30
0.0
  3
*U55
  1

  0
TEXT
  5
2F09
  8
DIMENSIONS
 10
31.374191464882681
 20
15.01558428694865
 30
0.0
 40
0.125
  1
NONCONDUCTIVE BASE PLATE
  0
ENDBLK
  5
2F0B
  8
0
  0
BLOCK
  8
0
  2
*U56
 70
     1
 10
0.0
 20
0.0
 30
0.0
  3
*U56
  1

  0
SOLID
  5
2F0D
  8
DIMENSIONS
 10
31.232970298815651
 20
14.29103685760818
 30
0.0
 11
31.126029267254051
 21
14.14317335376581
 31
0.0
 12
31.179233971539119
 22
14.31772781358262
 32
0.0
 13
31.179233971539119
 23
14.31772781358262
 33
0.0
  0
POLYLINE
  5
2F0E
  8
DIMENSIONS
 66
     1
 10
0.0
 20
0.0
 30
0.0
  0
VERTEX
  5
2F0F
  8
DIMENSIONS
 10
31.206102135177382
 20
14.304382335595401
 30
0.0
  0
VERTEX
  5
2F10
  8
DIMENSIONS
 10
31.379955200160879
 20
14.65439697002536
 30
0.0
  0
VERTEX
  5
2F11
  8
DIMENSIONS
 10
31.624929700083261
 20
14.65408585630362
 30
0.0
  0
SEQEND
  5
2F12
  8
DIMENSIONS
  0
ENDBLK
  5
2F14
  8
0
  0
BLOCK
  8
0
  2
*U57
 70
     1
 10
0.0
 20
0.0
 30
0.0
  3
*U57
  1

  0
TEXT
  5
2F16
  8
DIMENSIONS
 10
31.680935663544901
 20
14.60419088703086
 30
0.0
 40
0.125
  1
PINS -  0.040 [0.11] Dia.
  0
ENDBLK
  5
2F18
  8
0
  0
BLOCK
  8
0
  2
*U58
 70
     1
 10
0.0
 20
0.0
 30
0.0
  3
*U58
  1

  0
TEXT
  5
2F1A
  8
DIMENSIONS
 10
31.778645717620261
 20
14.40396511414975
 30
0.0
 40
0.125
  1
TIN PLATED BRASS, MATTE FINISH
  0
ENDBLK
  5
2F1C
  8
0
  0
BLOCK
  8
0
  2
*U59
 70
     1
 10
0.0
 20
0.0
 30
0.0
  3
*U59
  1

  0
TEXT
  5
2F1E
  8
CONVERTER
 10
30.974645118665482
 20
17.32995939659736
 30
0.0
 40
0.08
  1
5
  0
ENDBLK
  5
2F20
  8
0
  0
BLOCK
  8
0
  2
*U60
 70
     1
 10
0.0
 20
0.0
 30
0.0
  3
*U60
  1

  0
TEXT
  5
2F3C
  8
CONVERTER
 10
27.437236634239049
 20
9.3199120328887446
 30
0.0
 40
0.15
  1
PIN #
  0
TEXT
  5
2F3D
  8
CONVERTER
 10
29.030585883897981
 20
9.5199120328887457
 30
0.0
 40
0.15
  1
STANDARD
  0
TEXT
  5
2F3E
  8
CONVERTER
 10
31.565732541469611
 20
9.5406316781820628
 30
0.0
 40
0.15
  1
/A (ALT. PINOUT)
  0
TEXT
  5
2F3F
  8
CONVERTER
 10
28.522639089900711
 20
9.1199120328887435
 30
0.0
 40
0.15
  1
SINGLE
  0
TEXT
  5
2F40
  8
CONVERTER
 10
30.02219570654464
 20
9.1211910233389482
 30
0.0
 40
0.15
  1
DUAL
  0
TEXT
  5
2F41
  8
CONVERTER
 10
31.322639089900711
 20
9.1199120328887435
 30
0.0
 40
0.15
  1
SINGLE
  0
TEXT
  5
2F42
  8
CONVERTER
 10
32.82219570654464
 20
9.1211910233389482
 30
0.0
 40
0.15
  1
DUAL
  0
TEXT
  5
2F43
  8
CONVERTER
 10
27.655585883897981
 20
8.7196050751806968
 30
0.0
 40
0.15
  1
1
  0
TEXT
  5
2F44
  8
CONVERTER
 10
28.497673196312721
 20
8.7211910233389496
 30
0.0
 40
0.15
  1
+ INPUT
  0
TEXT
  5
2F45
  8
CONVERTER
 10
29.897673196312709
 20
8.7211910233389496
 30
0.0
 40
0.15
  1
+ INPUT
  0
TEXT
  5
2F46
  8
CONVERTER
 10
31.297673196312711
 20
8.7211910233389496
 30
0.0
 40
0.15
  1
+ INPUT
  0
TEXT
  5
2F47
  8
CONVERTER
 10
32.697673196312707
 20
8.7211910233389496
 30
0.0
 40
0.15
  1
+ INPUT
  0
TEXT
  5
2F48
  8
CONVERTER
 10
27.650214124007121
 20
8.3196050751806965
 30
0.0
 40
0.15
  1
2
  0
TEXT
  5
2F49
  8
CONVERTER
 10
28.526476061251319
 20
8.3211910233389492
 30
0.0
 40
0.15
  1
- INPUT
  0
TEXT
  5
2F4A
  8
CONVERTER
 10
29.926476061251321
 20
8.3211910233389492
 30
0.0
 40
0.15
  1
- INPUT
  0
TEXT
  5
2F4B
  8
CONVERTER
 10
31.32647606125132
 20
8.3211910233389492
 30
0.0
 40
0.15
  1
- INPUT
  0
TEXT
  5
2F4C
  8
CONVERTER
 10
32.726476061251319
 20
8.3211910233389492
 30
0.0
 40
0.15
  1
- INPUT
  0
TEXT
  5
2F4D
  8
CONVERTER
 10
27.648116579668791
 20
7.9209352252489067
 30
0.0
 40
0.15
  1
3
  0
TEXT
  5
2F4E
  8
CONVERTER
 10
28.41008793028271
 20
7.9198608732707338
 30
0.0
 40
0.15
  1
- OUTPUT
  0
TEXT
  5
2F4F
  8
CONVERTER
 10
29.71089966288843
 20
7.9048506413471333
 30
0.0
 40
0.18
  1
- OUTPUT
  0
TEXT
  5
2F50
  8
CONVERTER
 10
31.076336224962098
 20
7.9048506413471333
 30
0.0
 40
0.18
  1
+ OUTPUT
  0
TEXT
  5
2F51
  8
CONVERTER
 10
32.581285065344098
 20
7.9198608732707338
 30
0.0
 40
0.15
  1
+ OUTPUT
  0
TEXT
  5
2F52
  8
CONVERTER
 10
27.65149311445732
 20
7.5199120328887439
 30
0.0
 40
0.15
  1
4
  0
TEXT
  5
2F53
  8
CONVERTER
 10
28.381285065344091
 20
7.5198608732707362
 30
0.0
 40
0.15
  1
+ OUTPUT
  0
TEXT
  5
2F54
  8
CONVERTER
 10
29.78128506534409
 20
7.5198608732707362
 30
0.0
 40
0.15
  1
+ OUTPUT
  0
TEXT
  5
2F55
  8
CONVERTER
 10
31.2100879302827
 20
7.5198608732707362
 30
0.0
 40
0.15
  1
- OUTPUT
  0
TEXT
  5
2F56
  8
CONVERTER
 10
32.610087930282702
 20
7.5198608732707362
 30
0.0
 40
0.15
  1
- OUTPUT
  0
TEXT
  5
2F57
  8
CONVERTER
 10
27.647604983488701
 20
7.121191023338949
 30
0.0
 40
0.15
  1
5
  0
TEXT
  5
2F58
  8
CONVERTER
 10
28.545712077622401
 20
7.1198608732707349
 30
0.0
 40
0.15
  1
NO PIN
  0
TEXT
  5
2F59
  8
CONVERTER
 10
30.06430007216537
 20
7.1198608732707349
 30
0.0
 40
0.15
  1
COM
  0
TEXT
  5
2F5A
  8
CONVERTER
 10
31.345712077622402
 20
7.1198608732707349
 30
0.0
 40
0.15
  1
NO PIN
  0
TEXT
  5
2F5B
  8
CONVERTER
 10
32.864300072165371
 20
7.1198608732707349
 30
0.0
 40
0.15
  1
COM
  0
LINE
  5
2F5C
  8
CONVERTER
 10
27.206029267254049
 20
9.794912032888746
 30
0.0
 11
33.806029267254047
 21
9.794912032888746
 31
0.0
  0
LINE
  5
2F5D
  8
CONVERTER
 10
28.206029267254049
 20
9.3949120328887457
 30
0.0
 11
33.806029267254047
 21
9.3949120328887457
 31
0.0
  0
LINE
  5
2F5E
  8
CONVERTER
 10
27.206029267254049
 20
8.9949120328887453
 30
0.0
 11
33.806029267254047
 21
8.9949120328887453
 31
0.0
  0
LINE
  5
2F5F
  8
CONVERTER
 10
27.206029267254049
 20
8.5949120328887432
 30
0.0
 11
33.806029267254047
 21
8.5949120328887432
 31
0.0
  0
LINE
  5
2F60
  8
CONVERTER
 10
27.206029267254049
 20
8.1949120328887446
 30
0.0
 11
33.806029267254047
 21
8.1949120328887446
 31
0.0
  0
LINE
  5
2F61
  8
CONVERTER
 10
27.206029267254049
 20
7.7949120328887442
 30
0.0
 11
33.806029267254047
 21
7.7949120328887442
 31
0.0
  0
LINE
  5
2F62
  8
CONVERTER
 10
27.206029267254049
 20
7.394912032888743
 30
0.0
 11
33.806029267254047
 21
7.394912032888743
 31
0.0
  0
LINE
  5
2F63
  8
CONVERTER
 10
27.206029267254049
 20
6.9949120328887426
 30
0.0
 11
33.806029267254047
 21
6.9949120328887426
 31
0.0
  0
LINE
  5
2F64
  8
CONVERTER
 10
27.206029267254049
 20
9.794912032888746
 30
0.0
 11
27.206029267254049
 21
6.9949120328887426
 31
0.0
  0
LINE
  5
2F65
  8
CONVERTER
 10
28.206029267254049
 20
9.794912032888746
 30
0.0
 11
28.206029267254049
 21
6.9949120328887426
 31
0.0
  0
LINE
  5
2F66
  8
CONVERTER
 10
29.606029267254051
 20
9.3949120328887457
 30
0.0
 11
29.606029267254051
 21
6.9949120328887426
 31
0.0
  0
LINE
  5
2F67
  8
CONVERTER
 10
31.00602926725405
 20
9.794912032888746
 30
0.0
 11
31.00602926725405
 21
6.9949120328887426
 31
0.0
  0
LINE
  5
2F68
  8
CONVERTER
 10
32.406029267254048
 20
9.3949120328887457
 30
0.0
 11
32.406029267254048
 21
6.9949120328887426
 31
0.0
  0
LINE
  5
2F69
  8
CONVERTER
 10
33.806029267254047
 20
9.794912032888746
 30
0.0
 11
33.806029267254047
 21
6.9949120328887426
 31
0.0
  0
LINE
  5
2F6A
  8
CONVERTER
 62
     8
 10
27.206029267254049
 20
9.794912032888746
 30
0.0
 11
27.206029267254049
 21
9.794912032888746
 31
0.0
  0
ENDBLK
  5
2F6C
  8
0
  0
BLOCK
  8
0
  2
*U61
 70
     1
 10
0.0
 20
0.0
 30
0.0
  3
*U61
  1

  0
TEXT
  5
2F6E
  8
CONVERTER
 62
     0
 10
0.2312073669849932
 20
-0.4750000000000004
 30
0.0
 40
0.15
  1
PIN #
  0
ENDBLK
  5
2F70
  8
0
  0
BLOCK
  8
0
  2
*U62
 70
     1
 10
0.0
 20
0.0
 30
0.0
  3
*U62
  1

  0
TEXT
  5
2F72
  8
CONVERTER
 62
     0
 10
1.8245566166439271
 20
-0.2749999999999992
 30
0.0
 40
0.15
  1
STANDARD
  0
ENDBLK
  5
2F74
  8
0
  0
BLOCK
  8
0
  2
*U63
 70
     1
 10
0.0
 20
0.0
 30
0.0
  3
*U63
  1

  0
TEXT
  5
2F76
  8
CONVERTER
 62
     0
 10
4.3597032742155548
 20
-0.2542803547066841
 30
0.0
 40
0.15
  1
/A (ALT. PINOUT)
  0
ENDBLK
  5
2F78
  8
0
  0
BLOCK
  8
0
  2
*U64
 70
     1
 10
0.0
 20
0.0
 30
0.0
  3
*U64
  1

  0
TEXT
  5
2F7A
  8
CONVERTER
 62
     0
 10
1.316609822646656
 20
-0.6750000000000015
 30
0.0
 40
0.15
  1
SINGLE
  0
ENDBLK
  5
2F7C
  8
0
  0
BLOCK
  8
0
  2
*U65
 70
     1
 10
0.0
 20
0.0
 30
0.0
  3
*U65
  1

  0
TEXT
  5
2F7E
  8
CONVERTER
 62
     0
 10
2.8161664392905839
 20
-0.6737210095497969
 30
0.0
 40
0.15
  1
DUAL
  0
ENDBLK
  5
2F80
  8
0
  0
BLOCK
  8
0
  2
*U66
 70
     1
 10
0.0
 20
0.0
 30
0.0
  3
*U66
  1

  0
TEXT
  5
2F82
  8
CONVERTER
 62
     0
 10
4.1166098226466543
 20
-0.6750000000000015
 30
0.0
 40
0.15
  1
SINGLE
  0
ENDBLK
  5
2F84
  8
0
  0
BLOCK
  8
0
  2
*U67
 70
     1
 10
0.0
 20
0.0
 30
0.0
  3
*U67
  1

  0
TEXT
  5
2F86
  8
CONVERTER
 62
     0
 10
5.616166439290585
 20
-0.6737210095497969
 30
0.0
 40
0.15
  1
DUAL
  0
ENDBLK
  5
2F88
  8
0
  0
BLOCK
  8
0
  2
*U68
 70
     1
 10
0.0
 20
0.0
 30
0.0
  3
*U68
  1

  0
TEXT
  5
2F8A
  8
CONVERTER
 62
     0
 10
0.449556616643929
 20
-1.075306957708049
 30
0.0
 40
0.15
  1
1
  0
ENDBLK
  5
2F8C
  8
0
  0
BLOCK
  8
0
  2
*U69
 70
     1
 10
0.0
 20
0.0
 30
0.0
  3
*U69
  1

  0
TEXT
  5
2F8E
  8
CONVERTER
 62
     0
 10
1.2916439290586621
 20
-1.0737210095497951
 30
0.0
 40
0.15
  1
+ INPUT
  0
ENDBLK
  5
2F90
  8
0
  0
BLOCK
  8
0
  2
*U70
 70
     1
 10
0.0
 20
0.0
 30
0.0
  3
*U70
  1

  0
TEXT
  5
2F92
  8
CONVERTER
 62
     0
 10
2.6916439290586611
 20
-1.0737210095497951
 30
0.0
 40
0.15
  1
+ INPUT
  0
ENDBLK
  5
2F94
  8
0
  0
BLOCK
  8
0
  2
*U71
 70
     1
 10
0.0
 20
0.0
 30
0.0
  3
*U71
  1

  0
TEXT
  5
2F96
  8
CONVERTER
 62
     0
 10
4.0916439290586588
 20
-1.0737210095497951
 30
0.0
 40
0.15
  1
+ INPUT
  0
ENDBLK
  5
2F98
  8
0
  0
BLOCK
  8
0
  2
*U72
 70
     1
 10
0.0
 20
0.0
 30
0.0
  3
*U72
  1

  0
TEXT
  5
2F9A
  8
CONVERTER
 62
     0
 10
5.4916439290586609
 20
-1.0737210095497951
 30
0.0
 40
0.15
  1
+ INPUT
  0
ENDBLK
  5
2F9C
  8
0
  0
BLOCK
  8
0
  2
*U73
 70
     1
 10
0.0
 20
0.0
 30
0.0
  3
*U73
  1

  0
TEXT
  5
2F9E
  8
CONVERTER
 62
     0
 10
0.4441848567530696
 20
-1.4753069577080491
 30
0.0
 40
0.15
  1
2
  0
ENDBLK
  5
2FA0
  8
0
  0
BLOCK
  8
0
  2
*U74
 70
     1
 10
0.0
 20
0.0
 30
0.0
  3
*U74
  1

  0
TEXT
  5
2FA2
  8
CONVERTER
 62
     0
 10
1.3204467939972699
 20
-1.473721009549795
 30
0.0
 40
0.15
  1
- INPUT
  0
ENDBLK
  5
2FA4
  8
0
  0
BLOCK
  8
0
  2
*U75
 70
     1
 10
0.0
 20
0.0
 30
0.0
  3
*U75
  1

  0
TEXT
  5
2FA6
  8
CONVERTER
 62
     0
 10
2.7204467939972692
 20
-1.473721009549795
 30
0.0
 40
0.15
  1
- INPUT
  0
ENDBLK
  5
2FA8
  8
0
  0
BLOCK
  8
0
  2
*U76
 70
     1
 10
0.0
 20
0.0
 30
0.0
  3
*U76
  1

  0
TEXT
  5
2FAA
  8
CONVERTER
 62
     0
 10
4.1204467939972682
 20
-1.473721009549795
 30
0.0
 40
0.15
  1
- INPUT
  0
ENDBLK
  5
2FAC
  8
0
  0
BLOCK
  8
0
  2
*U77
 70
     1
 10
0.0
 20
0.0
 30
0.0
  3
*U77
  1

  0
TEXT
  5
2FAE
  8
CONVERTER
 62
     0
 10
5.5204467939972703
 20
-1.473721009549795
 30
0.0
 40
0.15
  1
- INPUT
  0
ENDBLK
  5
2FB0
  8
0
  0
BLOCK
  8
0
  2
*U78
 70
     1
 10
0.0
 20
0.0
 30
0.0
  3
*U78
  1

  0
TEXT
  5
2FB2
  8
CONVERTER
 62
     0
 10
0.442087312414734
 20
-1.873976807639838
 30
0.0
 40
0.15
  1
3
  0
ENDBLK
  5
2FB4
  8
0
  0
BLOCK
  8
0
  2
*U79
 70
     1
 10
0.0
 20
0.0
 30
0.0
  3
*U79
  1

  0
TEXT
  5
2FB6
  8
CONVERTER
 62
     0
 10
1.2040586630286481
 20
-1.8750511596180099
 30
0.0
 40
0.15
  1
- OUTPUT
  0
ENDBLK
  5
2FB8
  8
0
  0
BLOCK
  8
0
  2
*U80
 70
     1
 10
0.0
 20
0.0
 30
0.0
  3
*U80
  1

  0
TEXT
  5
2FBA
  8
CONVERTER
 62
     0
 10
2.5048703956343772
 20
-1.890061391541612
 30
0.0
 40
0.18
  1
- OUTPUT
  0
ENDBLK
  5
2FBC
  8
0
  0
BLOCK
  8
0
  2
*U81
 70
     1
 10
0.0
 20
0.0
 30
0.0
  3
*U81
  1

  0
TEXT
  5
2FBE
  8
CONVERTER
 62
     0
 10
3.8703069577080451
 20
-1.890061391541612
 30
0.0
 40
0.18
  1
+ OUTPUT
  0
ENDBLK
  5
2FC0
  8
0
  0
BLOCK
  8
0
  2
*U82
 70
     1
 10
0.0
 20
0.0
 30
0.0
  3
*U82
  1

  0
TEXT
  5
2FC2
  8
CONVERTER
 62
     0
 10
5.3752557980900386
 20
-1.8750511596180099
 30
0.0
 40
0.15
  1
+ OUTPUT
  0
ENDBLK
  5
2FC4
  8
0
  0
BLOCK
  8
0
  2
*U83
 70
     1
 10
0.0
 20
0.0
 30
0.0
  3
*U83
  1

  0
TEXT
  5
2FC6
  8
CONVERTER
 62
     0
 10
0.4454638472032742
 20
-2.2749999999999999
 30
0.0
 40
0.15
  1
4
  0
ENDBLK
  5
2FC8
  8
0
  0
BLOCK
  8
0
  2
*U84
 70
     1
 10
0.0
 20
0.0
 30
0.0
  3
*U84
  1

  0
TEXT
  5
2FCA
  8
CONVERTER
 62
     0
 10
1.17525579809004
 20
-2.2750511596180081
 30
0.0
 40
0.15
  1
+ OUTPUT
  0
ENDBLK
  5
2FCC
  8
0
  0
BLOCK
  8
0
  2
*U85
 70
     1
 10
0.0
 20
0.0
 30
0.0
  3
*U85
  1

  0
TEXT
  5
2FCE
  8
CONVERTER
 62
     0
 10
2.5752557980900388
 20
-2.2750511596180081
 30
0.0
 40
0.15
  1
+ OUTPUT
  0
ENDBLK
  5
2FD0
  8
0
  0
BLOCK
  8
0
  2
*U86
 70
     1
 10
0.0
 20
0.0
 30
0.0
  3
*U86
  1

  0
TEXT
  5
2FD2
  8
CONVERTER
 62
     0
 10
4.004058663028645
 20
-2.2750511596180081
 30
0.0
 40
0.15
  1
- OUTPUT
  0
ENDBLK
  5
2FD4
  8
0
  0
BLOCK
  8
0
  2
*U87
 70
     1
 10
0.0
 20
0.0
 30
0.0
  3
*U87
  1

  0
TEXT
  5
2FD6
  8
CONVERTER
 62
     0
 10
5.404058663028648
 20
-2.2750511596180081
 30
0.0
 40
0.15
  1
- OUTPUT
  0
ENDBLK
  5
2FD8
  8
0
  0
BLOCK
  8
0
  2
*U88
 70
     1
 10
0.0
 20
0.0
 30
0.0
  3
*U88
  1

  0
TEXT
  5
2FDA
  8
CONVERTER
 62
     0
 10
0.4415757162346522
 20
-2.6737210095497961
 30
0.0
 40
0.15
  1
5
  0
ENDBLK
  5
2FDC
  8
0
  0
BLOCK
  8
0
  2
*U89
 70
     1
 10
0.0
 20
0.0
 30
0.0
  3
*U89
  1

  0
TEXT
  5
2FDE
  8
CONVERTER
 62
     0
 10
1.339682810368348
 20
-2.6750511596180089
 30
0.0
 40
0.15
  1
NO PIN
  0
ENDBLK
  5
2FE0
  8
0
  0
BLOCK
  8
0
  2
*U90
 70
     1
 10
0.0
 20
0.0
 30
0.0
  3
*U90
  1

  0
TEXT
  5
2FE2
  8
CONVERTER
 62
     0
 10
2.8582708049113208
 20
-2.6750511596180089
 30
0.0
 40
0.15
  1
COM
  0
ENDBLK
  5
2FE4
  8
0
  0
BLOCK
  8
0
  2
*U91
 70
     1
 10
0.0
 20
0.0
 30
0.0
  3
*U91
  1

  0
TEXT
  5
2FE6
  8
CONVERTER
 62
     0
 10
4.1396828103683463
 20
-2.6750511596180089
 30
0.0
 40
0.15
  1
NO PIN
  0
ENDBLK
  5
2FE8
  8
0
  0
BLOCK
  8
0
  2
*U92
 70
     1
 10
0.0
 20
0.0
 30
0.0
  3
*U92
  1

  0
TEXT
  5
2FEA
  8
CONVERTER
 62
     0
 10
5.6582708049113224
 20
-2.6750511596180089
 30
0.0
 40
0.15
  1
COM
  0
ENDBLK
  5
2FEC
  8
0
  0
BLOCK
  8
0
  2
*U93
 70
     1
 10
0.0
 20
0.0
 30
0.0
  3
*U93
  1

  0
TEXT
  5
3006
  8
DIMENSIONS
 10
39.880723817631349
 20
14.75098457965932
 30
0.0
 40
0.125
  1
MIN PIN LENGTH
  0
ENDBLK
  5
3008
  8
0
  0
BLOCK
  8
0
  2
*U94
 70
     1
 10
0.0
 20
0.0
 30
0.0
  3
*U94
  1

  0
TEXT
  5
300A
  8
CONVERTER
 10
40.73121799630897
 20
17.879631975042098
 30
0.0
 40
0.08
  1
2
  0
ENDBLK
  5
300C
  8
0
  0
BLOCK
  8
0
  2
*U95
 70
     1
 10
0.0
 20
0.0
 30
0.0
  3
*U95
  1

  0
TEXT
  5
300E
  8
CONVERTER
 10
40.722323044057951
 20
16.929631975042099
 30
0.0
 40
0.08
  1
1
  0
ENDBLK
  5
3010
  8
0
  0
BLOCK
  8
0
  2
*U96
 70
     1
 10
0.0
 20
0.0
 30
0.0
  3
*U96
  1

  0
TEXT
  5
3012
  8
CONVERTER
 10
42.630004951519211
 20
16.779631975042101
 30
0.0
 40
0.08
  1
3
  0
ENDBLK
  5
3014
  8
0
  0
BLOCK
  8
0
  2
*U97
 70
     1
 10
0.0
 20
0.0
 30
0.0
  3
*U97
  1

  0
TEXT
  5
3016
  8
CONVERTER
 10
42.630332373074452
 20
17.879959396597361
 30
0.0
 40
0.08
  1
4
  0
ENDBLK
  5
3018
  8
0
  0
BLOCK
  8
0
  2
*U98
 70
     1
 10
0.0
 20
0.0
 30
0.0
  3
*U98
  1

  0
SOLID
  5
301A
  8
DIMENSIONS
 10
41.806355531862238
 20
12.927715948117751
 30
0.0
 11
41.710788827256643
 21
13.08317335376581
 31
0.0
 12
41.851608382093737
 22
12.96711365802487
 32
0.0
 13
41.851608382093737
 23
12.96711365802487
 33
0.0
  0
POLYLINE
  5
301B
  8
DIMENSIONS
 66
     1
 10
0.0
 20
0.0
 30
0.0
  0
VERTEX
  5
301C
  8
DIMENSIONS
 10
41.828981956977991
 20
12.947414803071309
 30
0.0
  0
VERTEX
  5
301D
  8
DIMENSIONS
 10
42.10166506187322
 20
12.634206554785409
 30
0.0
  0
VERTEX
  5
301E
  8
DIMENSIONS
 10
42.290115303723098
 20
12.633901838482
 30
0.0
  0
SEQEND
  5
301F
  8
DIMENSIONS
  0
ENDBLK
  5
3021
  8
0
  0
BLOCK
  8
0
  2
*U99
 70
     1
 10
0.0
 20
0.0
 30
0.0
  3
*U99
  1

  0
TEXT
  5
3023
  8
DIMENSIONS
 10
42.35675869300443
 20
12.5869081626879
 30
0.0
 40
0.125
  1
BLACK PHENOLIC CASE
  0
ENDBLK
  5
3025
  8
0
  0
BLOCK
  8
0
  2
*U100
 70
     1
 10
0.0
 20
0.0
 30
0.0
  3
*U100
  1

  0
SOLID
  5
3027
  8
DIMENSIONS
 10
41.819769187099567
 20
14.03954029391455
 30
0.0
 11
41.710788827256643
 21
13.89317335376581
 31
0.0
 12
41.766407997870637
 22
14.066973548990701
 32
0.0
 13
41.766407997870637
 23
14.066973548990701
 33
0.0
  0
POLYLINE
  5
3028
  8
DIMENSIONS
 66
     1
 10
0.0
 20
0.0
 30
0.0
  0
VERTEX
  5
3029
  8
DIMENSIONS
 10
41.793088592485098
 20
14.053256921452631
 30
0.0
  0
VERTEX
  5
302A
  8
DIMENSIONS
 10
42.317380225056411
 20
15.073071192093289
 30
0.0
  0
VERTEX
  5
302B
  8
DIMENSIONS
 10
42.490626682307763
 20
15.07311969688385
 30
0.0
  0
SEQEND
  5
302C
  8
DIMENSIONS
  0
ENDBLK
  5
302E
  8
0
  0
BLOCK
  8
0
  2
*U101
 70
     1
 10
0.0
 20
0.0
 30
0.0
  3
*U101
  1

  0
TEXT
  5
3030
  8
DIMENSIONS
 10
42.578951024885278
 20
15.01558428694865
 30
0.0
 40
0.125
  1
NONCONDUCTIVE BASE PLATE
  0
ENDBLK
  5
3032
  8
0
  0
BLOCK
  8
0
  2
*U102
 70
     1
 10
0.0
 20
0.0
 30
0.0
  3
*U102
  1

  0
SOLID
  5
3034
  8
DIMENSIONS
 10
42.88772985881824
 20
14.29103685760818
 30
0.0
 11
42.780788827256643
 21
14.14317335376581
 31
0.0
 12
42.833993531541708
 22
14.31772781358263
 32
0.0
 13
42.833993531541708
 23
14.31772781358263
 33
0.0
  0
POLYLINE
  5
3035
  8
DIMENSIONS
 66
     1
 10
0.0
 20
0.0
 30
0.0
  0
VERTEX
  5
3036
  8
DIMENSIONS
 10
42.86086169517997
 20
14.304382335595401
 30
0.0
  0
VERTEX
  5
3037
  8
DIMENSIONS
 10
43.034714760163467
 20
14.65439697002536
 30
0.0
  0
VERTEX
  5
3038
  8
DIMENSIONS
 10
43.279689260085838
 20
14.65408585630362
 30
0.0
  0
SEQEND
  5
3039
  8
DIMENSIONS
  0
ENDBLK
  5
303B
  8
0
  0
BLOCK
  8
0
  2
*U103
 70
     1
 10
0.0
 20
0.0
 30
0.0
  3
*U103
  1

  0
TEXT
  5
303D
  8
DIMENSIONS
 10
43.335695223547482
 20
14.60419088703086
 30
0.0
 40
0.125
  1
PINS -  0.040 [0.11] Dia.
  0
ENDBLK
  5
303F
  8
0
  0
BLOCK
  8
0
  2
*U104
 70
     1
 10
0.0
 20
0.0
 30
0.0
  3
*U104
  1

  0
TEXT
  5
3041
  8
DIMENSIONS
 10
43.433405277622839
 20
14.40396511414975
 30
0.0
 40
0.125
  1
TIN PLATED BRASS, MATTE FINISH
  0
ENDBLK
  5
3043
  8
0
  0
BLOCK
  8
0
  2
*U105
 70
     1
 10
0.0
 20
0.0
 30
0.0
  3
*U105
  1

  0
TEXT
  5
3045
  8
DEFPOINTS
 10
0.9044133620543671
 20
2.325746478024814
 30
0.0
 40
0.15
  1
PIN #
  0
TEXT
  5
3046
  8
DEFPOINTS
 10
2.4977626117133029
 20
2.5257464780248138
 30
0.0
 40
0.15
  1
STANDARD
  0
TEXT
  5
3047
  8
DEFPOINTS
 10
5.0329092692849251
 20
2.5464661233181292
 30
0.0
 40
0.15
  1
/A (ALT. PINOUT)
  0
TEXT
  5
3048
  8
DEFPOINTS
 10
1.989815817716031
 20
2.1257464780248139
 30
0.0
 40
0.15
  1
SINGLE
  0
TEXT
  5
3049
  8
DEFPOINTS
 10
3.4893724343599608
 20
2.1270254684750189
 30
0.0
 40
0.15
  1
DUAL
  0
TEXT
  5
304A
  8
DEFPOINTS
 10
4.7898158177160299
 20
2.1257464780248139
 30
0.0
 40
0.15
  1
SINGLE
  0
TEXT
  5
304B
  8
DEFPOINTS
 10
6.2893724343599589
 20
2.1270254684750189
 30
0.0
 40
0.15
  1
DUAL
  0
TEXT
  5
304C
  8
DEFPOINTS
 10
1.1227626117133021
 20
1.725439520316765
 30
0.0
 40
0.15
  1
1
  0
TEXT
  5
304D
  8
DEFPOINTS
 10
1.9648499241280371
 20
1.727025468475019
 30
0.0
 40
0.15
  1
+ INPUT
  0
TEXT
  5
304E
  8
DEFPOINTS
 10
3.3648499241280372
 20
1.727025468475019
 30
0.0
 40
0.15
  1
+ INPUT
  0
TEXT
  5
304F
  8
DEFPOINTS
 10
4.7648499241280362
 20
1.727025468475019
 30
0.0
 40
0.15
  1
+ INPUT
  0
TEXT
  5
3050
  8
DEFPOINTS
 10
6.1648499241280348
 20
1.727025468475019
 30
0.0
 40
0.15
  1
+ INPUT
  0
TEXT
  5
3051
  8
DEFPOINTS
 10
1.1173908518224429
 20
1.325439520316765
 30
0.0
 40
0.15
  1
2
  0
TEXT
  5
3052
  8
DEFPOINTS
 10
1.9936527890666449
 20
1.3270254684750189
 30
0.0
 40
0.15
  1
- INPUT
  0
TEXT
  5
3053
  8
DEFPOINTS
 10
3.3936527890666461
 20
1.3270254684750189
 30
0.0
 40
0.15
  1
- INPUT
  0
TEXT
  5
3054
  8
DEFPOINTS
 10
4.7936527890666438
 20
1.3270254684750189
 30
0.0
 40
0.15
  1
- INPUT
  0
TEXT
  5
3055
  8
DEFPOINTS
 10
6.1936527890666442
 20
1.3270254684750189
 30
0.0
 40
0.15
  1
- INPUT
  0
TEXT
  5
3056
  8
DEFPOINTS
 10
1.1152933074841069
 20
0.9267696703849784
 30
0.0
 40
0.15
  1
3
  0
TEXT
  5
3057
  8
DEFPOINTS
 10
1.877264658098023
 20
0.9256953184068064
 30
0.0
 40
0.15
  1
- OUTPUT
  0
TEXT
  5
3058
  8
DEFPOINTS
 10
3.1780763907037541
 20
0.9106850864832049
 30
0.0
 40
0.18
  1
- OUTPUT
  0
TEXT
  5
3059
  8
DEFPOINTS
 10
4.5435129527774221
 20
0.9106850864832049
 30
0.0
 40
0.18
  1
+ OUTPUT
  0
TEXT
  5
305A
  8
DEFPOINTS
 10
6.0484617931594133
 20
0.9256953184068064
 30
0.0
 40
0.15
  1
+ OUTPUT
  0
TEXT
  5
305B
  8
DEFPOINTS
 10
1.118669842272648
 20
0.5257464780248148
 30
0.0
 40
0.15
  1
4
  0
TEXT
  5
305C
  8
DEFPOINTS
 10
1.8484617931594141
 20
0.5256953184068067
 30
0.0
 40
0.15
  1
+ OUTPUT
  0
TEXT
  5
305D
  8
DEFPOINTS
 10
3.2484617931594149
 20
0.5256953184068067
 30
0.0
 40
0.15
  1
+ OUTPUT
  0
TEXT
  5
305E
  8
DEFPOINTS
 10
4.6772646580980224
 20
0.5256953184068067
 30
0.0
 40
0.15
  1
- OUTPUT
  0
TEXT
  5
305F
  8
DEFPOINTS
 10
6.077264658098021
 20
0.5256953184068067
 30
0.0
 40
0.15
  1
- OUTPUT
  0
TEXT
  5
3060
  8
DEFPOINTS
 10
1.114781711304025
 20
0.1270254684750196
 30
0.0
 40
0.15
  1
5
  0
TEXT
  5
3061
  8
DEFPOINTS
 10
2.0128888054377221
 20
0.1256953184068068
 30
0.0
 40
0.15
  1
NO PIN
  0
TEXT
  5
3062
  8
DEFPOINTS
 10
3.5314767999806982
 20
0.1256953184068068
 30
0.0
 40
0.15
  1
COM
  0
TEXT
  5
3063
  8
DEFPOINTS
 10
4.8128888054377219
 20
0.1256953184068068
 30
0.0
 40
0.15
  1
NO PIN
  0
TEXT
  5
3064
  8
DEFPOINTS
 10
6.3314767999806962
 20
0.1256953184068068
 30
0.0
 40
0.15
  1
COM
  0
LINE
  5
3065
  8
DEFPOINTS
 10
0.673205995069374
 20
2.8007464780248141
 30
0.0
 11
7.2732059950693726
 21
2.8007464780248141
 31
0.0
  0
LINE
  5
3066
  8
DEFPOINTS
 10
1.673205995069373
 20
2.4007464780248138
 30
0.0
 11
7.2732059950693726
 21
2.4007464780248138
 31
0.0
  0
LINE
  5
3067
  8
DEFPOINTS
 10
0.673205995069374
 20
2.0007464780248139
 30
0.0
 11
7.2732059950693726
 21
2.0007464780248139
 31
0.0
  0
LINE
  5
3068
  8
DEFPOINTS
 10
0.673205995069374
 20
1.600746478024814
 30
0.0
 11
7.2732059950693726
 21
1.600746478024814
 31
0.0
  0
LINE
  5
3069
  8
DEFPOINTS
 10
0.673205995069374
 20
1.200746478024814
 30
0.0
 11
7.2732059950693726
 21
1.200746478024814
 31
0.0
  0
LINE
  5
306A
  8
DEFPOINTS
 10
0.673205995069374
 20
0.8007464780248149
 30
0.0
 11
7.2732059950693726
 21
0.8007464780248149
 31
0.0
  0
LINE
  5
306B
  8
DEFPOINTS
 10
0.673205995069374
 20
0.4007464780248152
 30
0.0
 11
7.2732059950693726
 21
0.4007464780248152
 31
0.0
  0
LINE
  5
306C
  8
DEFPOINTS
 10
0.673205995069374
 20
0.0007464780248148
 30
0.0
 11
7.2732059950693726
 21
0.0007464780248148
 31
0.0
  0
LINE
  5
306D
  8
DEFPOINTS
 10
0.673205995069374
 20
2.8007464780248141
 30
0.0
 11
0.673205995069374
 21
0.0007464780248148
 31
0.0
  0
LINE
  5
306E
  8
DEFPOINTS
 10
1.673205995069373
 20
2.8007464780248141
 30
0.0
 11
1.673205995069373
 21
0.0007464780248148
 31
0.0
  0
LINE
  5
306F
  8
DEFPOINTS
 10
3.0732059950693729
 20
2.4007464780248138
 30
0.0
 11
3.0732059950693729
 21
0.0007464780248148
 31
0.0
  0
LINE
  5
3070
  8
DEFPOINTS
 10
4.4732059950693728
 20
2.8007464780248141
 30
0.0
 11
4.4732059950693728
 21
0.0007464780248148
 31
0.0
  0
LINE
  5
3071
  8
DEFPOINTS
 10
5.8732059950693731
 20
2.4007464780248138
 30
0.0
 11
5.8732059950693731
 21
0.0007464780248148
 31
0.0
  0
LINE
  5
3072
  8
DEFPOINTS
 10
7.2732059950693726
 20
2.8007464780248141
 30
0.0
 11
7.2732059950693726
 21
0.0007464780248148
 31
0.0
  0
LINE
  5
3073
  8
DEFPOINTS
 62
     8
 10
0.673205995069374
 20
2.8007464780248141
 30
0.0
 11
0.673205995069374
 21
2.8007464780248141
 31
0.0
  0
ENDBLK
  5
3075
  8
0
  0
BLOCK
  8
0
  2
*U106
 70
     1
 10
0.0
 20
0.0
 30
0.0
  3
*U106
  1

  0
TEXT
  5
3077
  8
DEFPOINTS
 62
     0
 10
0.2312073669849932
 20
-0.4750000000000004
 30
0.0
 40
0.15
  1
PIN #
  0
ENDBLK
  5
3079
  8
0
  0
BLOCK
  8
0
  2
*U107
 70
     1
 10
0.0
 20
0.0
 30
0.0
  3
*U107
  1

  0
TEXT
  5
307B
  8
DEFPOINTS
 62
     0
 10
1.8245566166439291
 20
-0.2750000000000001
 30
0.0
 40
0.15
  1
STANDARD
  0
ENDBLK
  5
307D
  8
0
  0
BLOCK
  8
0
  2
*U108
 70
     1
 10
0.0
 20
0.0
 30
0.0
  3
*U108
  1

  0
TEXT
  5
307F
  8
DEFPOINTS
 62
     0
 10
4.3597032742155521
 20
-0.254280354706685
 30
0.0
 40
0.15
  1
/A (ALT. PINOUT)
  0
ENDBLK
  5
3081
  8
0
  0
BLOCK
  8
0
  2
*U109
 70
     1
 10
0.0
 20
0.0
 30
0.0
  3
*U109
  1

  0
TEXT
  5
3083
  8
DEFPOINTS
 62
     0
 10
1.3166098226466569
 20
-0.6750000000000002
 30
0.0
 40
0.15
  1
SINGLE
  0
ENDBLK
  5
3085
  8
0
  0
BLOCK
  8
0
  2
*U110
 70
     1
 10
0.0
 20
0.0
 30
0.0
  3
*U110
  1

  0
TEXT
  5
3087
  8
DEFPOINTS
 62
     0
 10
2.816166439290587
 20
-0.6737210095497956
 30
0.0
 40
0.15
  1
DUAL
  0
ENDBLK
  5
3089
  8
0
  0
BLOCK
  8
0
  2
*U111
 70
     1
 10
0.0
 20
0.0
 30
0.0
  3
*U111
  1

  0
TEXT
  5
308B
  8
DEFPOINTS
 62
     0
 10
4.1166098226466561
 20
-0.6750000000000002
 30
0.0
 40
0.15
  1
SINGLE
  0
ENDBLK
  5
308D
  8
0
  0
BLOCK
  8
0
  2
*U112
 70
     1
 10
0.0
 20
0.0
 30
0.0
  3
*U112
  1

  0
TEXT
  5
308F
  8
DEFPOINTS
 62
     0
 10
5.616166439290585
 20
-0.6737210095497956
 30
0.0
 40
0.15
  1
DUAL
  0
ENDBLK
  5
3091
  8
0
  0
BLOCK
  8
0
  2
*U113
 70
     1
 10
0.0
 20
0.0
 30
0.0
  3
*U113
  1

  0
TEXT
  5
3093
  8
DEFPOINTS
 62
     0
 10
0.449556616643929
 20
-1.075306957708049
 30
0.0
 40
0.15
  1
1
  0
ENDBLK
  5
3095
  8
0
  0
BLOCK
  8
0
  2
*U114
 70
     1
 10
0.0
 20
0.0
 30
0.0
  3
*U114
  1

  0
TEXT
  5
3097
  8
DEFPOINTS
 62
     0
 10
1.291643929058663
 20
-1.0737210095497951
 30
0.0
 40
0.15
  1
+ INPUT
  0
ENDBLK
  5
3099
  8
0
  0
BLOCK
  8
0
  2
*U115
 70
     1
 10
0.0
 20
0.0
 30
0.0
  3
*U115
  1

  0
TEXT
  5
309B
  8
DEFPOINTS
 62
     0
 10
2.6916439290586629
 20
-1.0737210095497951
 30
0.0
 40
0.15
  1
+ INPUT
  0
ENDBLK
  5
309D
  8
0
  0
BLOCK
  8
0
  2
*U116
 70
     1
 10
0.0
 20
0.0
 30
0.0
  3
*U116
  1

  0
TEXT
  5
309F
  8
DEFPOINTS
 62
     0
 10
4.0916439290586624
 20
-1.0737210095497951
 30
0.0
 40
0.15
  1
+ INPUT
  0
ENDBLK
  5
30A1
  8
0
  0
BLOCK
  8
0
  2
*U117
 70
     1
 10
0.0
 20
0.0
 30
0.0
  3
*U117
  1

  0
TEXT
  5
30A3
  8
DEFPOINTS
 62
     0
 10
5.4916439290586609
 20
-1.0737210095497951
 30
0.0
 40
0.15
  1
+ INPUT
  0
ENDBLK
  5
30A5
  8
0
  0
BLOCK
  8
0
  2
*U118
 70
     1
 10
0.0
 20
0.0
 30
0.0
  3
*U118
  1

  0
TEXT
  5
30A7
  8
DEFPOINTS
 62
     0
 10
0.4441848567530696
 20
-1.475306957708048
 30
0.0
 40
0.15
  1
2
  0
ENDBLK
  5
30A9
  8
0
  0
BLOCK
  8
0
  2
*U119
 70
     1
 10
0.0
 20
0.0
 30
0.0
  3
*U119
  1

  0
TEXT
  5
30AB
  8
DEFPOINTS
 62
     0
 10
1.3204467939972711
 20
-1.473721009549795
 30
0.0
 40
0.15
  1
- INPUT
  0
ENDBLK
  5
30AD
  8
0
  0
BLOCK
  8
0
  2
*U120
 70
     1
 10
0.0
 20
0.0
 30
0.0
  3
*U120
  1

  0
TEXT
  5
30AF
  8
DEFPOINTS
 62
     0
 10
2.7204467939972719
 20
-1.473721009549795
 30
0.0
 40
0.15
  1
- INPUT
  0
ENDBLK
  5
30B1
  8
0
  0
BLOCK
  8
0
  2
*U121
 70
     1
 10
0.0
 20
0.0
 30
0.0
  3
*U121
  1

  0
TEXT
  5
30B3
  8
DEFPOINTS
 62
     0
 10
4.12044679399727
 20
-1.473721009549795
 30
0.0
 40
0.15
  1
- INPUT
  0
ENDBLK
  5
30B5
  8
0
  0
BLOCK
  8
0
  2
*U122
 70
     1
 10
0.0
 20
0.0
 30
0.0
  3
*U122
  1

  0
TEXT
  5
30B7
  8
DEFPOINTS
 62
     0
 10
5.5204467939972703
 20
-1.473721009549795
 30
0.0
 40
0.15
  1
- INPUT
  0
ENDBLK
  5
30B9
  8
0
  0
BLOCK
  8
0
  2
*U123
 70
     1
 10
0.0
 20
0.0
 30
0.0
  3
*U123
  1

  0
TEXT
  5
30BB
  8
DEFPOINTS
 62
     0
 10
0.442087312414734
 20
-1.8739768076398351
 30
0.0
 40
0.15
  1
3
  0
ENDBLK
  5
30BD
  8
0
  0
BLOCK
  8
0
  2
*U124
 70
     1
 10
0.0
 20
0.0
 30
0.0
  3
*U124
  1

  0
TEXT
  5
30BF
  8
DEFPOINTS
 62
     0
 10
1.2040586630286489
 20
-1.8750511596180079
 30
0.0
 40
0.15
  1
- OUTPUT
  0
ENDBLK
  5
30C1
  8
0
  0
BLOCK
  8
0
  2
*U125
 70
     1
 10
0.0
 20
0.0
 30
0.0
  3
*U125
  1

  0
TEXT
  5
30C3
  8
DEFPOINTS
 62
     0
 10
2.5048703956343799
 20
-1.8900613915416089
 30
0.0
 40
0.18
  1
- OUTPUT
  0
ENDBLK
  5
30C5
  8
0
  0
BLOCK
  8
0
  2
*U126
 70
     1
 10
0.0
 20
0.0
 30
0.0
  3
*U126
  1

  0
TEXT
  5
30C7
  8
DEFPOINTS
 62
     0
 10
3.8703069577080478
 20
-1.8900613915416089
 30
0.0
 40
0.18
  1
+ OUTPUT
  0
ENDBLK
  5
30C9
  8
0
  0
BLOCK
  8
0
  2
*U127
 70
     1
 10
0.0
 20
0.0
 30
0.0
  3
*U127
  1

  0
TEXT
  5
30CB
  8
DEFPOINTS
 62
     0
 10
5.3752557980900386
 20
-1.8750511596180079
 30
0.0
 40
0.15
  1
+ OUTPUT
  0
ENDBLK
  5
30CD
  8
0
  0
BLOCK
  8
0
  2
*U128
 70
     1
 10
0.0
 20
0.0
 30
0.0
  3
*U128
  1

  0
TEXT
  5
30CF
  8
DEFPOINTS
 62
     0
 10
0.4454638472032742
 20
-2.274999999999999
 30
0.0
 40
0.15
  1
4
  0
ENDBLK
  5
30D1
  8
0
  0
BLOCK
  8
0
  2
*U129
 70
     1
 10
0.0
 20
0.0
 30
0.0
  3
*U129
  1

  0
TEXT
  5
30D3
  8
DEFPOINTS
 62
     0
 10
1.1752557980900411
 20
-2.2750511596180072
 30
0.0
 40
0.15
  1
+ OUTPUT
  0
ENDBLK
  5
30D5
  8
0
  0
BLOCK
  8
0
  2
*U130
 70
     1
 10
0.0
 20
0.0
 30
0.0
  3
*U130
  1

  0
TEXT
  5
30D7
  8
DEFPOINTS
 62
     0
 10
2.575255798090041
 20
-2.2750511596180072
 30
0.0
 40
0.15
  1
+ OUTPUT
  0
ENDBLK
  5
30D9
  8
0
  0
BLOCK
  8
0
  2
*U131
 70
     1
 10
0.0
 20
0.0
 30
0.0
  3
*U131
  1

  0
TEXT
  5
30DB
  8
DEFPOINTS
 62
     0
 10
4.0040586630286477
 20
-2.2750511596180072
 30
0.0
 40
0.15
  1
- OUTPUT
  0
ENDBLK
  5
30DD
  8
0
  0
BLOCK
  8
0
  2
*U132
 70
     1
 10
0.0
 20
0.0
 30
0.0
  3
*U132
  1

  0
TEXT
  5
30DF
  8
DEFPOINTS
 62
     0
 10
5.404058663028648
 20
-2.2750511596180072
 30
0.0
 40
0.15
  1
- OUTPUT
  0
ENDBLK
  5
30E1
  8
0
  0
BLOCK
  8
0
  2
*U133
 70
     1
 10
0.0
 20
0.0
 30
0.0
  3
*U133
  1

  0
TEXT
  5
30E3
  8
DEFPOINTS
 62
     0
 10
0.4415757162346522
 20
-2.6737210095497939
 30
0.0
 40
0.15
  1
5
  0
ENDBLK
  5
30E5
  8
0
  0
BLOCK
  8
0
  2
*U134
 70
     1
 10
0.0
 20
0.0
 30
0.0
  3
*U134
  1

  0
TEXT
  5
30E7
  8
DEFPOINTS
 62
     0
 10
1.3396828103683489
 20
-2.6750511596180071
 30
0.0
 40
0.15
  1
NO PIN
  0
ENDBLK
  5
30E9
  8
0
  0
BLOCK
  8
0
  2
*U135
 70
     1
 10
0.0
 20
0.0
 30
0.0
  3
*U135
  1

  0
TEXT
  5
30EB
  8
DEFPOINTS
 62
     0
 10
2.8582708049113239
 20
-2.6750511596180071
 30
0.0
 40
0.15
  1
COM
  0
ENDBLK
  5
30ED
  8
0
  0
BLOCK
  8
0
  2
*U136
 70
     1
 10
0.0
 20
0.0
 30
0.0
  3
*U136
  1

  0
TEXT
  5
30EF
  8
DEFPOINTS
 62
     0
 10
4.1396828103683481
 20
-2.6750511596180071
 30
0.0
 40
0.15
  1
NO PIN
  0
ENDBLK
  5
30F1
  8
0
  0
BLOCK
  8
0
  2
*U137
 70
     1
 10
0.0
 20
0.0
 30
0.0
  3
*U137
  1

  0
TEXT
  5
30F3
  8
DEFPOINTS
 62
     0
 10
5.6582708049113224
 20
-2.6750511596180071
 30
0.0
 40
0.15
  1
COM
  0
ENDBLK
  5
30F5
  8
0
  0
BLOCK
  8
0
  2
*U138
 70
     1
 10
0.0
 20
0.0
 30
0.0
  3
*U138
  1

  0
TEXT
  5
30F7
  8
CONVERTER
 10
39.690948238251131
 20
9.3199120328887446
 30
0.0
 40
0.15
  1
PIN #
  0
TEXT
  5
30F8
  8
CONVERTER
 10
41.66952006873008
 20
9.3198608732707378
 30
0.0
 40
0.15
  1
FUNCTION
  0
TEXT
  5
30F9
  8
CONVERTER
 10
39.909297487910067
 20
8.7196050751806968
 30
0.0
 40
0.15
  1
1
  0
TEXT
  5
30FA
  8
CONVERTER
 10
41.802432756315348
 20
8.7211910233389496
 30
0.0
 40
0.15
  1
+ INPUT
  0
TEXT
  5
30FB
  8
CONVERTER
 10
39.90392572801921
 20
8.3196050751806965
 30
0.0
 40
0.15
  1
2
  0
TEXT
  5
30FC
  8
CONVERTER
 10
41.831235621253953
 20
8.3211910233389492
 30
0.0
 40
0.15
  1
- INPUT
  0
TEXT
  5
30FD
  8
CONVERTER
 10
39.90182818368087
 20
7.9209352252489067
 30
0.0
 40
0.15
  1
3
  0
TEXT
  5
30FE
  8
CONVERTER
 10
41.686044625346717
 20
7.9198608732707338
 30
0.0
 40
0.15
  1
+ OUTPUT
  0
TEXT
  5
30FF
  8
CONVERTER
 10
39.90520471846942
 20
7.5199120328887439
 30
0.0
 40
0.15
  1
4
  0
TEXT
  5
3100
  8
CONVERTER
 10
41.714847490285322
 20
7.5198608732707362
 30
0.0
 40
0.15
  1
- OUTPUT
  0
LINE
  5
3101
  8
CONVERTER
 10
39.459740871266128
 20
9.794912032888746
 30
0.0
 11
43.961836783247207
 21
9.794912032888746
 31
0.0
  0
LINE
  5
3102
  8
CONVERTER
 10
39.459740871266128
 20
8.9949120328887453
 30
0.0
 11
43.961836783247207
 21
8.9949120328887453
 31
0.0
  0
LINE
  5
3103
  8
CONVERTER
 10
39.459740871266128
 20
8.5949120328887432
 30
0.0
 11
43.961836783247207
 21
8.5949120328887432
 31
0.0
  0
LINE
  5
3104
  8
CONVERTER
 10
39.459740871266128
 20
8.1949120328887446
 30
0.0
 11
43.961836783247207
 21
8.1949120328887446
 31
0.0
  0
LINE
  5
3105
  8
CONVERTER
 10
39.459740871266128
 20
7.7949120328887442
 30
0.0
 11
43.961836783247207
 21
7.7949120328887442
 31
0.0
  0
LINE
  5
3106
  8
CONVERTER
 10
39.459740871266128
 20
7.394912032888743
 30
0.0
 11
43.961836783247207
 21
7.394912032888743
 31
0.0
  0
LINE
  5
3107
  8
CONVERTER
 10
39.459740871266128
 20
9.794912032888746
 30
0.0
 11
39.459740871266128
 21
7.394912032888743
 31
0.0
  0
LINE
  5
3108
  8
CONVERTER
 10
40.459740871266121
 20
9.794912032888746
 30
0.0
 11
40.459740871266121
 21
7.394912032888743
 31
0.0
  0
LINE
  5
3109
  8
CONVERTER
 10
43.961836783247207
 20
9.794912032888746
 30
0.0
 11
43.961836783247207
 21
7.394912032888743
 31
0.0
  0
LINE
  5
310A
  8
CONVERTER
 62
     8
 10
39.459740871266128
 20
9.794912032888746
 30
0.0
 11
39.459740871266128
 21
9.794912032888746
 31
0.0
  0
ENDBLK
  5
310C
  8
0
  0
BLOCK
  8
0
  2
*U139
 70
     1
 10
0.0
 20
0.0
 30
0.0
  3
*U139
  1

  0
TEXT
  5
310E
  8
CONVERTER
 62
     0
 10
0.2312073669850003
 20
-0.4750000000000004
 30
0.0
 40
0.15
  1
PIN #
  0
ENDBLK
  5
3110
  8
0
  0
BLOCK
  8
0
  2
*U140
 70
     1
 10
0.0
 20
0.0
 30
0.0
  3
*U140
  1

  0
TEXT
  5
3112
  8
CONVERTER
 62
     0
 10
2.2097791974639471
 20
-0.4750511596180085
 30
0.0
 40
0.15
  1
FUNCTION
  0
ENDBLK
  5
3114
  8
0
  0
BLOCK
  8
0
  2
*U141
 70
     1
 10
0.0
 20
0.0
 30
0.0
  3
*U141
  1

  0
TEXT
  5
3116
  8
CONVERTER
 62
     0
 10
0.4495566166439362
 20
-1.075306957708049
 30
0.0
 40
0.15
  1
1
  0
ENDBLK
  5
3118
  8
0
  0
BLOCK
  8
0
  2
*U142
 70
     1
 10
0.0
 20
0.0
 30
0.0
  3
*U142
  1

  0
TEXT
  5
311A
  8
CONVERTER
 62
     0
 10
2.3426918850492129
 20
-1.0737210095497951
 30
0.0
 40
0.15
  1
+ INPUT
  0
ENDBLK
  5
311C
  8
0
  0
BLOCK
  8
0
  2
*U143
 70
     1
 10
0.0
 20
0.0
 30
0.0
  3
*U143
  1

  0
TEXT
  5
311E
  8
CONVERTER
 62
     0
 10
0.4441848567530767
 20
-1.4753069577080491
 30
0.0
 40
0.15
  1
2
  0
ENDBLK
  5
3120
  8
0
  0
BLOCK
  8
0
  2
*U144
 70
     1
 10
0.0
 20
0.0
 30
0.0
  3
*U144
  1

  0
TEXT
  5
3122
  8
CONVERTER
 62
     0
 10
2.3714947499878218
 20
-1.473721009549795
 30
0.0
 40
0.15
  1
- INPUT
  0
ENDBLK
  5
3124
  8
0
  0
BLOCK
  8
0
  2
*U145
 70
     1
 10
0.0
 20
0.0
 30
0.0
  3
*U145
  1

  0
TEXT
  5
3126
  8
CONVERTER
 62
     0
 10
0.4420873124147411
 20
-1.873976807639838
 30
0.0
 40
0.15
  1
3
  0
ENDBLK
  5
3128
  8
0
  0
BLOCK
  8
0
  2
*U146
 70
     1
 10
0.0
 20
0.0
 30
0.0
  3
*U146
  1

  0
TEXT
  5
312A
  8
CONVERTER
 62
     0
 10
2.226303754080591
 20
-1.8750511596180099
 30
0.0
 40
0.15
  1
+ OUTPUT
  0
ENDBLK
  5
312C
  8
0
  0
BLOCK
  8
0
  2
*U147
 70
     1
 10
0.0
 20
0.0
 30
0.0
  3
*U147
  1

  0
TEXT
  5
312E
  8
CONVERTER
 62
     0
 10
0.4454638472032813
 20
-2.2749999999999999
 30
0.0
 40
0.15
  1
4
  0
ENDBLK
  5
3130
  8
0
  0
BLOCK
  8
0
  2
*U148
 70
     1
 10
0.0
 20
0.0
 30
0.0
  3
*U148
  1

  0
TEXT
  5
3132
  8
CONVERTER
 62
     0
 10
2.2551066190191991
 20
-2.2750511596180081
 30
0.0
 40
0.15
  1
- OUTPUT
  0
ENDBLK
  5
3134
  8
0
  0
BLOCK
  8
0
  2
*U149
 70
     1
 10
0.0
 20
0.0
 30
0.0
  3
*U149
  1

  0
TEXT
  5
3136
  8
DIM
 10
53.37541085099582
 20
14.548285220257791
 30
0.0
 40
0.1
  1
0.040" [1.02] Dia.
  0
ENDBLK
  5
3138
  8
0
  0
BLOCK
  8
0
  2
*U150
 70
     1
 10
0.0
 20
0.0
 30
0.0
  3
*U150
  1

  0
SOLID
  5
313A
  8
DIM
 10
52.388042426826011
 20
14.22550243382382
 30
0.0
 11
52.215206557087612
 21
14.166955340541801
 31
0.0
 12
52.359711700910829
 22
14.27839260275076
 32
0.0
 13
52.359711700910829
 23
14.27839260275076
 33
0.0
  0
POLYLINE
  5
313B
  8
DIM
 66
     1
 10
0.0
 20
0.0
 30
0.0
  0
VERTEX
  5
313C
  8
DIM
 10
52.37387706386842
 20
14.25194751828729
 30
0.0
  0
VERTEX
  5
313D
  8
DIM
 10
52.998551060386461
 20
14.586555407442111
 30
0.0
  0
VERTEX
  5
313E
  8
DIM
 10
53.308307875773842
 20
14.586555407442111
 30
0.0
  0
SEQEND
  5
313F
  8
DIM
  0
ENDBLK
  5
3141
  8
0
  0
BLOCK
  8
0
  2
*U151
 70
     1
 10
0.0
 20
0.0
 30
0.0
  3
*U151
  1

  0
TEXT
  5
314D
  8
DIM
 10
54.12139334576662
 20
18.478762921793841
 30
0.0
 40
0.1
  1
#4-40/M3 CLEARANCE, 2 PL
  0
ENDBLK
  5
314F
  8
0
  0
BLOCK
  8
0
  2
*U152
 70
     1
 10
0.0
 20
0.0
 30
0.0
  3
*U152
  1

  0
SOLID
  5
3151
  8
DIM
 10
52.785032263890983
 20
18.05553874130084
 30
0.0
 11
52.610757493188842
 21
18.001424932557441
 31
0.0
 12
52.758061581557868
 22
18.1091352178127
 32
0.0
 13
52.758061581557868
 23
18.1091352178127
 33
0.0
  0
POLYLINE
  5
3152
  8
DIM
 66
     1
 10
0.0
 20
0.0
 30
0.0
  0
VERTEX
  5
3153
  8
DIM
 10
52.771546922724433
 20
18.082336979556771
 30
0.0
  0
VERTEX
  5
3154
  8
DIM
 10
53.647041021949462
 20
18.52290088919149
 30
0.0
  0
VERTEX
  5
3155
  8
DIM
 10
54.03065780060831
 20
18.522719349447438
 30
0.0
  0
SEQEND
  5
3156
  8
DIM
  0
ENDBLK
  5
3158
  8
0
  0
BLOCK
  8
0
  2
*U153
 70
     1
 10
0.0
 20
0.0
 30
0.0
  3
*U153
  1

  0
TEXT
  5
315A
  8
DIM
 10
54.73802479997601
 20
13.25641387779282
 30
0.0
 40
0.1
  1
22 AWG, 30KV SILICONE
  0
ENDBLK
  5
315C
  8
0
  0
BLOCK
  8
0
  2
*U154
 70
     1
 10
0.0
 20
0.0
 30
0.0
  3
*U154
  1

  0
SOLID
  5
315E
  8
DIM
 10
54.28366410714051
 20
13.692719066930129
 30
0.0
 11
54.242673684625878
 21
13.87053859696571
 31
0.0
 12
54.339119607556668
 22
13.715625124504371
 32
0.0
 13
54.339119607556668
 23
13.715625124504371
 33
0.0
  0
POLYLINE
  5
315F
  8
DIM
 66
     1
 10
0.0
 20
0.0
 30
0.0
  0
VERTEX
  5
3160
  8
DIM
 10
54.311391857348589
 20
13.704172095717251
 30
0.0
  0
VERTEX
  5
3161
  8
DIM
 10
54.478146368016169
 20
13.300459898375941
 30
0.0
  0
VERTEX
  5
3162
  8
DIM
 10
54.674107332626171
 20
13.300459898375941
 30
0.0
  0
SEQEND
  5
3163
  8
DIM
  0
ENDBLK
  5
3165
  8
0
  0
BLOCK
  8
0
  2
*U155
 70
     1
 10
0.0
 20
0.0
 30
0.0
  3
*U155
  1

  0
TEXT
  5
3173
  8
CONVERTER
 10
50.691232380230787
 20
9.3199120328887446
 30
0.0
 40
0.15
  1
PIN #
  0
TEXT
  5
3174
  8
CONVERTER
 10
52.669804210709742
 20
9.3198608732707378
 30
0.0
 40
0.15
  1
FUNCTION
  0
TEXT
  5
3175
  8
CONVERTER
 10
50.909581629889729
 20
8.7196050751806968
 30
0.0
 40
0.15
  1
1
  0
TEXT
  5
3176
  8
CONVERTER
 10
52.80271689829501
 20
8.7211910233389496
 30
0.0
 40
0.15
  1
+ INPUT
  0
TEXT
  5
3177
  8
CONVERTER
 10
50.904209869998873
 20
8.3196050751806965
 30
0.0
 40
0.15
  1
2
  0
TEXT
  5
3178
  8
CONVERTER
 10
52.831519763233608
 20
8.3211910233389492
 30
0.0
 40
0.15
  1
- INPUT
  0
TEXT
  5
3179
  8
CONVERTER
 10
50.902112325660532
 20
7.9209352252489067
 30
0.0
 40
0.15
  1
3
  0
TEXT
  5
317A
  8
CONVERTER
 10
52.68632876732638
 20
7.9198608732707338
 30
0.0
 40
0.15
  1
+ OUTPUT
  0
TEXT
  5
317B
  8
CONVERTER
 10
50.905488860449069
 20
7.5199120328887439
 30
0.0
 40
0.15
  1
4
  0
TEXT
  5
317C
  8
CONVERTER
 10
52.715131632264992
 20
7.5198608732707362
 30
0.0
 40
0.15
  1
- OUTPUT
  0
LINE
  5
317D
  8
CONVERTER
 10
50.46002501324579
 20
9.794912032888746
 30
0.0
 11
54.962120925226877
 21
9.794912032888746
 31
0.0
  0
LINE
  5
317E
  8
CONVERTER
 10
50.46002501324579
 20
8.9949120328887453
 30
0.0
 11
54.962120925226877
 21
8.9949120328887453
 31
0.0
  0
LINE
  5
317F
  8
CONVERTER
 10
50.46002501324579
 20
8.5949120328887432
 30
0.0
 11
54.962120925226877
 21
8.5949120328887432
 31
0.0
  0
LINE
  5
3180
  8
CONVERTER
 10
50.46002501324579
 20
8.1949120328887446
 30
0.0
 11
54.962120925226877
 21
8.1949120328887446
 31
0.0
  0
LINE
  5
3181
  8
CONVERTER
 10
50.46002501324579
 20
7.7949120328887442
 30
0.0
 11
54.962120925226877
 21
7.7949120328887442
 31
0.0
  0
LINE
  5
3182
  8
CONVERTER
 10
50.46002501324579
 20
7.394912032888743
 30
0.0
 11
54.962120925226877
 21
7.394912032888743
 31
0.0
  0
LINE
  5
3183
  8
CONVERTER
 10
50.46002501324579
 20
9.794912032888746
 30
0.0
 11
50.46002501324579
 21
7.394912032888743
 31
0.0
  0
LINE
  5
3184
  8
CONVERTER
 10
51.460025013245797
 20
9.794912032888746
 30
0.0
 11
51.460025013245797
 21
7.394912032888743
 31
0.0
  0
LINE
  5
3185
  8
CONVERTER
 10
54.962120925226877
 20
9.794912032888746
 30
0.0
 11
54.962120925226877
 21
7.394912032888743
 31
0.0
  0
LINE
  5
3186
  8
CONVERTER
 62
     8
 10
50.46002501324579
 20
9.794912032888746
 30
0.0
 11
50.46002501324579
 21
9.794912032888746
 31
0.0
  0
ENDBLK
  5
3188
  8
0
  0
BLOCK
  8
0
  2
*U156
 70
     1
 10
0.0
 20
0.0
 30
0.0
  3
*U156
  1

  0
TEXT
  5
318A
  8
CONVERTER
 62
     0
 10
0.2312073669849932
 20
-0.4750000000000004
 30
0.0
 40
0.15
  1
PIN #
  0
ENDBLK
  5
318C
  8
0
  0
BLOCK
  8
0
  2
*U157
 70
     1
 10
0.0
 20
0.0
 30
0.0
  3
*U157
  1

  0
TEXT
  5
318E
  8
CONVERTER
 62
     0
 10
2.20977919746394
 20
-0.4750511596180085
 30
0.0
 40
0.15
  1
FUNCTION
  0
ENDBLK
  5
3190
  8
0
  0
BLOCK
  8
0
  2
*U158
 70
     1
 10
0.0
 20
0.0
 30
0.0
  3
*U158
  1

  0
TEXT
  5
3192
  8
CONVERTER
 62
     0
 10
0.449556616643929
 20
-1.075306957708049
 30
0.0
 40
0.15
  1
1
  0
ENDBLK
  5
3194
  8
0
  0
BLOCK
  8
0
  2
*U159
 70
     1
 10
0.0
 20
0.0
 30
0.0
  3
*U159
  1

  0
TEXT
  5
3196
  8
CONVERTER
 62
     0
 10
2.3426918850492058
 20
-1.0737210095497951
 30
0.0
 40
0.15
  1
+ INPUT
  0
ENDBLK
  5
3198
  8
0
  0
BLOCK
  8
0
  2
*U160
 70
     1
 10
0.0
 20
0.0
 30
0.0
  3
*U160
  1

  0
TEXT
  5
319A
  8
CONVERTER
 62
     0
 10
0.4441848567530696
 20
-1.4753069577080491
 30
0.0
 40
0.15
  1
2
  0
ENDBLK
  5
319C
  8
0
  0
BLOCK
  8
0
  2
*U161
 70
     1
 10
0.0
 20
0.0
 30
0.0
  3
*U161
  1

  0
TEXT
  5
319E
  8
CONVERTER
 62
     0
 10
2.3714947499878152
 20
-1.473721009549795
 30
0.0
 40
0.15
  1
- INPUT
  0
ENDBLK
  5
31A0
  8
0
  0
BLOCK
  8
0
  2
*U162
 70
     1
 10
0.0
 20
0.0
 30
0.0
  3
*U162
  1

  0
TEXT
  5
31A2
  8
CONVERTER
 62
     0
 10
0.442087312414734
 20
-1.873976807639838
 30
0.0
 40
0.15
  1
3
  0
ENDBLK
  5
31A4
  8
0
  0
BLOCK
  8
0
  2
*U163
 70
     1
 10
0.0
 20
0.0
 30
0.0
  3
*U163
  1

  0
TEXT
  5
31A6
  8
CONVERTER
 62
     0
 10
2.2263037540805839
 20
-1.8750511596180099
 30
0.0
 40
0.15
  1
+ OUTPUT
  0
ENDBLK
  5
31A8
  8
0
  0
BLOCK
  8
0
  2
*U164
 70
     1
 10
0.0
 20
0.0
 30
0.0
  3
*U164
  1

  0
TEXT
  5
31AA
  8
CONVERTER
 62
     0
 10
0.4454638472032742
 20
-2.2749999999999999
 30
0.0
 40
0.15
  1
4
  0
ENDBLK
  5
31AC
  8
0
  0
BLOCK
  8
0
  2
*U165
 70
     1
 10
0.0
 20
0.0
 30
0.0
  3
*U165
  1

  0
TEXT
  5
31AE
  8
CONVERTER
 62
     0
 10
2.255106619019192
 20
-2.2750511596180081
 30
0.0
 40
0.15
  1
- OUTPUT
  0
ENDBLK
  5
31B0
  8
0
  0
BLOCK
  8
0
  2
*U166
 70
     1
 10
0.0
 20
0.0
 30
0.0
  3
*U166
  1

  0
TEXT
  5
31B2
  8
PINOUT
 10
27.94625778021453
 20
21.209361215392239
 30
0.0
 40
0.25
  1
Standard and /A Alternate Pinout
  0
ENDBLK
  5
31B4
  8
0
  0
BLOCK
  8
0
  2
*U167
 70
     1
 10
0.0
 20
0.0
 30
0.0
  3
*U167
  1

  0
TEXT
  5
31B6
  8
PINOUT
 10
40.246344761772207
 20
21.09344391958512
 30
0.0
 40
0.25
  1
/D Alternate Pinout
  0
ENDBLK
  5
31B8
  8
0
  0
BLOCK
  8
0
  2
*U168
 70
     1
 10
0.0
 20
0.0
 30
0.0
  3
*U168
  1

  0
TEXT
  5
31BA
  8
PINOUT
 10
50.849971332128561
 20
21.083336347548311
 30
0.0
 40
0.25
  1
7kVdc to 12kVdc Pinout
  0
ENDBLK
  5
31BC
  8
0
  0
BLOCK
  8
0
  2
*U169
 70
     1
 10
0.0
 20
0.0
 30
0.0
  3
*U169
  1

  0
TEXT
  5
31BE
  8
DIMENSIONS
 62
     0
 10
28.196058924213482
 20
17.88958630394146
 30
0.0
 40
0.125
  1
0.350 [8.89]
  0
ENDBLK
  5
31C0
  8
0
  0
BLOCK
  8
0
  2
*U170
 70
     1
 10
0.0
 20
0.0
 30
0.0
  3
*U170
  1

  0
TEXT
  5
31C2
  8
DIMENSIONS
 62
     0
 10
28.196058924213482
 20
16.739586303941461
 30
0.0
 40
0.125
  1
0.350 [8.89]
  0
ENDBLK
  5
31C4
  8
0
  0
BLOCK
  8
0
  2
*U171
 70
     1
 10
0.0
 20
0.0
 30
0.0
  3
*U171
  1

  0
TEXT
  5
31C6
  8
DIMENSIONS
 62
     0
 10
32.157027742664248
 20
13.440230685947251
 30
0.0
 40
0.125
  1
0.810 [20.57]
  0
ENDBLK
  5
31C8
  8
0
  0
BLOCK
  8
0
  2
*U172
 70
     1
 10
0.0
 20
0.0
 30
0.0
  3
*U172
  1

  0
TEXT
  5
31CA
  8
DIMENSIONS
 62
     0
 10
28.83894385280794
 20
14.534574119180901
 30
0.0
 40
0.125
  1
0.250 [6.35]
  0
ENDBLK
  5
31CC
  8
0
  0
BLOCK
  8
0
  2
*U173
 70
     1
 10
0.0
 20
0.0
 30
0.0
  3
*U173
  1

  0
TEXT
  5
31CE
  8
DIMENSIONS
 62
     0
 10
30.014560853619869
 20
18.965573632681242
 30
0.0
 40
0.125
  1
2.400 [60.96]
  0
ENDBLK
  5
31D0
  8
0
  0
BLOCK
  8
0
  2
*U174
 70
     1
 10
0.0
 20
0.0
 30
0.0
  3
*U174
  1

  0
TEXT
  5
31D2
  8
DIMENSIONS
 62
     0
 10
28.02784372837278
 20
18.531619697532669
 30
0.0
 40
0.125
  1
0.600 [15.24]
  0
ENDBLK
  5
31D4
  8
0
  0
BLOCK
  8
0
  2
*U175
 70
     1
 10
0.0
 20
0.0
 30
0.0
  3
*U175
  1

  0
TEXT
  5
31D6
  8
DIMENSIONS
 62
     0
 10
29.97064381147355
 20
18.531619697532669
 30
0.0
 40
0.125
  1
1.200 [30.48]
  0
ENDBLK
  5
31D8
  8
0
  0
BLOCK
  8
0
  2
*U176
 70
     1
 10
0.0
 20
0.0
 30
0.0
  3
*U176
  1

  0
TEXT
  5
31DA
  8
DIMENSIONS
 62
     0
 10
31.96878165470293
 20
18.531619697532669
 30
0.0
 40
0.125
  1
0.600 [15.24]
  0
ENDBLK
  5
31DC
  8
0
  0
BLOCK
  8
0
  2
*U177
 70
     1
 10
0.0
 20
0.0
 30
0.0
  3
*U177
  1

  0
TEXT
  5
31DE
  8
DIMENSIONS
 62
     0
 10
31.97204301029403
 20
17.93958630394145
 30
0.0
 40
0.125
  1
0.250 [6.35]
  0
ENDBLK
  5
31E0
  8
0
  0
BLOCK
  8
0
  2
*U178
 70
     1
 10
0.0
 20
0.0
 30
0.0
  3
*U178
  1

  0
TEXT
  5
31E2
  8
DIMENSIONS
 62
     0
 10
31.97204301029403
 20
16.68958630394145
 30
0.0
 40
0.125
  1
0.250 [6.35]
  0
ENDBLK
  5
31E4
  8
0
  0
BLOCK
  8
0
  2
*U179
 70
     1
 10
0.0
 20
0.0
 30
0.0
  3
*U179
  1

  0
TEXT
  5
31E6
  8
DIMENSIONS
 62
     0
 10
43.122360210132747
 20
17.31458630394145
 30
0.0
 40
0.125
  1
1.100 [27.94]
  0
ENDBLK
  5
31E8
  8
0
  0
BLOCK
  8
0
  2
*U180
 70
     1
 10
0.0
 20
0.0
 30
0.0
  3
*U180
  1

  0
TEXT
  5
31EA
  8
DIMENSIONS
 62
     0
 10
39.400818484215897
 20
16.739586303941461
 30
0.0
 40
0.125
  1
0.350 [8.89]
  0
ENDBLK
  5
31EC
  8
0
  0
BLOCK
  8
0
  2
*U181
 70
     1
 10
0.0
 20
0.0
 30
0.0
  3
*U181
  1

  0
TEXT
  5
31EE
  8
DIMENSIONS
 62
     0
 10
43.361787302666833
 20
13.440230685947251
 30
0.0
 40
0.125
  1
0.810 [20.57]
  0
ENDBLK
  5
31F0
  8
0
  0
BLOCK
  8
0
  2
*U182
 70
     1
 10
0.0
 20
0.0
 30
0.0
  3
*U182
  1

  0
TEXT
  5
31F2
  8
DIMENSIONS
 62
     0
 10
40.04370341281053
 20
14.534574119180901
 30
0.0
 40
0.125
  1
0.250 [6.35]
  0
ENDBLK
  5
31F4
  8
0
  0
BLOCK
  8
0
  2
*U183
 70
     1
 10
0.0
 20
0.0
 30
0.0
  3
*U183
  1

  0
TEXT
  5
31F6
  8
DIMENSIONS
 62
     0
 10
41.219320413622292
 20
18.965573632681242
 30
0.0
 40
0.125
  1
2.400 [60.96]
  0
ENDBLK
  5
31F8
  8
0
  0
BLOCK
  8
0
  2
*U184
 70
     1
 10
0.0
 20
0.0
 30
0.0
  3
*U184
  1

  0
TEXT
  5
31FA
  8
DIMENSIONS
 62
     0
 10
39.149721296560749
 20
18.58161969753267
 30
0.0
 40
0.125
  1
0.150 [3.81]
  0
ENDBLK
  5
31FC
  8
0
  0
BLOCK
  8
0
  2
*U185
 70
     1
 10
0.0
 20
0.0
 30
0.0
  3
*U185
  1

  0
TEXT
  5
31FE
  8
DIMENSIONS
 62
     0
 10
41.166013409927046
 20
18.58161969753267
 30
0.0
 40
0.125
  1
2.100 [53.34]
  0
ENDBLK
  5
3200
  8
0
  0
BLOCK
  8
0
  2
*U186
 70
     1
 10
0.0
 20
0.0
 30
0.0
  3
*U186
  1

  0
TEXT
  5
3202
  8
DIMENSIONS
 62
     0
 10
43.353541214705359
 20
18.58161969753267
 30
0.0
 40
0.125
  1
0.150 [3.81]
  0
ENDBLK
  5
3204
  8
0
  0
BLOCK
  8
0
  2
*U187
 70
     1
 10
0.0
 20
0.0
 30
0.0
  3
*U187
  1

  0
TEXT
  5
3206
  8
DIMENSIONS
 62
     0
 10
43.176802570296452
 20
17.964586303941449
 30
0.0
 40
0.125
  1
0.200 [5.08]
  0
ENDBLK
  5
3208
  8
0
  0
BLOCK
  8
0
  2
*U188
 70
     1
 10
0.0
 20
0.0
 30
0.0
  3
*U188
  1

  0
TEXT
  5
320A
  8
DIMENSIONS
 62
     0
 10
43.176802570296452
 20
16.664586303941451
 30
0.0
 40
0.125
  1
0.200 [5.08]
  0
ENDBLK
  5
320C
  8
0
  0
BLOCK
  8
0
  2
*U189
 70
     1
 10
0.0
 20
0.0
 30
0.0
  3
*U189
  1

  0
TEXT
  5
320E
  8
DIM
 62
     0
 10
54.158375830400871
 20
16.197013930069161
 30
0.0
 40
0.125
  1
6" [152.4] Min
  0
ENDBLK
  5
3210
  8
0
  0
BLOCK
  8
0
  2
*U190
 70
     1
 10
0.0
 20
0.0
 30
0.0
  3
*U190
  1

  0
TEXT
  5
3212
  8
DIM
 62
     0
 10
52.297473037449159
 20
16.197013930069161
 30
0.0
 40
0.125
  1
1.400 [35.56]
  0
ENDBLK
  5
3214
  8
0
  0
BLOCK
  8
0
  2
*U191
 70
     1
 10
0.0
 20
0.0
 30
0.0
  3
*U191
  1

  0
TEXT
  5
3216
  8
DIM
 62
     0
 10
50.159634516734641
 20
16.197013930069161
 30
0.0
 40
0.125
  1
0.600 [15.24]
  0
ENDBLK
  5
3218
  8
0
  0
BLOCK
  8
0
  2
*U192
 70
     1
 10
0.0
 20
0.0
 30
0.0
  3
*U192
  1

  0
TEXT
  5
321A
  8
DIM
 62
     0
 10
50.388756741360773
 20
13.471359997996871
 30
0.0
 40
0.125
  1
0.810 [20.57]
  0
ENDBLK
  5
321C
  8
0
  0
BLOCK
  8
0
  2
*U193
 70
     1
 10
0.0
 20
0.0
 30
0.0
  3
*U193
  1

  0
TEXT
  5
321E
  8
DIM
 62
     0
 10
50.232887430355042
 20
18.86093650724699
 30
0.0
 40
0.125
  1
1.050 [26.67]
  0
ENDBLK
  5
3220
  8
0
  0
BLOCK
  8
0
  2
*U194
 70
     1
 10
0.0
 20
0.0
 30
0.0
  3
*U194
  1

  0
SOLID
  5
3222
  8
DIMENSIONS
 10
52.611448776965581
 20
12.83860073443301
 30
0.0
 11
52.515882072359979
 21
12.994058140081069
 31
0.0
 12
52.65670162719708
 22
12.87799844434012
 32
0.0
 13
52.65670162719708
 23
12.87799844434012
 33
0.0
  0
POLYLINE
  5
3223
  8
DIMENSIONS
 66
     1
 10
0.0
 20
0.0
 30
0.0
  0
VERTEX
  5
3224
  8
DIMENSIONS
 10
52.634075202081327
 20
12.85829958938657
 30
0.0
  0
VERTEX
  5
3225
  8
DIMENSIONS
 10
52.906758306976549
 20
12.545091341100671
 30
0.0
  0
VERTEX
  5
3226
  8
DIMENSIONS
 10
53.095208548826442
 20
12.544786624797259
 30
0.0
  0
SEQEND
  5
3227
  8
DIMENSIONS
  0
ENDBLK
  5
3229
  8
0
  0
BLOCK
  8
0
  2
*U195
 70
     1
 10
0.0
 20
0.0
 30
0.0
  3
*U195
  1

  0
TEXT
  5
322B
  8
DIMENSIONS
 10
53.16185193810778
 20
12.49779294900315
 30
0.0
 40
0.125
  1
BLACK PHENOLIC CASE
  0
ENDBLK
  5
322D
  8
0
  0
BLOCK
  8
0
  2
*U196
 70
     1
 10
0.0
 20
0.0
 30
0.0
  3
*U196
  1

  0
TEXT
  5
322F
  8
DIMENSIONS
 62
     0
 10
52.204422218895267
 20
19.249440597113729
 30
0.0
 40
0.125
  1
2.400 [60.96]
  0
ENDBLK
  5
3231
  8
0
  0
BLOCK
  8
0
  2
*U197
 70
     1
 10
0.0
 20
0.0
 30
0.0
  3
*U197
  1

  0
TEXT
  5
3233
  8
DIMENSIONS
 62
     0
 10
26.238849484195761
 20
17.5396134142885
 30
0.0
 40
0.125
  1
1.500 [38.10]
  0
ENDBLK
  5
3235
  8
0
  0
BLOCK
  8
0
  2
*U198
 70
     1
 10
0.0
 20
0.0
 30
0.0
  3
*U198
  1

  0
TEXT
  5
3237
  8
DIMENSIONS
 62
     0
 10
37.700388306783097
 20
17.545115756697371
 30
0.0
 40
0.125
  1
1.500 [38.10]
  0
ENDBLK
  5
3239
  8
0
  0
BLOCK
  8
0
  2
*U199
 70
     1
 10
0.0
 20
0.0
 30
0.0
  3
*U199
  1

  0
TEXT
  5
323B
  8
DIM
 62
     0
 10
49.516964908917927
 20
17.08128557479586
 30
0.0
 40
0.125
  1
1.200 [30.48]
  0
ENDBLK
  5
323D
  8
0
  0
BLOCK
  8
0
  2
*U200
 70
     1
 10
0.0
 20
0.0
 30
0.0
  3
*U200
  1

  0
TEXT
  5
323F
  8
DIM
 62
     0
 10
48.766145557783297
 20
17.437996204811299
 30
0.0
 40
0.125
  1
1.500 [38.10]
  0
ENDBLK
  5
3241
  8
0
  0
BLOCK
  8
0
  2
*U201
 70
     1
 10
0.0
 20
0.0
 30
0.0
  3
*U201
  1

  0
TEXT
  5
3243
  8
DIM
 62
     0
 10
50.293317228153938
 20
18.42458630394146
 30
0.0
 40
0.125
  1
0.150 [3.81]
  0
ENDBLK
  5
3245
  8
0
  0
ENDSEC
  0
SECTION
  2
ENTITIES
  0
TEXT
  5
4AE
  8
FRAME_TEXT
 10
57.029127799137129
 20
4.0131640201924936
 30
0.0
 40
0.125
  1
American Power Design
 72
     1
 11
57.965561973761957
 21
4.0756640201924936
 31
0.0
 73
     2
  0
LINE
  5
4AF
  8
FRAME
 10
54.815529655497564
 20
4.2823203109877213
 30
0.0
 11
54.815529655497564
 21
2.7471592936517442
 31
0.0
  0
LINE
  5
4B0
  8
FRAME
 10
55.978709349402131
 20
4.2823203109877213
 30
0.0
 11
55.978709349402124
 21
3.4556951478068099
 31
0.0
  0
LINE
  5
4B1
  8
FRAME
 10
56.923423821608878
 20
4.2823203109877213
 30
0.0
 11
56.923423821608878
 21
2.7471592936517442
 31
0.0
  0
TEXT
  5
4B2
  8
FRAME
 10
55.24718063010377
 20
4.1526101130596507
 30
0.0
 40
0.0354267927077533
  1
SPECIFIED
 72
     1
 11
55.377807866107702
 21
4.1526101130596507
 31
0.0
  0
TEXT
  5
4B3
  8
FRAME_TEXT
 10
56.991749865537017
 20
2.9524008653511848
 30
0.0
 40
0.09
  1
1:1
  0
LINE
  5
4B4
  8
FRAME
 10
56.923423821608878
 20
3.869007729397266
 30
0.0
 11
59.007700125915029
 21
3.869007729397266
 31
0.0
  0
LINE
  5
4B5
  8
FRAME
 10
56.923423821608878
 20
3.1781852715960781
 30
0.0
 11
59.007700125915029
 21
3.1781852715960781
 31
0.0
  0
LINE
  5
4B6
  8
FRAME
 10
56.923423821608878
 20
2.885952638760322
 30
0.0
 11
59.007700125915029
 21
2.885952638760322
 31
0.0
  0
TEXT
  5
4B7
  8
FRAME
 10
56.964286893244839
 20
3.8030647200767289
 30
0.0
 40
0.0354267927077533
  1
TITLE
  0
TEXT
  5
4B8
  8
FRAME
 10
56.955440934362372
 20
3.1136338324542439
 30
0.0
 40
0.0354267927077533
  1
SCALE
  0
TEXT
  5
4B9
  8
FRAME
 10
56.99004424410856
 20
2.796865029738933
 30
0.0
 40
0.0354267927077533
  1
SHEET       OF       
  0
LINE
  5
4BA
  8
FRAME
 10
54.815529655497564
 20
3.4556951478068099
 30
0.0
 11
56.923423821608878
 21
3.4556951478068099
 31
0.0
  0
LINE
  5
4BB
  8
FRAME
 10
54.815529655497564
 20
3.101427220729279
 30
0.0
 11
56.923423821608878
 21
3.101427220729279
 31
0.0
  0
TEXT
  5
4BC
  8
FRAME
 10
54.92926571571347
 20
4.0516595923225678
 30
0.0
 40
0.0354267927077533
  1
DIMENSIONS IN INCHES [MM]
  0
TEXT
  5
4BD
  8
FRAME
 10
54.92926571571347
 20
3.8696786907290468
 30
0.0
 40
0.0354267927077533
  1
TOLERANCES
  0
TEXT
  5
4BE
  8
FRAME
 10
54.898565034886033
 20
3.7345036392756921
 30
0.0
 40
0.0354267927077533
  1
FRAC =                          .XX =
  0
TEXT
  5
4BF
  8
FRAME
 10
54.900386261714772
 20
3.5785079868228631
 30
0.0
 40
0.0354267927077533
  1
.XXX =                         ANGLE =
  0
TEXT
  5
4C0
  8
FRAME
 10
54.849897923524757
 20
3.389497578698343
 30
0.0
 40
0.0354267927077533
  1
MATERIAL
  0
TEXT
  5
4C1
  8
FRAME
 10
54.849897923524757
 20
3.040245385799222
 30
0.0
 40
0.0354267927077533
  1
FINISH
  0
LINE
  5
4C2
  8
FRAME
 10
55.978709349402124
 20
3.5885456204608861
 30
0.0
 11
56.923423821608878
 21
3.5885456204608861
 31
0.0
  0
LINE
  5
4C3
  8
FRAME
 10
55.978709349402124
 20
3.721396093114961
 30
0.0
 11
56.923423821608878
 21
3.721396093114961
 31
0.0
  0
LINE
  5
4C4
  8
FRAME
 10
55.978709349402124
 20
3.8542465657690359
 30
0.0
 11
56.923423821608878
 21
3.8542465657690359
 31
0.0
  0
LINE
  5
4C5
  8
FRAME
 10
55.978709349402131
 20
3.9870970384231099
 30
0.0
 11
56.923423821608878
 21
3.9870970384231099
 31
0.0
  0
LINE
  5
4C6
  8
FRAME
 10
55.978709349402131
 20
4.1199475110771866
 30
0.0
 11
56.923423821608878
 21
4.1199475110771866
 31
0.0
  0
TEXT
  5
4C7
  8
FRAME
 10
55.999577652805172
 20
3.8989283852472409
 30
0.0
 40
0.0354267927077533
  1
DWN
  0
TEXT
  5
4C8
  8
FRAME
 10
56.003692837518471
 20
3.766388434344877
 30
0.0
 40
0.0354267927077533
  1
CHK
  0
TEXT
  5
4C9
  8
FRAME
 10
56.003692837518471
 20
3.6382455434250551
 30
0.0
 40
0.0354267927077533
  1
CH DR
  0
TEXT
  5
4CA
  8
FRAME
 10
56.008322420320937
 20
3.5333442552701029
 30
0.0
 40
0.0354267927077533
  1
COG
  0
TEXT
  5
4CB
  8
FRAME
 10
56.008322420320937
 20
3.4742996007571811
 30
0.0
 40
0.0354267927077533
  1
ENG
  0
TEXT
  5
4CC
  8
FRAME
 10
56.217682442610482
 20
4.0264431247409851
 30
0.0
 40
0.0531401890616299
  1
APPROVAL
  0
TEXT
  5
4CD
  8
FRAME
 10
56.771174786550397
 20
3.5060303301197151
 30
0.0
 40
0.0354267927077533
  1
DATE
  0
TEXT
  5
4CE
  8
FRAME
 10
56.771174786550397
 20
3.7717312754278658
 30
0.0
 40
0.0354267927077533
  1
DATE
  0
TEXT
  5
4CF
  8
FRAME
 10
56.771174786550397
 20
3.6388808027737891
 30
0.0
 40
0.0354267927077533
  1
DATE
  0
TEXT
  5
4D0
  8
FRAME
 10
56.771174786550397
 20
3.9045817480819389
 30
0.0
 40
0.0354267927077533
  1
DATE
  0
TEXT
  5
4D1
  8
FRAME_TEXT
 10
57.18326411458829
 20
2.7674154661488588
 30
0.0
 40
0.1
  1
1  1
  0
LINE
  5
4D2
  8
FRAME
 10
57.218647094173491
 20
3.1781852715960781
 30
0.0
 11
57.218647094173491
 21
2.885952638760322
 31
0.0
  0
TEXT
  5
4D3
  8
FRAME_TEXT
 10
57.293928949248027
 20
2.9127146472875238
 30
0.0
 40
0.1476116362823053
  1
D
  0
TEXT
  5
4D4
  8
FRAME
 10
57.519500900751403
 20
3.1139515425407049
 30
0.0
 40
0.0354267927077533
  1
FILE
  0
LINE
  5
4D5
  8
FRAME
 10
57.484348039481638
 20
3.1781852715960781
 30
0.0
 11
57.484348039481638
 21
2.885952638760322
 31
0.0
  0
LINE
  5
4D6
  8
FRAME
 10
58.062985653708282
 20
2.885952638760322
 30
0.0
 11
58.062985653708282
 21
2.7471592936517442
 31
0.0
  0
TEXT
  5
4D7
  8
FRAME
 10
58.223014807170181
 20
2.796865029738933
 30
0.0
 40
0.0354267927077533
  1
DO NOT SCALE PRINT
  0
TEXT
  5
4D8
  8
FRAME
 10
58.751951113290517
 20
3.1136338324542439
 30
0.0
 40
0.0354267927077533
  1
REV.
  0
LINE
  5
4D9
  8
FRAME
 10
58.712476853350431
 20
3.1781852715960781
 30
0.0
 11
58.712476853350431
 21
2.885952638760322
 31
0.0
  0
LINE
  5
4DA
  8
FRAME
 10
54.815529655497571
 20
4.2823203109877213
 30
0.0
 11
59.007700125915029
 21
4.2823203109877213
 31
0.0
  0
TEXT
  5
4DB
  8
FRAME
 10
56.003692837518471
 20
4.1985566154862362
 30
0.0
 40
0.0531401890616299
  1
STANDARD
  0
TEXT
  5
4DC
  8
FRAME
 10
55.143917876438643
 20
4.2145635799197354
 30
0.0
 40
0.0354267927077533
  1
UNLESS OTHERWISE
 72
     1
 11
55.399662588052657
 21
4.2145635799197354
 31
0.0
  0
TEXT
  5
4DD
  8
FRAME_TEXT
 10
55.118192770225598
 20
3.5681008563530821
 30
0.0
 40
0.05
  1
%%p.005
  0
TEXT
  5
4DE
  8
FRAME_TEXT
 10
58.820831661276372
 20
2.9516140468436181
 30
0.0
 40
0.12
  1
B
  0
TEXT
  5
4DF
  8
FRAME_TEXT
 10
57.367123266365098
 20
3.4573663576359741
 30
0.0
 40
0.125
  1
P3 Dimensions
 72
     1
 11
57.954307782054038
 21
3.5198663576359741
 31
0.0
 73
     2
  0
TEXT
  5
4E0
  8
FRAME_TEXT
 10
55.651365215503702
 20
3.72951913055992
 30
0.0
 40
0.05
  1
%%p.05
  0
TEXT
  5
4E1
  8
FRAME_TEXT
 10
55.132729816879333
 20
3.725051050374895
 30
0.0
 40
0.05
  1
%%p1/64
  0
TEXT
  5
4E2
  8
FRAME_TEXT
 10
55.720115891483992
 20
3.5696152140746671
 30
0.0
 40
0.05
  1
%%p1°0
  0
TEXT
  5
4E3
  8
FRAME
 10
57.248678961835743
 20
3.1136338324542439
 30
0.0
 40
0.0354267927077533
  1
SIZE
  0
TEXT
  5
4E4
  8
FRAME_TEXT
 10
57.750417418789709
 20
2.9716263009694801
 30
0.0
 40
0.1
  1
p3_cadd
  0
TEXT
  5
4E5
  8
FRAME_TEXT
 10
56.171676052390737
 20
3.8973369766165411
 30
0.0
 40
0.05
  1
ON FILE
  0
TEXT
  5
4E6
  8
FRAME_TEXT
 10
56.171676052390737
 20
3.7630529474430019
 30
0.0
 40
0.05
  1
ON FILE
  0
LINE
  5
4E7
  8
FRAME
 10
59.007700125915022
 20
24.747159293651752
 30
0.0
 11
59.007700125915029
 21
2.7471592936517459
 31
0.0
  0
LINE
  5
4E8
  8
FRAME
 10
59.007700125915029
 20
2.7471592936517459
 30
0.0
 11
25.007700125915029
 21
2.747159293651749
 31
0.0
  0
LINE
  5
4E9
  8
FRAME
 10
25.007700125915029
 20
2.747159293651749
 30
0.0
 11
25.007700125915029
 21
24.747159293651752
 31
0.0
  0
LINE
  5
4EA
  8
FRAME
 10
25.007700125915029
 20
24.747159293651752
 30
0.0
 11
59.007700125915029
 21
24.747159293651752
 31
0.0
  0
DIMENSION
  5
152F
  8
DIMENSIONS
  2
*D1
 10
28.655216495836939
 20
16.959734666833668
 30
0.0
 11
28.118525638812741
 21
17.235228295465269
 31
0.0
 70
   128
 13
29.906029267254091
 23
17.759734666833669
 33
0.0
 14
29.906029267254091
 24
16.959734666833668
 34
0.0
 50
90.0
1001
ACAD
1000
DSTYLE
1002
{
1070
   287
1070
     4
1070
   279
1070
     1
1002
}
  0
DIMENSION
  5
1530
  8
DIMENSIONS
  2
*D2
 10
28.655216495836939
 20
17.759734666833669
 30
0.0
 11
28.655216495836939
 21
17.93473466683368
 31
0.0
 70
     0
 13
29.30602926725409
 23
18.109734666833671
 33
0.0
 14
29.906029267254091
 24
17.759734666833669
 34
0.0
 50
90.0
  0
CIRCLE
  5
1531
  8
0
 10
29.906029267254091
 20
17.759734666833669
 30
0.0
 40
0.02
  0
CIRCLE
  5
1532
  8
0
 10
29.906029267254091
 20
16.959734666833668
 30
0.0
 40
0.02
  0
CIRCLE
  5
1533
  8
0
 10
31.10602926725409
 20
17.859734666833671
 30
0.0
 40
0.02
  0
CIRCLE
  5
1534
  8
0
 10
31.10602926725409
 20
16.859734666833671
 30
0.0
 40
0.02
  0
LINE
  5
1535
  8
0
 10
31.706029267254092
 20
16.609734666833671
 30
0.0
 11
31.706029267254092
 21
16.859734666833671
 31
0.0
  0
LINE
  5
1536
  8
0
 10
29.30602926725409
 20
16.609734666833671
 30
0.0
 11
29.30602926725409
 21
18.109734666833671
 31
0.0
  0
LINE
  5
1537
  8
0
 10
31.706029267254092
 20
16.609734666833671
 30
0.0
 11
29.30602926725409
 21
16.609734666833671
 31
0.0
  0
LINE
  5
1538
  8
0
 10
31.706029267254092
 20
18.109734666833671
 30
0.0
 11
31.706029267254092
 21
16.609734666833671
 31
0.0
  0
LINE
  5
1539
  8
0
 10
29.30602926725409
 20
18.109734666833671
 30
0.0
 11
31.706029267254092
 21
18.109734666833671
 31
0.0
  0
DIMENSION
  5
153A
  8
DIMENSIONS
  2
*D3
 10
28.655216495836939
 20
16.959734666833668
 30
0.0
 11
28.655216495836939
 21
16.784734666833678
 31
0.0
 70
     0
 13
29.30602926725409
 23
16.609734666833671
 33
0.0
 14
29.906029267254091
 24
16.959734666833668
 34
0.0
 50
270.0
  0
LINE
  5
153B
  8
0
 10
31.086029267254052
 20
14.14317335376581
 30
0.0
 11
31.126029267254051
 21
14.14317335376581
 31
0.0
  0
LINE
  5
153C
  8
0
 10
29.88602926725406
 20
14.14317335376581
 30
0.0
 11
29.926029267254052
 21
14.14317335376581
 31
0.0
  0
LINE
  5
153D
  8
CONVERTER
 10
31.126029267254051
 20
14.14317335376581
 30
0.0
 11
31.126029267254051
 21
13.89317335376581
 31
0.0
  0
LINE
  5
153E
  8
CONVERTER
 10
31.086029267254052
 20
14.14317335376581
 30
0.0
 11
31.086029267254052
 21
13.89317335376581
 31
0.0
  0
LINE
  5
153F
  8
CONVERTER
 10
29.88602926725406
 20
14.14317335376581
 30
0.0
 11
29.88602926725406
 21
13.89317335376581
 31
0.0
  0
LINE
  5
1540
  8
CONVERTER
 10
29.926029267254052
 20
14.14317335376581
 30
0.0
 11
29.926029267254052
 21
13.89317335376581
 31
0.0
  0
LINE
  5
1541
  8
0
 10
29.306029267254051
 20
13.89317335376581
 30
0.0
 11
31.706029267254049
 21
13.89317335376581
 31
0.0
  0
LINE
  5
1542
  8
0
 10
31.706029267254049
 20
13.89317335376581
 30
0.0
 11
31.706029267254049
 21
13.08317335376581
 31
0.0
  0
LINE
  5
1543
  8
0
 10
31.706029267254049
 20
13.08317335376581
 30
0.0
 11
29.306029267254051
 21
13.08317335376581
 31
0.0
  0
LINE
  5
1544
  8
0
 10
29.306029267254051
 20
13.89317335376581
 30
0.0
 11
29.306029267254051
 21
13.08317335376581
 31
0.0
  0
DIMENSION
  5
1545
  8
DIMENSIONS
  2
*D4
 10
32.664744318380478
 20
13.89317335376581
 30
0.0
 11
32.664744318380478
 21
13.485379048839469
 31
0.0
 70
   128
 13
31.706029267254049
 23
13.08317335376581
 33
0.0
 14
31.706029267254049
 24
13.89317335376581
 34
0.0
 50
90.0
  0
DIMENSION
  5
1548
  8
DIMENSIONS
  2
*D5
 10
28.576191465359098
 20
14.14317335376581
 30
0.0
 11
29.298101424431412
 21
14.579722482073119
 31
0.0
 70
   128
 13
29.306029267254051
 23
13.89317335376581
 33
0.0
 14
29.88602926725406
 24
14.14317335376581
 34
0.0
 50
90.0
  0
INSERT
  5
154B
  8
DIMENSIONS
  2
*U47
 10
0.0
 20
0.0
 30
0.0
  0
LINE
  5
154C
  8
CONVERTER
 10
27.530626004181158
 20
13.89317335376581
 30
0.0
 11
27.530626004181158
 21
13.08317335376581
 31
0.0
  0
LINE
  5
154D
  8
CONVERTER
 10
27.530626004181158
 20
13.08317335376581
 30
0.0
 11
26.030626004181158
 21
13.08317335376581
 31
0.0
  0
LINE
  5
154E
  8
CONVERTER
 10
26.030626004181158
 20
13.08317335376581
 30
0.0
 11
26.030626004181158
 21
13.89317335376581
 31
0.0
  0
LINE
  5
154F
  8
CONVERTER
 10
26.030626004181158
 20
13.89317335376581
 30
0.0
 11
27.530626004181158
 21
13.89317335376581
 31
0.0
  0
LINE
  5
1550
  8
CONVERTER
 10
26.300626004181161
 20
14.14317335376581
 30
0.0
 11
26.300626004181161
 21
13.89317335376581
 31
0.0
  0
LINE
  5
1551
  8
CONVERTER
 10
26.260626004181159
 20
14.14317335376581
 30
0.0
 11
26.260626004181159
 21
13.89317335376581
 31
0.0
  0
LINE
  5
1552
  8
0
 10
26.260626004181159
 20
14.14317335376581
 30
0.0
 11
26.300626004181161
 21
14.14317335376581
 31
0.0
  0
LINE
  5
1553
  8
0
 10
26.36062600418116
 20
14.14317335376581
 30
0.0
 11
26.400626004181159
 21
14.14317335376581
 31
0.0
  0
LINE
  5
1554
  8
CONVERTER
 10
26.36062600418116
 20
14.14317335376581
 30
0.0
 11
26.36062600418116
 21
13.89317335376581
 31
0.0
  0
LINE
  5
1555
  8
CONVERTER
 10
26.400626004181159
 20
14.14317335376581
 30
0.0
 11
26.400626004181159
 21
13.89317335376581
 31
0.0
  0
LINE
  5
1556
  8
CONVERTER
 10
27.16062600418115
 20
14.14317335376581
 30
0.0
 11
27.16062600418115
 21
13.89317335376581
 31
0.0
  0
LINE
  5
1557
  8
CONVERTER
 10
27.20062600418116
 20
14.14317335376581
 30
0.0
 11
27.20062600418116
 21
13.89317335376581
 31
0.0
  0
LINE
  5
1558
  8
0
 10
27.20062600418116
 20
14.14317335376581
 30
0.0
 11
27.16062600418115
 21
14.14317335376581
 31
0.0
  0
LINE
  5
1559
  8
0
 10
27.300626004181151
 20
14.14317335376581
 30
0.0
 11
27.260626004181152
 21
14.14317335376581
 31
0.0
  0
LINE
  5
155A
  8
CONVERTER
 10
27.300626004181151
 20
14.14317335376581
 30
0.0
 11
27.300626004181151
 21
13.89317335376581
 31
0.0
  0
LINE
  5
155B
  8
CONVERTER
 10
27.260626004181152
 20
14.14317335376581
 30
0.0
 11
27.260626004181159
 21
13.89317335376581
 31
0.0
  0
LINE
  5
155C
  8
CONVERTER
 10
34.562830476427557
 20
14.14317335376581
 30
0.0
 11
34.562830476427557
 21
13.89317335376581
 31
0.0
  0
LINE
  5
155D
  8
CONVERTER
 10
34.522830476427558
 20
14.14317335376581
 30
0.0
 11
34.522830476427558
 21
13.89317335376581
 31
0.0
  0
LINE
  5
155E
  8
0
 10
34.522830476427558
 20
14.14317335376581
 30
0.0
 11
34.562830476427557
 21
14.14317335376581
 31
0.0
  0
LINE
  5
155F
  8
0
 10
34.622830476427573
 20
14.14317335376581
 30
0.0
 11
34.662830476427558
 21
14.14317335376581
 31
0.0
  0
LINE
  5
1560
  8
CONVERTER
 10
34.622830476427573
 20
14.14317335376581
 30
0.0
 11
34.622830476427573
 21
13.89317335376581
 31
0.0
  0
LINE
  5
1561
  8
CONVERTER
 10
34.662830476427558
 20
14.14317335376581
 30
0.0
 11
34.662830476427558
 21
13.89317335376581
 31
0.0
  0
LINE
  5
1562
  8
CONVERTER
 10
35.422830476427549
 20
14.14317335376581
 30
0.0
 11
35.422830476427571
 21
13.89317335376581
 31
0.0
  0
LINE
  5
1563
  8
CONVERTER
 10
35.462830476427563
 20
14.14317335376581
 30
0.0
 11
35.462830476427563
 21
13.89317335376581
 31
0.0
  0
LINE
  5
1564
  8
0
 10
35.462830476427563
 20
14.14317335376581
 30
0.0
 11
35.422830476427549
 21
14.14317335376581
 31
0.0
  0
LINE
  5
1565
  8
0
 10
35.562830476427557
 20
14.14317335376581
 30
0.0
 11
35.522830476427558
 21
14.14317335376581
 31
0.0
  0
LINE
  5
1566
  8
CONVERTER
 10
35.562830476427557
 20
14.14317335376581
 30
0.0
 11
35.562830476427557
 21
13.89317335376581
 31
0.0
  0
LINE
  5
1567
  8
CONVERTER
 10
35.522830476427558
 20
14.14317335376581
 30
0.0
 11
35.522830476427558
 21
13.89317335376581
 31
0.0
  0
LINE
  5
1568
  8
CONVERTER
 10
35.792830476427561
 20
13.89317335376581
 30
0.0
 11
34.292830476427547
 21
13.89317335376581
 31
0.0
  0
LINE
  5
1569
  8
CONVERTER
 10
35.792830476427561
 20
13.08317335376581
 30
0.0
 11
35.792830476427561
 21
13.89317335376581
 31
0.0
  0
LINE
  5
156A
  8
CONVERTER
 10
34.292830476427547
 20
13.08317335376581
 30
0.0
 11
35.792830476427561
 21
13.08317335376581
 31
0.0
  0
LINE
  5
156B
  8
CONVERTER
 10
34.292830476427547
 20
13.89317335376581
 30
0.0
 11
34.292830476427547
 21
13.08317335376581
 31
0.0
  0
INSERT
  5
156C
  8
DIMENSIONS
  2
*U48
 10
0.0
 20
0.0
 30
0.0
  0
INSERT
  5
156D
  8
DIMENSIONS
  2
*U49
 10
0.0
 20
0.0
 30
0.0
  0
INSERT
  5
156E
  8
DIMENSIONS
  2
*U50
 10
0.0
 20
0.0
 30
0.0
  0
INSERT
  5
156F
  8
DIMENSIONS
  2
*U51
 10
0.0
 20
0.0
 30
0.0
  0
INSERT
  5
1570
  8
DIMENSIONS
  2
*U52
 10
0.0
 20
0.0
 30
0.0
1001
ACAD
1000
DSTYLE
1002
{
1070
   147
1040
0.09
1070
    77
1070
     0
1002
}
  0
INSERT
  5
1571
  8
DIMENSIONS
  2
*U53
 10
0.0
 20
0.0
 30
0.0
  0
INSERT
  5
1572
  8
DIMENSIONS
  2
*U54
 10
0.0
 20
0.0
 30
0.0
1001
ACAD
1000
DSTYLE
1002
{
1070
   147
1040
0.09
1070
    77
1070
     0
1002
}
  0
INSERT
  5
1573
  8
DIMENSIONS
  2
*U55
 10
0.0
 20
0.0
 30
0.0
  0
INSERT
  5
1574
  8
DIMENSIONS
  2
*U56
 10
0.0
 20
0.0
 30
0.0
1001
ACAD
1000
DSTYLE
1002
{
1070
   147
1040
0.09
1070
    77
1070
     0
1002
}
  0
INSERT
  5
1575
  8
DIMENSIONS
  2
*U57
 10
0.0
 20
0.0
 30
0.0
  0
INSERT
  5
1576
  8
DIMENSIONS
  2
*U58
 10
0.0
 20
0.0
 30
0.0
  0
DIMENSION
  5
1577
  8
DIMENSIONS
  2
*D6
 10
31.706029267254092
 20
19.010721995573459
 30
0.0
 11
30.521211603960928
 21
19.010721995573459
 31
0.0
 70
   128
 13
29.30602926725409
 23
18.109734666833671
 33
0.0
 14
31.706029267254092
 24
18.109734666833671
 34
0.0
  0
DIMENSION
  5
157A
  8
DIMENSIONS
  2
*D7
 10
26.752449415982941
 20
16.609734666833671
 30
0.0
 11
26.752449415982941
 21
17.58476177718072
 31
0.0
 70
   128
 13
29.30602926725409
 23
18.109734666833671
 33
0.0
 14
29.30602926725409
 24
16.609734666833671
 34
0.0
 50
90.0
  0
LINE
  5
157D
  8
CONVERTER
 10
29.346029267254089
 20
18.069734666833671
 30
0.0
 11
31.666029267254078
 21
18.069734666833671
 31
0.0
  0
LINE
  5
157E
  8
CONVERTER
 10
31.666029267254078
 20
18.069734666833671
 30
0.0
 11
31.666029267254078
 21
16.64973466683367
 31
0.0
  0
LINE
  5
157F
  8
CONVERTER
 10
31.666029267254078
 20
16.64973466683367
 30
0.0
 11
29.346029267254089
 21
16.64973466683368
 31
0.0
  0
LINE
  5
1580
  8
CONVERTER
 10
29.346029267254089
 20
16.64973466683368
 30
0.0
 11
29.346029267254089
 21
18.069734666833671
 31
0.0
  0
DIMENSION
  5
1581
  8
DIMENSIONS
  2
*D8
 10
29.906029267254091
 20
18.576768060424889
 30
0.0
 11
28.53556030408901
 21
18.576768060424889
 31
0.0
 70
   128
 13
29.30602926725409
 23
18.109734666833671
 33
0.0
 14
29.906029267254091
 24
17.759734666833669
 34
0.0
  0
DIMENSION
  5
1584
  8
DIMENSIONS
  2
*D9
 10
31.10602926725409
 20
18.576768060424889
 30
0.0
 11
30.48424374326073
 21
18.576768060424889
 31
0.0
 70
   128
 13
29.906029267254091
 23
17.759734666833669
 33
0.0
 14
31.10602926725409
 24
17.859734666833671
 34
0.0
  0
DIMENSION
  5
1587
  8
DIMENSIONS
  2
*D10
 10
31.706029267254092
 20
18.576768060424889
 30
0.0
 11
32.476498230419168
 21
18.576768060424889
 31
0.0
 70
   128
 13
31.10602926725409
 23
17.859734666833671
 33
0.0
 14
31.706029267254092
 24
18.109734666833671
 34
0.0
  0
DIMENSION
  5
158A
  8
DIMENSIONS
  2
*D11
 10
32.431200581917501
 20
18.109734666833671
 30
0.0
 11
32.431200581917487
 21
17.984734666833681
 31
0.0
 70
   128
 13
31.10602926725409
 23
17.859734666833671
 33
0.0
 14
31.706029267254092
 24
18.109734666833671
 34
0.0
 50
90.0
  0
DIMENSION
  5
158D
  8
DIMENSIONS
  2
*D12
 10
32.431200581917501
 20
16.859734666833671
 30
0.0
 11
32.431200581917487
 21
16.734734666833681
 31
0.0
 70
   128
 13
31.706029267254092
 23
16.609734666833671
 33
0.0
 14
31.10602926725409
 24
16.859734666833671
 34
0.0
 50
90.0
  0
CIRCLE
  5
1590
  8
0
 10
31.10602926725409
 20
17.359734666833681
 30
0.0
 40
0.02
  0
INSERT
  5
1591
  8
DIMENSIONS
  2
*U59
 10
0.0
 20
0.0
 30
0.0
  0
DIMENSION
  5
1592
  8
DIMENSIONS
  2
*D13
 10
33.025381523673254
 20
17.359734666833681
 30
0.0
 11
33.715794243572482
 21
17.642443702214649
 31
0.0
 70
   128
 13
31.10602926725409
 23
17.859734666833671
 33
0.0
 14
31.10602926725409
 24
17.359734666833681
 34
0.0
 50
90.0
1001
ACAD
1000
DSTYLE
1002
{
1070
   287
1070
     4
1070
   279
1070
     1
1002
}
  0
DIMENSION
  5
1595
  8
DIMENSIONS
  2
*D14
 10
33.025381523673254
 20
17.359734666833681
 30
0.0
 11
33.779613793825831
 21
17.150971883891891
 31
0.0
 70
   128
 13
31.10602926725409
 23
16.859734666833671
 33
0.0
 14
31.10602926725409
 24
17.359734666833681
 34
0.0
 50
90.0
1001
ACAD
1000
DSTYLE
1002
{
1070
   287
1070
     4
1070
   279
1070
     1
1002
}
  0
INSERT
  5
176F
  8
DIMENSIONS
  2
*U60
 10
0.0
 20
0.0
 30
0.0
  0
DIMENSION
  5
1898
  8
DIMENSIONS
  2
*D16
 10
39.859976055839383
 20
16.959734666833679
 30
0.0
 11
39.47972370536236
 21
17.22959678105811
 31
0.0
 70
   128
 13
40.660788827256511
 23
17.909734666833671
 33
0.0
 14
40.660788827256511
 24
16.959734666833668
 34
0.0
 50
90.0
1001
ACAD
1000
DSTYLE
1002
{
1070
   287
1070
     4
1070
   279
1070
     1
1002
}
  0
DIMENSION
  5
1899
  8
DIMENSIONS
  2
*D17
 10
39.859976055839383
 20
17.909734666833671
 30
0.0
 11
39.346995806758542
 21
18.298104811209019
 31
0.0
 70
   128
 13
40.510788827256519
 23
18.109734666833671
 33
0.0
 14
40.660788827256511
 24
17.909734666833671
 34
0.0
 50
90.0
1001
ACAD
1000
DSTYLE
1002
{
1070
   287
1070
     4
1070
   279
1070
     1
1002
}
  0
CIRCLE
  5
189A
  8
0
 10
40.660788827256511
 20
17.909734666833671
 30
0.0
 40
0.02
  0
CIRCLE
  5
189B
  8
0
 10
40.660788827256511
 20
16.959734666833668
 30
0.0
 40
0.02
  0
CIRCLE
  5
189C
  8
0
 10
42.760788827256512
 20
17.909734666833671
 30
0.0
 40
0.02
  0
CIRCLE
  5
189D
  8
0
 10
42.760788827256512
 20
16.80973466683367
 30
0.0
 40
0.02
  0
LINE
  5
189E
  8
0
 10
42.910788827256518
 20
16.609734666833671
 30
0.0
 11
42.910788827256518
 21
16.859734666833671
 31
0.0
  0
LINE
  5
189F
  8
0
 10
40.510788827256519
 20
16.609734666833671
 30
0.0
 11
40.510788827256519
 21
18.109734666833671
 31
0.0
  0
LINE
  5
18A0
  8
0
 10
42.910788827256518
 20
16.609734666833671
 30
0.0
 11
40.510788827256519
 21
16.609734666833671
 31
0.0
  0
LINE
  5
18A1
  8
0
 10
42.910788827256518
 20
18.109734666833671
 30
0.0
 11
42.910788827256518
 21
16.609734666833671
 31
0.0
  0
LINE
  5
18A2
  8
0
 10
40.510788827256519
 20
18.109734666833671
 30
0.0
 11
42.910788827256518
 21
18.109734666833671
 31
0.0
  0
DIMENSION
  5
18A3
  8
DIMENSIONS
  2
*D18
 10
43.635960141919917
 20
16.80973466683367
 30
0.0
 11
43.635960141919909
 21
17.359734666833681
 31
0.0
 70
     0
 13
42.760788827256512
 23
17.909734666833671
 33
0.0
 14
42.760788827256512
 24
16.80973466683367
 34
0.0
 50
90.0
  0
DIMENSION
  5
18A4
  8
DIMENSIONS
  2
*D19
 10
39.859976055839383
 20
16.959734666833679
 30
0.0
 11
39.859976055839368
 21
16.784734666833678
 31
0.0
 70
     0
 13
40.510788827256519
 23
16.609734666833671
 33
0.0
 14
40.660788827256511
 24
16.959734666833668
 34
0.0
 50
270.0
  0
LINE
  5
18A5
  8
0
 10
42.740788827256637
 20
14.14317335376581
 30
0.0
 11
42.780788827256643
 21
14.14317335376581
 31
0.0
  0
LINE
  5
18A6
  8
0
 10
40.64078882725665
 20
14.14317335376581
 30
0.0
 11
40.680788827256649
 21
14.14317335376581
 31
0.0
  0
LINE
  5
18A7
  8
CONVERTER
 10
42.780788827256643
 20
14.14317335376581
 30
0.0
 11
42.780788827256643
 21
13.89317335376581
 31
0.0
  0
LINE
  5
18A8
  8
CONVERTER
 10
42.740788827256637
 20
14.14317335376581
 30
0.0
 11
42.740788827256637
 21
13.89317335376581
 31
0.0
  0
LINE
  5
18A9
  8
CONVERTER
 10
40.64078882725665
 20
14.14317335376581
 30
0.0
 11
40.64078882725665
 21
13.89317335376581
 31
0.0
  0
LINE
  5
18AA
  8
CONVERTER
 10
40.680788827256649
 20
14.14317335376581
 30
0.0
 11
40.680788827256642
 21
13.89317335376581
 31
0.0
  0
LINE
  5
18AB
  8
0
 10
40.51078882725664
 20
13.89317335376581
 30
0.0
 11
42.910788827256638
 21
13.89317335376581
 31
0.0
  0
LINE
  5
18AC
  8
0
 10
42.910788827256638
 20
13.89317335376581
 30
0.0
 11
42.910788827256638
 21
13.08317335376581
 31
0.0
  0
LINE
  5
18AD
  8
0
 10
42.910788827256638
 20
13.08317335376581
 30
0.0
 11
40.51078882725664
 21
13.08317335376581
 31
0.0
  0
LINE
  5
18AE
  8
0
 10
40.51078882725664
 20
13.89317335376581
 30
0.0
 11
40.51078882725664
 21
13.08317335376581
 31
0.0
  0
DIMENSION
  5
18AF
  8
DIMENSIONS
  2
*D20
 10
43.869503878383071
 20
13.89317335376581
 30
0.0
 11
43.869503878383071
 21
13.485379048839469
 31
0.0
 70
   128
 13
42.910788827256638
 23
13.08317335376581
 33
0.0
 14
42.910788827256638
 24
13.89317335376581
 34
0.0
 50
90.0
  0
DIMENSION
  5
18B2
  8
DIMENSIONS
  2
*D21
 10
39.780951025361688
 20
14.14317335376581
 30
0.0
 11
40.502860984433987
 21
14.579722482073119
 31
0.0
 70
   128
 13
40.51078882725664
 23
13.89317335376581
 33
0.0
 14
40.64078882725665
 24
14.14317335376581
 34
0.0
 50
90.0
  0
INSERT
  5
18B5
  8
DIMENSIONS
  2
*U93
 10
0.0
 20
0.0
 30
0.0
  0
INSERT
  5
18B6
  8
DIMENSIONS
  2
*U94
 10
0.0
 20
0.0
 30
0.0
  0
INSERT
  5
18B7
  8
DIMENSIONS
  2
*U95
 10
0.0
 20
0.0
 30
0.0
  0
INSERT
  5
18B8
  8
DIMENSIONS
  2
*U96
 10
0.0
 20
0.0
 30
0.0
  0
INSERT
  5
18B9
  8
DIMENSIONS
  2
*U97
 10
0.0
 20
0.0
 30
0.0
  0
INSERT
  5
18BA
  8
DIMENSIONS
  2
*U98
 10
0.0
 20
0.0
 30
0.0
1001
ACAD
1000
DSTYLE
1002
{
1070
   147
1040
0.09
1070
    77
1070
     0
1002
}
  0
INSERT
  5
18BB
  8
DIMENSIONS
  2
*U99
 10
0.0
 20
0.0
 30
0.0
  0
INSERT
  5
18BC
  8
DIMENSIONS
  2
*U100
 10
0.0
 20
0.0
 30
0.0
1001
ACAD
1000
DSTYLE
1002
{
1070
   147
1040
0.09
1070
    77
1070
     0
1002
}
  0
INSERT
  5
18BD
  8
DIMENSIONS
  2
*U101
 10
0.0
 20
0.0
 30
0.0
  0
INSERT
  5
18BE
  8
DIMENSIONS
  2
*U102
 10
0.0
 20
0.0
 30
0.0
1001
ACAD
1000
DSTYLE
1002
{
1070
   147
1040
0.09
1070
    77
1070
     0
1002
}
  0
INSERT
  5
18BF
  8
DIMENSIONS
  2
*U103
 10
0.0
 20
0.0
 30
0.0
  0
INSERT
  5
18C0
  8
DIMENSIONS
  2
*U104
 10
0.0
 20
0.0
 30
0.0
  0
DIMENSION
  5
18C1
  8
DIMENSIONS
  2
*D22
 10
42.910788827256518
 20
19.010721995573459
 30
0.0
 11
41.725971163963351
 21
19.010721995573459
 31
0.0
 70
   128
 13
40.510788827256519
 23
18.109734666833671
 33
0.0
 14
42.910788827256518
 24
18.109734666833671
 34
0.0
  0
DIMENSION
  5
18C4
  8
DIMENSIONS
  2
*D23
 10
38.213988238570273
 20
16.609734666833671
 30
0.0
 11
38.213988238570273
 21
17.590264119589591
 31
0.0
 70
   128
 13
40.510788827256519
 23
18.109734666833671
 33
0.0
 14
40.510788827256519
 24
16.609734666833671
 34
0.0
 50
90.0
  0
LINE
  5
18C7
  8
CONVERTER
 10
40.550788827256511
 20
18.069734666833671
 30
0.0
 11
42.870788827256511
 21
18.069734666833671
 31
0.0
  0
LINE
  5
18C8
  8
CONVERTER
 10
42.870788827256511
 20
18.069734666833671
 30
0.0
 11
42.870788827256511
 21
16.64973466683367
 31
0.0
  0
LINE
  5
18C9
  8
CONVERTER
 10
42.870788827256511
 20
16.64973466683367
 30
0.0
 11
40.550788827256511
 21
16.64973466683367
 31
0.0
  0
LINE
  5
18CA
  8
CONVERTER
 10
40.550788827256511
 20
16.64973466683367
 30
0.0
 11
40.550788827256511
 21
18.069734666833671
 31
0.0
  0
DIMENSION
  5
18CB
  8
DIMENSIONS
  2
*D24
 10
40.660788827256511
 20
18.62676806042489
 30
0.0
 11
39.608878868184213
 21
18.62676806042489
 31
0.0
 70
   128
 13
40.510788827256519
 23
18.109734666833671
 33
0.0
 14
40.660788827256511
 24
17.909734666833671
 34
0.0
  0
DIMENSION
  5
18CE
  8
DIMENSIONS
  2
*D25
 10
42.760788827256512
 20
18.62676806042489
 30
0.0
 11
41.672664160268113
 21
18.62676806042489
 31
0.0
 70
   128
 13
40.660788827256511
 23
17.909734666833671
 33
0.0
 14
42.760788827256512
 24
17.909734666833671
 34
0.0
  0
DIMENSION
  5
18D1
  8
DIMENSIONS
  2
*D26
 10
42.910788827256518
 20
18.62676806042489
 30
0.0
 11
43.812698786328824
 21
18.62676806042489
 31
0.0
 70
   128
 13
42.760788827256512
 23
17.909734666833671
 33
0.0
 14
42.910788827256518
 24
18.109734666833671
 34
0.0
  0
DIMENSION
  5
18D4
  8
DIMENSIONS
  2
*D27
 10
43.635960141919917
 20
18.109734666833671
 30
0.0
 11
43.635960141919909
 21
18.00973466683368
 31
0.0
 70
   128
 13
42.760788827256512
 23
17.909734666833671
 33
0.0
 14
42.910788827256518
 24
18.109734666833671
 34
0.0
 50
90.0
  0
DIMENSION
  5
18D7
  8
DIMENSIONS
  2
*D28
 10
43.635960141919917
 20
16.80973466683367
 30
0.0
 11
43.635960141919909
 21
16.709734666833679
 31
0.0
 70
   128
 13
42.910788827256518
 23
16.609734666833671
 33
0.0
 14
42.760788827256512
 24
16.80973466683367
 34
0.0
 50
90.0
  0
LINE
  5
1A41
  8
CONVERTER
 10
38.735385564183751
 20
13.89317335376581
 30
0.0
 11
38.735385564183751
 21
13.08317335376581
 31
0.0
  0
LINE
  5
1A42
  8
CONVERTER
 10
38.735385564183751
 20
13.08317335376581
 30
0.0
 11
37.235385564183751
 21
13.08317335376581
 31
0.0
  0
LINE
  5
1A43
  8
CONVERTER
 10
37.235385564183751
 20
13.08317335376581
 30
0.0
 11
37.235385564183751
 21
13.89317335376581
 31
0.0
  0
LINE
  5
1A44
  8
CONVERTER
 10
37.235385564183751
 20
13.89317335376581
 30
0.0
 11
38.735385564183751
 21
13.89317335376581
 31
0.0
  0
LINE
  5
1A5D
  8
CONVERTER
 10
46.997590036430147
 20
13.89317335376581
 30
0.0
 11
45.497590036430147
 21
13.89317335376581
 31
0.0
  0
LINE
  5
1A5E
  8
CONVERTER
 10
46.997590036430147
 20
13.08317335376581
 30
0.0
 11
46.997590036430147
 21
13.89317335376581
 31
0.0
  0
LINE
  5
1A5F
  8
CONVERTER
 10
45.497590036430147
 20
13.08317335376581
 30
0.0
 11
46.997590036430147
 21
13.08317335376581
 31
0.0
  0
LINE
  5
1A60
  8
CONVERTER
 10
45.497590036430147
 20
13.89317335376581
 30
0.0
 11
45.497590036430147
 21
13.08317335376581
 31
0.0
  0
LINE
  5
1A61
  8
0
 10
46.817590036430147
 20
14.14317335376581
 30
0.0
 11
46.777590036430141
 21
14.14317335376581
 31
0.0
  0
LINE
  5
1A62
  8
CONVERTER
 10
46.817590036430147
 20
14.14317335376581
 30
0.0
 11
46.817590036430147
 21
13.89317335376581
 31
0.0
  0
LINE
  5
1A63
  8
CONVERTER
 10
46.777590036430141
 20
14.14317335376581
 30
0.0
 11
46.777590036430148
 21
13.89317335376581
 31
0.0
  0
LINE
  5
1A64
  8
0
 10
45.867590036430151
 20
14.14317335376581
 30
0.0
 11
45.827590036430152
 21
14.14317335376581
 31
0.0
  0
LINE
  5
1A65
  8
CONVERTER
 10
45.867590036430151
 20
14.14317335376581
 30
0.0
 11
45.867590036430151
 21
13.89317335376581
 31
0.0
  0
LINE
  5
1A66
  8
CONVERTER
 10
45.827590036430152
 20
14.14317335376581
 30
0.0
 11
45.827590036430152
 21
13.89317335376581
 31
0.0
  0
LINE
  5
1A67
  8
0
 10
45.717590036430153
 20
14.14317335376581
 30
0.0
 11
45.677590036430153
 21
14.14317335376581
 31
0.0
  0
LINE
  5
1A68
  8
CONVERTER
 10
45.717590036430153
 20
14.14317335376581
 30
0.0
 11
45.717590036430153
 21
13.89317335376581
 31
0.0
  0
LINE
  5
1A69
  8
CONVERTER
 10
45.677590036430153
 20
14.14317335376581
 30
0.0
 11
45.677590036430161
 21
13.89317335376581
 31
0.0
  0
LINE
  5
1A6A
  8
0
 10
38.405385564183753
 20
14.14317335376581
 30
0.0
 11
38.365385564183747
 21
14.14317335376581
 31
0.0
  0
LINE
  5
1A6B
  8
CONVERTER
 10
38.405385564183753
 20
14.14317335376581
 30
0.0
 11
38.405385564183753
 21
13.89317335376581
 31
0.0
  0
LINE
  5
1A6C
  8
CONVERTER
 10
38.365385564183747
 20
14.14317335376581
 30
0.0
 11
38.365385564183761
 21
13.89317335376581
 31
0.0
  0
LINE
  5
1A6D
  8
0
 10
38.555385564183752
 20
14.14317335376581
 30
0.0
 11
38.515385564183752
 21
14.14317335376581
 31
0.0
  0
LINE
  5
1A6E
  8
CONVERTER
 10
38.555385564183752
 20
14.14317335376581
 30
0.0
 11
38.555385564183752
 21
13.89317335376581
 31
0.0
  0
LINE
  5
1A6F
  8
CONVERTER
 10
38.515385564183752
 20
14.14317335376581
 30
0.0
 11
38.515385564183752
 21
13.89317335376581
 31
0.0
  0
LINE
  5
1A70
  8
0
 10
37.45538556418375
 20
14.14317335376581
 30
0.0
 11
37.415385564183751
 21
14.14317335376581
 31
0.0
  0
LINE
  5
1A71
  8
CONVERTER
 10
37.45538556418375
 20
14.14317335376581
 30
0.0
 11
37.45538556418375
 21
13.89317335376581
 31
0.0
  0
LINE
  5
1A72
  8
CONVERTER
 10
37.415385564183751
 20
14.14317335376581
 30
0.0
 11
37.415385564183758
 21
13.89317335376581
 31
0.0
  0
INSERT
  5
1ADC
  8
DIMENSIONS
  2
*U138
 10
0.0
 20
0.0
 30
0.0
  0
INSERT
  5
1C98
  8
DIMENSIONS
  2
*U149
 10
0.0
 20
0.0
 30
0.0
  0
INSERT
  5
1C99
  8
DIMENSIONS
  2
*U150
 10
0.0
 20
0.0
 30
0.0
1001
ACAD
1000
DSTYLE
1002
{
1070
   147
1040
0.09
1070
    77
1070
     0
1002
}
  0
LINE
  5
1C9A
  8
0
 10
51.511072969236331
 20
18.109734666833671
 30
0.0
 11
53.911072969236329
 21
18.109734666833671
 31
0.0
  0
LINE
  5
1C9B
  8
0
 10
53.911072969236329
 20
18.109734666833671
 30
0.0
 11
53.911072969236329
 21
17.819734666833671
 31
0.0
  0
LINE
  5
1C9C
  8
0
 10
53.911072969236329
 20
17.69973466683367
 30
0.0
 11
53.911072969236329
 21
17.019734666833671
 31
0.0
  0
LINE
  5
1C9D
  8
0
 10
53.911072969236329
 20
16.89973466683367
 30
0.0
 11
53.911072969236329
 21
16.609734666833671
 31
0.0
  0
LINE
  5
1C9E
  8
0
 10
53.911072969236329
 20
16.609734666833671
 30
0.0
 11
51.511072969236331
 21
16.609734666833671
 31
0.0
  0
LINE
  5
1C9F
  8
0
 10
51.511072969236331
 20
16.609734666833671
 30
0.0
 11
51.511072969236331
 21
18.109734666833671
 31
0.0
  0
LINE
  5
1CA0
  8
0
 10
53.911072969236329
 20
16.609734666833671
 30
0.0
 11
53.911072969236329
 21
16.859734666833671
 31
0.0
  0
CIRCLE
  5
1CA1
  8
0
 10
52.111072969236339
 20
16.959734666833668
 30
0.0
 40
0.02
  0
CIRCLE
  5
1CA2
  8
0
 10
52.111072969236339
 20
17.759734666833669
 30
0.0
 40
0.02
  0
LINE
  5
1CA3
  8
0
 10
51.511072969236331
 20
13.08317335376581
 30
0.0
 11
53.911072969236329
 21
13.08317335376581
 31
0.0
  0
LINE
  5
1CA4
  8
0
 10
53.911072969236329
 20
13.08317335376581
 30
0.0
 11
53.911072969236329
 21
13.89317335376581
 31
0.0
  0
LINE
  5
1CA5
  8
0
 10
53.911072969236329
 20
13.89317335376581
 30
0.0
 11
51.511072969236331
 21
13.89317335376581
 31
0.0
  0
LINE
  5
1CA6
  8
0
 10
51.511072969236331
 20
13.08317335376581
 30
0.0
 11
51.511072969236331
 21
13.89317335376581
 31
0.0
  0
CIRCLE
  5
1CA7
  8
0
 10
52.561072969236342
 20
17.959734666833668
 30
0.0
 40
0.0648585397346031
  0
ARC
  5
1CA8
  8
0
 10
53.511072969236331
 20
17.759734666833669
 30
0.0
 40
0.0600000000000001
 50
90.0
 51
270.0
  0
ARC
  5
1CA9
  8
0
 10
53.511072969236331
 20
17.759734666833669
 30
0.0
 40
0.0641995139786338
 50
69.161445858973096
 51
290.8385541410268
  0
LINE
  5
1CAA
  8
0
 10
53.511072969236331
 20
17.819734666833671
 30
0.0
 11
54.837990853647518
 21
17.819734666833671
 31
0.0
  0
LINE
  5
1CAB
  8
0
 10
53.511072969236331
 20
17.69973466683367
 30
0.0
 11
54.931320383453148
 21
17.69973466683367
 31
0.0
  0
LINE
  5
1CAC
  8
0
 10
54.941993908587563
 20
17.819734666833671
 30
0.0
 11
55.871759864825982
 21
17.819734666833671
 31
0.0
  0
LINE
  5
1CAD
  8
0
 10
55.035323438393199
 20
17.69973466683367
 30
0.0
 11
55.871759864825982
 21
17.69973466683367
 31
0.0
  0
LINE
  5
1CAE
  8
0
 10
55.871759864825982
 20
17.819734666833671
 30
0.0
 11
55.871759864825982
 21
17.69973466683367
 31
0.0
  0
LINE
  5
1CAF
  8
0
 10
54.775666741445498
 20
17.899868933874529
 30
0.0
 11
54.993644495655182
 21
17.619600399792809
 31
0.0
  0
LINE
  5
1CB0
  8
0
 10
54.879669796385549
 20
17.899868933874529
 30
0.0
 11
55.097647550595227
 21
17.619600399792809
 31
0.0
  0
ARC
  5
1CB4
  8
0
 10
53.44864991286893
 20
13.88779121023701
 30
0.0
 40
0.206503346496834
 50
90.715009364356987
 51
142.0951975554749
  0
LINE
  5
1CB5
  8
0
 10
55.867482117434271
 20
14.0942784773406
 30
0.0
 11
55.867482117434271
 21
13.974278477340601
 31
0.0
  0
ARC
  5
1CB9
  8
0
 10
53.471072969236339
 20
13.87427847734059
 30
0.0
 40
0.1000000000000023
 50
90.000000000000398
 51
133.22505014230299
  0
LINE
  5
1CBA
  8
0
 10
52.131072969236342
 20
13.89317335376581
 30
0.0
 11
52.131072969236342
 21
14.14317335376581
 31
0.0
  0
LINE
  5
1CBB
  8
0
 10
52.131072969236342
 20
14.14317335376581
 30
0.0
 11
52.091072969236329
 21
14.14317335376581
 31
0.0
  0
LINE
  5
1CBC
  8
0
 10
52.091072969236329
 20
14.14317335376581
 30
0.0
 11
52.091072969236329
 21
13.89317335376581
 31
0.0
  0
DIMENSION
  5
1CBD
  8
DIM
  2
*D32
 10
55.871759864825982
 20
16.242162292961378
 30
0.0
 11
54.691416417031157
 21
16.242162292961378
 31
0.0
 70
     0
  1
6" [152.4] Min
 13
53.511072969236331
 23
16.89973466683367
 33
0.0
 14
55.871759864825982
 24
16.89973466683367
 34
0.0
  0
DIMENSION
  5
1CBF
  8
DIM
  2
*D33
 10
53.511072969236331
 20
16.242162292961378
 30
0.0
 11
52.811072969236328
 21
16.242162292961378
 31
0.0
 70
     0
 13
52.111072969236339
 23
16.959734666833668
 33
0.0
 14
53.511072969236331
 24
16.89973466683367
 34
0.0
  0
DIMENSION
  5
1CC0
  8
DIM
  2
*D34
 10
52.111072969236339
 20
16.242162292961378
 30
0.0
 11
50.667351092450872
 21
16.242162292961378
 31
0.0
 70
   128
 13
51.511072969236331
 23
16.609734666833671
 33
0.0
 14
52.111072969236339
 24
16.959734666833668
 34
0.0
  0
DIMENSION
  5
1CC2
  8
DIM
  2
*D35
 10
50.89647331707701
 20
13.89317335376581
 30
0.0
 11
50.89647331707701
 21
13.516508360889089
 31
0.0
 70
   128
 13
51.511072969236331
 23
13.08317335376581
 33
0.0
 14
51.511072969236331
 24
13.89317335376581
 34
0.0
 50
90.0
  0
LINE
  5
1CC3
  8
0
 10
53.911072969236329
 20
13.86217335376581
 30
0.0
 11
51.511072969236331
 21
13.86217335376581
 31
0.0
  0
DIMENSION
  5
1CC4
  8
DIM
  2
*D36
 10
50.934618880248742
 20
17.759734666833669
 30
0.0
 11
50.934618880248728
 21
17.39107419481434
 31
0.0
 70
   128
 13
52.111072969236339
 23
16.959734666833668
 33
0.0
 14
52.111072969236339
 24
17.759734666833669
 34
0.0
 50
90.0
1001
ACAD
1000
DSTYLE
1002
{
1070
     7
1000

1070
   173
1070
     1
1070
     6
1000

1002
}
  0
DIMENSION
  5
1CC5
  8
DIM
  2
*D37
 10
50.030564840705097
 20
17.959734666833668
 30
0.0
 11
50.03056484070509
 21
17.126433937688081
 31
0.0
 70
   128
 13
52.561072969236342
 23
16.759734666833669
 33
0.0
 14
52.527952886674761
 24
17.959734666833668
 34
0.0
 50
90.0
  0
DIMENSION
  5
1CC6
  8
DIM
  2
*D38
 10
52.561072969236342
 20
18.906084870139221
 30
0.0
 11
50.746487362142197
 21
18.906084870139221
 31
0.0
 70
   128
 13
51.511072969236331
 23
18.109734666833671
 33
0.0
 14
52.561072969236342
 24
17.959734666833668
 34
0.0
  0
DIMENSION
  5
1CC7
  8
DIM
  2
*D39
 10
49.27974548957048
 20
18.109734666833671
 30
0.0
 11
49.279745489570473
 21
17.483144567703519
 31
0.0
 70
   128
 13
51.511072969236331
 23
16.609734666833671
 33
0.0
 14
51.511072969236331
 24
18.109734666833671
 34
0.0
 50
90.0
  0
TEXT
  5
1CC8
  8
0
 10
52.110385777132912
 20
17.584168695696029
 30
0.0
 40
0.1
  1
1
  0
TEXT
  5
1CC9
  8
0
 10
52.124029712509511
 20
17.025007541764388
 30
0.0
 40
0.1
  1
2
  0
TEXT
  5
1CCA
  8
0
 10
53.36488044024015
 20
17.589149986379251
 30
0.0
 40
0.1
  1
3
  0
TEXT
  5
1CCB
  8
0
 10
53.368874045331339
 20
17.03583913556287
 30
0.0
 40
0.1
  1
4
  0
DIMENSION
  5
1CCC
  8
DIM
  2
*D40
 10
50.030564840705097
 20
17.959734666833668
 30
0.0
 11
50.752474799777403
 21
18.469734666833681
 31
0.0
 70
   128
 13
51.511072969236331
 23
18.109734666833671
 33
0.0
 14
52.561072969236342
 24
17.959734666833668
 34
0.0
 50
90.0
  0
INSERT
  5
1CCD
  8
DIMENSIONS
  2
*U151
 10
0.0
 20
0.0
 30
0.0
  0
INSERT
  5
1CCE
  8
DIMENSIONS
  2
*U152
 10
0.0
 20
0.0
 30
0.0
1001
ACAD
1000
DSTYLE
1002
{
1070
   147
1040
0.09
1070
    77
1070
     0
1002
}
  0
CIRCLE
  5
1CCF
  8
0
 10
52.561072969236342
 20
16.759734666833669
 30
0.0
 40
0.0648585397346031
  0
INSERT
  5
1CD0
  8
DIMENSIONS
  2
*U153
 10
0.0
 20
0.0
 30
0.0
  0
INSERT
  5
1CD1
  8
DIMENSIONS
  2
*U154
 10
0.0
 20
0.0
 30
0.0
1001
ACAD
1000
DSTYLE
1002
{
1070
   147
1040
0.09
1070
    77
1070
     0
1002
}
  0
LINE
  5
1CD2
  8
0
 10
53.471072969236339
 20
13.974278477340601
 30
0.0
 11
54.833713106255821
 21
13.974278477340601
 31
0.0
  0
LINE
  5
1CD3
  8
0
 10
53.44607296923634
 20
14.0942784773406
 30
0.0
 11
54.927042636061437
 21
14.0942784773406
 31
0.0
  0
LINE
  5
1CD4
  8
0
 10
54.937716161195873
 20
13.974278477340601
 30
0.0
 11
55.867482117434271
 21
13.974278477340601
 31
0.0
  0
LINE
  5
1CD5
  8
0
 10
55.031045691001488
 20
14.0942784773406
 30
0.0
 11
55.867482117434271
 21
14.0942784773406
 31
0.0
  0
LINE
  5
1CD6
  8
0
 10
54.77138899405378
 20
13.89414421029973
 30
0.0
 11
54.989366748263457
 21
14.17441274438146
 31
0.0
  0
LINE
  5
1CD7
  8
0
 10
54.875392048993838
 20
13.89414421029973
 30
0.0
 11
55.093369803203522
 21
14.17441274438146
 31
0.0
  0
ARC
  5
1CD8
  8
0
 10
53.511072969236331
 20
16.959734666833668
 30
0.0
 40
0.0600000000000001
 50
90.0
 51
270.0
  0
ARC
  5
1CD9
  8
0
 10
53.511072969236331
 20
16.959734666833668
 30
0.0
 40
0.0641995139786338
 50
69.161445858973096
 51
290.8385541410268
  0
LINE
  5
1CDA
  8
0
 10
53.511072969236331
 20
17.019734666833671
 30
0.0
 11
54.837990853647518
 21
17.019734666833671
 31
0.0
  0
LINE
  5
1CDB
  8
0
 10
53.511072969236331
 20
16.89973466683367
 30
0.0
 11
54.931320383453148
 21
16.89973466683367
 31
0.0
  0
LINE
  5
1CDC
  8
0
 10
54.941993908587563
 20
17.019734666833671
 30
0.0
 11
55.871759864825982
 21
17.019734666833671
 31
0.0
  0
LINE
  5
1CDD
  8
0
 10
55.035323438393199
 20
16.89973466683367
 30
0.0
 11
55.871759864825982
 21
16.89973466683367
 31
0.0
  0
LINE
  5
1CDE
  8
0
 10
55.871759864825982
 20
17.019734666833671
 30
0.0
 11
55.871759864825982
 21
16.89973466683367
 31
0.0
  0
LINE
  5
1CDF
  8
0
 10
54.775666741445498
 20
17.099868933874539
 30
0.0
 11
54.993644495655182
 21
16.819600399792812
 31
0.0
  0
LINE
  5
1CE0
  8
0
 10
54.879669796385549
 20
17.099868933874539
 30
0.0
 11
55.097647550595227
 21
16.819600399792812
 31
0.0
  0
DIMENSION
  5
1CE5
  8
DIM
  2
*D41
 10
50.89647331707701
 20
14.14317335376581
 30
0.0
 11
51.100813736556347
 21
14.876182416099491
 31
0.0
 70
   128
 13
51.511072969236331
 23
13.89317335376581
 33
0.0
 14
52.091072969236329
 24
14.14317335376581
 34
0.0
 50
90.0
1001
ACAD
1000
DSTYLE
1002
{
1070
   287
1070
     4
1070
    47
1040
0.15
1070
    72
1070
     1
1070
   279
1070
     1
1002
}
  0
ARC
  5
1CE7
  8
0
 10
53.441980407290593
 20
13.898387494443741
 30
0.0
 40
0.1947777130951669
 50
143.34941696723891
 51
181.53397399902931
  0
ARC
  5
1CE8
  8
0
 10
53.474157090388658
 20
13.87730533377588
 30
0.0
 40
0.0999999999999931
 50
135.7011673008044
 51
170.86970139063791
  0
LINE
  5
1EB0
  8
CONVERTER
 10
49.735669706163421
 20
13.893173353765819
 30
0.0
 11
49.735669706163421
 21
13.083173353765821
 31
0.0
  0
LINE
  5
1EB1
  8
CONVERTER
 10
49.735669706163421
 20
13.083173353765821
 30
0.0
 11
48.235669706163428
 21
13.083173353765821
 31
0.0
  0
LINE
  5
1EB2
  8
CONVERTER
 10
48.235669706163428
 20
13.083173353765821
 30
0.0
 11
48.235669706163428
 21
13.893173353765819
 31
0.0
  0
LINE
  5
1EB3
  8
CONVERTER
 10
48.235669706163428
 20
13.893173353765819
 30
0.0
 11
49.735669706163421
 21
13.893173353765819
 31
0.0
  0
LINE
  5
1EB7
  8
0
 10
48.565669706163433
 20
14.143173353765819
 30
0.0
 11
48.605669706163432
 21
14.143173353765819
 31
0.0
  0
LINE
  5
1EB8
  8
CONVERTER
 10
48.565669706163433
 20
14.143173353765819
 30
0.0
 11
48.565669706163433
 21
13.893173353765819
 31
0.0
  0
LINE
  5
1EB9
  8
CONVERTER
 10
48.605669706163432
 20
14.143173353765819
 30
0.0
 11
48.605669706163432
 21
13.893173353765819
 31
0.0
  0
LINE
  5
1EBA
  8
CONVERTER
 10
49.365669706163423
 20
14.143173353765819
 30
0.0
 11
49.365669706163423
 21
13.893173353765819
 31
0.0
  0
LINE
  5
1EBB
  8
CONVERTER
 10
49.40566970616343
 20
14.143173353765819
 30
0.0
 11
49.40566970616343
 21
13.893173353765819
 31
0.0
  0
LINE
  5
1EBC
  8
0
 10
49.40566970616343
 20
14.143173353765819
 30
0.0
 11
49.365669706163423
 21
14.143173353765819
 31
0.0
  0
LINE
  5
1ECC
  8
CONVERTER
 10
57.997874178409859
 20
13.89317335376581
 30
0.0
 11
56.497874178409859
 21
13.89317335376581
 31
0.0
  0
LINE
  5
1ECD
  8
CONVERTER
 10
57.997874178409859
 20
13.083173353765821
 30
0.0
 11
57.997874178409859
 21
13.89317335376581
 31
0.0
  0
LINE
  5
1ECE
  8
CONVERTER
 10
56.497874178409859
 20
13.083173353765821
 30
0.0
 11
57.997874178409859
 21
13.083173353765821
 31
0.0
  0
LINE
  5
1ECF
  8
CONVERTER
 10
56.497874178409859
 20
13.89317335376581
 30
0.0
 11
56.497874178409859
 21
13.083173353765821
 31
0.0
  0
INSERT
  5
2481
  8
DIMENSIONS
  2
*U155
 10
0.0
 20
0.0
 30
0.0
  0
LINE
  5
24A9
  8
0
 10
55.871759864825982
 20
17.776649729128579
 30
0.0
 11
56.371759864825982
 21
17.776649729128579
 31
0.0
  0
LINE
  5
24AA
  8
0
 10
56.371759864825982
 20
17.776649729128579
 30
0.0
 11
56.371759864825982
 21
17.74281960453877
 31
0.0
  0
LINE
  5
24AB
  8
0
 10
56.371759864825982
 20
17.74281960453877
 30
0.0
 11
55.871759864825982
 21
17.74281960453877
 31
0.0
  0
LINE
  5
24AC
  8
0
 10
55.871759864825982
 20
16.976649729128582
 30
0.0
 11
56.371759864825982
 21
16.976649729128582
 31
0.0
  0
LINE
  5
24AD
  8
0
 10
56.371759864825982
 20
16.976649729128582
 30
0.0
 11
56.371759864825982
 21
16.942819604538769
 31
0.0
  0
LINE
  5
24AE
  8
0
 10
56.371759864825982
 20
16.942819604538769
 30
0.0
 11
55.871759864825982
 21
16.942819604538769
 31
0.0
  0
LINE
  5
24AF
  8
0
 10
55.867482117434278
 20
14.0511935396355
 30
0.0
 11
56.367482117434271
 21
14.0511935396355
 31
0.0
  0
LINE
  5
24B0
  8
0
 10
56.367482117434271
 20
14.0511935396355
 30
0.0
 11
56.367482117434271
 21
14.0173634150457
 31
0.0
  0
LINE
  5
24B1
  8
0
 10
56.367482117434271
 20
14.0173634150457
 30
0.0
 11
55.867482117434278
 21
14.0173634150457
 31
0.0
  0
LINE
  5
24B2
  8
0
 10
56.907874178409863
 20
13.89317335376581
 30
0.0
 11
56.787874178409858
 21
13.89317335376581
 31
0.0
  0
LINE
  5
24B3
  8
0
 10
56.787874178409858
 20
14.544245069515879
 30
0.0
 11
56.787874178409858
 21
13.89317335376581
 31
0.0
  0
LINE
  5
24B4
  8
0
 10
56.90787417840987
 20
14.45091553971025
 30
0.0
 11
56.907874178409863
 21
13.89317335376581
 31
0.0
  0
LINE
  5
24B5
  8
0
 10
56.707739911369011
 20
14.6065691817179
 30
0.0
 11
56.988008445450731
 21
14.388591427508221
 31
0.0
  0
LINE
  5
24B6
  8
0
 10
56.787874178409858
 20
15.056733640229121
 30
0.0
 11
56.907874178409863
 21
15.056733640229121
 31
0.0
  0
LINE
  5
24B7
  8
0
 10
56.907874178409863
 20
14.554918594650299
 30
0.0
 11
56.907874178409863
 21
15.056733640229121
 31
0.0
  0
LINE
  5
24B8
  8
0
 10
56.787874178409872
 20
14.64824812445592
 30
0.0
 11
56.787874178409858
 21
15.056733640229121
 31
0.0
  0
LINE
  5
24BA
  8
0
 10
56.988008445450731
 20
14.49259448244827
 30
0.0
 11
56.707739911369011
 21
14.710572236657949
 31
0.0
  0
LINE
  5
24BB
  8
0
 10
56.830959116114947
 20
15.056733640229121
 30
0.0
 11
56.830959116114947
 21
15.556733640229121
 31
0.0
  0
LINE
  5
24BC
  8
0
 10
56.830959116114947
 20
15.556733640229121
 30
0.0
 11
56.864789240704773
 21
15.556733640229121
 31
0.0
  0
LINE
  5
24BD
  8
0
 10
56.864789240704773
 20
15.556733640229121
 30
0.0
 11
56.864789240704773
 21
15.056733640229121
 31
0.0
  0
LINE
  5
24BE
  8
0
 10
57.707874178409853
 20
13.89317335376581
 30
0.0
 11
57.587874178409841
 21
13.89317335376581
 31
0.0
  0
LINE
  5
24BF
  8
0
 10
57.587874178409841
 20
14.544245069515879
 30
0.0
 11
57.587874178409841
 21
13.89317335376581
 31
0.0
  0
LINE
  5
24C0
  8
0
 10
57.70787417840986
 20
14.45091553971025
 30
0.0
 11
57.707874178409853
 21
13.89317335376581
 31
0.0
  0
LINE
  5
24C1
  8
0
 10
57.507739911368994
 20
14.6065691817179
 30
0.0
 11
57.788008445450707
 21
14.388591427508221
 31
0.0
  0
LINE
  5
24C2
  8
0
 10
57.587874178409841
 20
15.056733640229121
 30
0.0
 11
57.707874178409853
 21
15.056733640229121
 31
0.0
  0
LINE
  5
24C3
  8
0
 10
57.707874178409853
 20
14.554918594650299
 30
0.0
 11
57.707874178409853
 21
15.056733640229121
 31
0.0
  0
LINE
  5
24C4
  8
0
 10
57.587874178409848
 20
14.64824812445592
 30
0.0
 11
57.587874178409841
 21
15.056733640229121
 31
0.0
  0
LINE
  5
24C5
  8
0
 10
57.788008445450707
 20
14.49259448244827
 30
0.0
 11
57.507739911368994
 21
14.710572236657949
 31
0.0
  0
LINE
  5
24C6
  8
0
 10
57.63095911611493
 20
15.056733640229121
 30
0.0
 11
57.63095911611493
 21
15.556733640229121
 31
0.0
  0
LINE
  5
24C7
  8
0
 10
57.63095911611493
 20
15.556733640229121
 30
0.0
 11
57.664789240704749
 21
15.556733640229121
 31
0.0
  0
LINE
  5
24C8
  8
0
 10
57.664789240704749
 20
15.556733640229121
 30
0.0
 11
57.664789240704749
 21
15.056733640229121
 31
0.0
  0
LINE
  5
24C9
  8
0
 10
48.645669706163417
 20
13.893173353765819
 30
0.0
 11
48.52566970616342
 21
13.893173353765819
 31
0.0
  0
LINE
  5
24CA
  8
0
 10
48.52566970616342
 20
14.54424506951589
 30
0.0
 11
48.52566970616342
 21
13.893173353765819
 31
0.0
  0
LINE
  5
24CB
  8
0
 10
48.645669706163432
 20
14.45091553971025
 30
0.0
 11
48.645669706163417
 21
13.893173353765819
 31
0.0
  0
LINE
  5
24CC
  8
0
 10
48.445535439122558
 20
14.60656918171791
 30
0.0
 11
48.725803973204293
 21
14.38859142750823
 31
0.0
  0
LINE
  5
24CD
  8
0
 10
48.52566970616342
 20
15.056733640229121
 30
0.0
 11
48.645669706163417
 21
15.056733640229121
 31
0.0
  0
LINE
  5
24CE
  8
0
 10
48.645669706163417
 20
14.55491859465031
 30
0.0
 11
48.645669706163417
 21
15.056733640229121
 31
0.0
  0
LINE
  5
24CF
  8
0
 10
48.525669706163427
 20
14.648248124455931
 30
0.0
 11
48.52566970616342
 21
15.056733640229121
 31
0.0
  0
LINE
  5
24D0
  8
0
 10
48.725803973204293
 20
14.492594482448281
 30
0.0
 11
48.445535439122558
 21
14.71057223665796
 31
0.0
  0
LINE
  5
24D1
  8
0
 10
48.568754643868509
 20
15.05673364022913
 30
0.0
 11
48.568754643868509
 21
15.55673364022913
 31
0.0
  0
LINE
  5
24D2
  8
0
 10
48.568754643868509
 20
15.55673364022913
 30
0.0
 11
48.602584768458321
 21
15.55673364022913
 31
0.0
  0
LINE
  5
24D3
  8
0
 10
48.602584768458321
 20
15.55673364022913
 30
0.0
 11
48.602584768458321
 21
15.05673364022913
 31
0.0
  0
LINE
  5
24D4
  8
0
 10
49.445669706163407
 20
13.893173353765819
 30
0.0
 11
49.325669706163403
 21
13.893173353765819
 31
0.0
  0
LINE
  5
24D5
  8
0
 10
49.325669706163403
 20
14.54424506951589
 30
0.0
 11
49.325669706163403
 21
13.893173353765819
 31
0.0
  0
LINE
  5
24D6
  8
0
 10
49.445669706163407
 20
14.45091553971025
 30
0.0
 11
49.445669706163407
 21
13.893173353765819
 31
0.0
  0
LINE
  5
24D7
  8
0
 10
49.245535439122541
 20
14.60656918171791
 30
0.0
 11
49.525803973204269
 21
14.38859142750823
 31
0.0
  0
LINE
  5
24D8
  8
0
 10
49.325669706163403
 20
15.056733640229121
 30
0.0
 11
49.445669706163407
 21
15.056733640229121
 31
0.0
  0
LINE
  5
24D9
  8
0
 10
49.445669706163407
 20
14.55491859465031
 30
0.0
 11
49.445669706163407
 21
15.056733640229121
 31
0.0
  0
LINE
  5
24DA
  8
0
 10
49.32566970616341
 20
14.648248124455931
 30
0.0
 11
49.325669706163403
 21
15.056733640229121
 31
0.0
  0
LINE
  5
24DB
  8
0
 10
49.525803973204269
 20
14.492594482448281
 30
0.0
 11
49.245535439122541
 21
14.71057223665796
 31
0.0
  0
LINE
  5
24DC
  8
0
 10
49.368754643868492
 20
15.05673364022913
 30
0.0
 11
49.368754643868492
 21
15.55673364022913
 31
0.0
  0
LINE
  5
24DD
  8
0
 10
49.368754643868492
 20
15.55673364022913
 30
0.0
 11
49.402584768458297
 21
15.55673364022913
 31
0.0
  0
LINE
  5
24DE
  8
0
 10
49.402584768458297
 20
15.55673364022913
 30
0.0
 11
49.402584768458297
 21
15.05673364022913
 31
0.0
  0
INSERT
  5
26A6
  8
DIMENSIONS
  2
*U166
 10
0.0
 20
0.0
 30
0.0
  0
INSERT
  5
26B3
  8
DIMENSIONS
  2
*U167
 10
0.0
 20
0.0
 30
0.0
  0
INSERT
  5
26C0
  8
DIMENSIONS
  2
*U168
 10
0.0
 20
0.0
 30
0.0
  0
INSERT
  5
285B
  8
DIMENSIONS
  2
*U194
 10
0.0
 20
0.0
 30
0.0
1001
ACAD
1000
DSTYLE
1002
{
1070
   147
1040
0.09
1070
    77
1070
     0
1002
}
  0
INSERT
  5
285C
  8
DIMENSIONS
  2
*U195
 10
0.0
 20
0.0
 30
0.0
  0
DIMENSION
  5
285D
  8
DIMENSIONS
  2
*D43
 10
53.911072969236329
 20
19.29458896000596
 30
0.0
 11
52.711072969236341
 21
19.29458896000596
 31
0.0
 70
     0
 13
51.511072969236331
 23
18.109734666833671
 33
0.0
 14
53.911072969236329
 24
18.109734666833671
 34
0.0
  0
ENDSEC
  0
EOF
