  0
SECTION
  2
HEADER
  9
$ACADVER
  1
AC1009
  9
$INSBASE
 10
0.0
 20
0.0
 30
0.0
  9
$EXTMIN
 10
-3.354328066236163
 20
12.67150224601539
 30
-0.0015258207003583
  9
$EXTMAX
 10
30.647747129078748
 20
34.686030988581223
 30
0.0000000349246037
  9
$LIMMIN
 10
0.0
 20
0.0
  9
$LIMMAX
 10
12.0
 20
9.0
  9
$ORTHOMODE
 70
     1
  9
$REGENMODE
 70
     1
  9
$FILLMODE
 70
     1
  9
$QTEXTMODE
 70
     0
  9
$MIRRTEXT
 70
     0
  9
$DRAGMODE
 70
     2
  9
$LTSCALE
 40
1.0
  9
$OSMODE
 70
    39
  9
$ATTMODE
 70
     1
  9
$TEXTSIZE
 40
1.0
  9
$TRACEWID
 40
0.05
  9
$TEXTSTYLE
  7
STANDARD
  9
$CLAYER
  8
DIMENSIONS
  9
$CELTYPE
  6
BYLAYER
  9
$CECOLOR
 62
   256
  9
$DIMSCALE
 40
1.0
  9
$DIMASZ
 40
0.125
  9
$DIMEXO
 40
0.0625
  9
$DIMDLI
 40
0.38
  9
$DIMRND
 40
0.0
  9
$DIMDLE
 40
0.0
  9
$DIMEXE
 40
0.18
  9
$DIMTP
 40
0.0
  9
$DIMTM
 40
0.0
  9
$DIMTXT
 40
0.125
  9
$DIMCEN
 40
0.09
  9
$DIMTSZ
 40
0.0
  9
$DIMTOL
 70
     0
  9
$DIMLIM
 70
     0
  9
$DIMTIH
 70
     1
  9
$DIMTOH
 70
     1
  9
$DIMSE1
 70
     0
  9
$DIMSE2
 70
     0
  9
$DIMTAD
 70
     0
  9
$DIMZIN
 70
     0
  9
$DIMBLK
  1

  9
$DIMASO
 70
     1
  9
$DIMSHO
 70
     1
  9
$DIMPOST
  1

  9
$DIMAPOST
  1

  9
$DIMALT
 70
     1
  9
$DIMALTD
 70
     2
  9
$DIMALTF
 40
25.399999999999999
  9
$DIMLFAC
 40
1.0
  9
$DIMTOFL
 70
     0
  9
$DIMTVP
 40
0.0
  9
$DIMTIX
 70
     0
  9
$DIMSOXD
 70
     0
  9
$DIMSAH
 70
     0
  9
$DIMBLK1
  1

  9
$DIMBLK2
  1

  9
$DIMSTYLE
  2
STANDARD
  9
$DIMCLRD
 70
     0
  9
$DIMCLRE
 70
     0
  9
$DIMCLRT
 70
     0
  9
$DIMTFAC
 40
1.0
  9
$DIMGAP
 40
0.09
  9
$LUNITS
 70
     2
  9
$LUPREC
 70
     4
  9
$SKETCHINC
 40
0.1
  9
$FILLETRAD
 40
0.28
  9
$AUNITS
 70
     0
  9
$AUPREC
 70
     0
  9
$MENU
  1
.
  9
$ELEVATION
 40
0.0
  9
$PELEVATION
 40
0.0
  9
$THICKNESS
 40
0.0
  9
$LIMCHECK
 70
     0
  9
$BLIPMODE
 70
     0
  9
$CHAMFERA
 40
0.0
  9
$CHAMFERB
 40
0.0
  9
$SKPOLY
 70
     0
  9
$TDCREATE
 40
2455580.4643647461
  9
$TDUPDATE
 40
2456822.3731324659
  9
$TDINDWG
 40
0.3847342824
  9
$TDUSRTIMER
 40
0.3847342824
  9
$USRTIMER
 70
     1
  9
$ANGBASE
 50
0.0
  9
$ANGDIR
 70
     0
  9
$PDMODE
 70
     0
  9
$PDSIZE
 40
0.0
  9
$PLINEWID
 40
0.0
  9
$COORDS
 70
     1
  9
$SPLFRAME
 70
     0
  9
$SPLINETYPE
 70
     6
  9
$SPLINESEGS
 70
     8
  9
$ATTDIA
 70
     0
  9
$ATTREQ
 70
     1
  9
$HANDLING
 70
     1
  9
$HANDSEED
  5
36FB
  9
$SURFTAB1
 70
     6
  9
$SURFTAB2
 70
     6
  9
$SURFTYPE
 70
     6
  9
$SURFU
 70
     6
  9
$SURFV
 70
     6
  9
$UCSNAME
  2

  9
$UCSORG
 10
0.0
 20
0.0
 30
0.0
  9
$UCSXDIR
 10
1.0
 20
0.0
 30
0.0
  9
$UCSYDIR
 10
0.0
 20
1.0
 30
0.0
  9
$PUCSNAME
  2

  9
$PUCSORG
 10
0.0
 20
0.0
 30
0.0
  9
$PUCSXDIR
 10
1.0
 20
0.0
 30
0.0
  9
$PUCSYDIR
 10
0.0
 20
1.0
 30
0.0
  9
$USERI1
 70
     0
  9
$USERI2
 70
     0
  9
$USERI3
 70
     0
  9
$USERI4
 70
     0
  9
$USERI5
 70
     0
  9
$USERR1
 40
0.0
  9
$USERR2
 40
0.0
  9
$USERR3
 40
0.0
  9
$USERR4
 40
0.0
  9
$USERR5
 40
0.0
  9
$WORLDVIEW
 70
     1
  9
$SHADEDGE
 70
     3
  9
$SHADEDIF
 70
    70
  9
$TILEMODE
 70
     1
  9
$MAXACTVP
 70
    64
  9
$PLIMCHECK
 70
     0
  9
$PEXTMIN
 10
0.0
 20
0.0
 30
0.0
  9
$PEXTMAX
 10
0.0
 20
0.0
 30
0.0
  9
$PLIMMIN
 10
0.0
 20
0.0
  9
$PLIMMAX
 10
12.0
 20
9.0
  9
$UNITMODE
 70
     0
  9
$VISRETAIN
 70
     1
  9
$PLINEGEN
 70
     0
  9
$PSLTSCALE
 70
     1
  0
ENDSEC
  0
SECTION
  2
TABLES
  0
TABLE
  2
VPORT
 70
     1
  0
VPORT
  2
*ACTIVE
 70
     0
 10
0.0
 20
0.0
 11
1.0
 21
1.0
 12
14.3884770977222
 22
24.574989114265691
 13
0.0
 23
0.0
 14
0.5
 24
0.5
 15
0.5
 25
0.5
 16
0.0
 26
0.0
 36
1.0
 17
0.0
 27
0.0
 37
0.0
 40
21.819367110666992
 41
2.2000000000000002
 42
50.0
 43
0.0
 44
0.0
 50
0.0
 51
0.0
 71
     0
 72
  1000
 73
     1
 74
     2
 75
     0
 76
     0
 77
     0
 78
     0
  0
ENDTAB
  0
TABLE
  2
LTYPE
 70
     2
  0
LTYPE
  2
CONTINUOUS
 70
     0
  3
Solid line
 72
    65
 73
     0
 40
0.0
  0
LTYPE
  2
PHANTOM2
 70
     0
  3
___ _ _ ___ _ _ ___ _ _ ___ _ _
 72
    65
 73
     6
 40
1.25
 49
0.625
 49
-0.125
 49
0.125
 49
-0.125
 49
0.125
 49
-0.125
  0
ENDTAB
  0
TABLE
  2
LAYER
 70
    14
  0
LAYER
  2
0
 70
     0
 62
     7
  6
CONTINUOUS
  0
LAYER
  2
FRAME
 70
     0
 62
     7
  6
CONTINUOUS
  0
LAYER
  2
FRAME_TEXT
 70
     0
 62
     1
  6
CONTINUOUS
  0
LAYER
  2
DEFPOINTS
 70
     0
 62
     7
  6
CONTINUOUS
  0
LAYER
  2
DIMENSIONS
 70
     0
 62
     1
  6
CONTINUOUS
  0
LAYER
  2
CONVERTER
 70
     0
 62
     7
  6
CONTINUOUS
  0
LAYER
  2
GRID
 70
     0
 62
     7
  6
CONTINUOUS
  0
LAYER
  2
PINOUT
 70
     0
 62
     1
  6
CONTINUOUS
  0
LAYER
  2
HEATSINK
 70
     0
 62
     6
  6
CONTINUOUS
  0
LAYER
  2
TERMINAL_BLOCKS
 70
     0
 62
     3
  6
CONTINUOUS
  0
LAYER
  2
TERMINALS
 70
     0
 62
     3
  6
CONTINUOUS
  0
LAYER
  2
CONSTRUCTION
 70
     0
 62
   141
  6
CONTINUOUS
  0
LAYER
  2
INTERNAL_LAYER
 70
     0
 62
     6
  6
CONTINUOUS
  0
LAYER
  2
TOPSILK
 70
     0
 62
     7
  6
CONTINUOUS
  0
ENDTAB
  0
TABLE
  2
STYLE
 70
     2
  0
STYLE
  2
STANDARD
 70
     0
 40
0.0
 41
1.0
 50
0.0
 71
     0
 42
1.0
  3
txt
  4

  0
ENDTAB
  0
TABLE
  2
VIEW
 70
     0
  0
ENDTAB
  0
TABLE
  2
UCS
 70
     0
  0
ENDTAB
  0
TABLE
  2
APPID
 70
    10
  0
APPID
  2
ACAD
 70
     0
  0
APPID
  2
DCO15
 70
     0
  0
APPID
  2
ACAECLAYERSTANDARD
 70
     0
  0
APPID
  2
ACCMTRANSPARENCY
 70
     0
  0
APPID
  2
ACAD_NAV_VCDISPLAY
 70
     0
  0
APPID
  2
ACAD_EXEMPT_FROM_CAD_STANDARDS
 70
     0
  0
APPID
  2
ACADANNOMONITORALERTICONDI
 70
     0
  0
APPID
  2
ACAD_DSTYLE_DIMJAG
 70
     0
  0
APPID
  2
ACAD_DSTYLE_DIMTALN
 70
     0
  0
APPID
  2
ACAD_MLEADERVER
 70
     0
  0
ENDTAB
  0
TABLE
  2
DIMSTYLE
 70
     2
  0
DIMSTYLE
  2
STANDARD
 70
     0
  3

  4

  5

  6

  7

 40
1.0
 41
0.125
 42
0.0625
 43
0.38
 44
0.18
 45
0.0
 46
0.0
 47
0.0
 48
0.0
140
0.125
141
0.09
142
0.0
143
25.399999999999999
144
1.0
145
0.0
146
1.0
147
0.09
 71
     0
 72
     0
 73
     1
 74
     1
 75
     0
 76
     0
 77
     0
 78
     0
170
     1
171
     2
172
     0
173
     0
174
     0
175
     0
176
     0
177
     0
178
     0
  0
ENDTAB
  0
ENDSEC
  0
SECTION
  2
BLOCKS
  0
BLOCK
  8
0
  2
$MODEL_SPACE
 70
     0
 10
0.0
 20
0.0
 30
0.0
  3
$MODEL_SPACE
  1

  0
ENDBLK
  5
21
  8
0
  0
BLOCK
 67
     1
  8
0
  2
$PAPER_SPACE
 70
     0
 10
0.0
 20
0.0
 30
0.0
  3
$PAPER_SPACE
  1

  0
ENDBLK
  5
5B
 67
     1
  8
0
  0
BLOCK
  8
0
  2
A$C22C92D23
 70
     0
 10
0.0
 20
0.0
 30
0.0
  3
A$C22C92D23
  1

  0
TEXT
  5
117
  8
FRAME_TEXT
 10
-0.0000000000000284
 20
0.0416666867809426
 30
0.0
 40
0.125
  1
Dimensional Drawing
  0
ENDBLK
  5
119
  8
0
  0
BLOCK
  8
0
  2
A$C5BC8728C
 70
     0
 10
0.0
 20
0.0
 30
0.0
  3
A$C5BC8728C
  1

  0
TEXT
  5
5E9
  8
FRAME_TEXT
 10
-0.0000000086647987
 20
-0.0000000014337491
 30
0.0
 40
0.05
  1
CDL    03/05
  0
ENDBLK
  5
5EB
  8
0
  0
BLOCK
  8
0
  2
A$C62316909
 70
     0
 10
0.0
 20
0.0
 30
0.0
  3
A$C62316909
  1

  0
INSERT
  5
60E
  8
DIMENSIONS
  2
*U44
 10
0.0
 20
0.0
 30
0.0
  0
ENDBLK
  5
610
  8
0
  0
BLOCK
  8
0
  2
*D4
 70
     1
 10
0.0
 20
0.0
 30
0.0
  3
*D4
  1

  0
LINE
  5
3450
  8
DIMENSIONS
 62
     0
 10
7.8824865752722877
 20
26.206154771200861
 30
0.0
 11
8.8459673267331027
 21
26.206154771200861
 31
0.0
  0
LINE
  5
3451
  8
DIMENSIONS
 62
     0
 10
7.2824865752722872
 20
26.831154771200861
 30
0.0
 11
8.8459673267331027
 21
26.831154771200861
 31
0.0
  0
LINE
  5
3452
  8
DIMENSIONS
 62
     0
 10
8.6659673267331012
 20
26.331154771200861
 30
0.0
 11
8.6659673267331012
 21
26.706154771200861
 31
0.0
  0
LINE
  5
3453
  8
DIMENSIONS
 62
     0
 10
8.7909673267331012
 20
25.99551824142107
 30
0.0
 11
8.6659673267331012
 21
25.99551824142107
 31
0.0
  0
LINE
  5
3454
  8
DIMENSIONS
 62
     0
 10
8.6659673267331012
 20
25.99551824142107
 30
0.0
 11
8.6659673267331012
 21
26.206154771200861
 31
0.0
  0
TEXT
  8
DIMENSIONS
  40
0.125
  5
36EB
  62
0
  72
0
  71
0
 10
9.11993
 20
25.7743
 30
0.000000
  1
0.625 [15.88]
  0
SOLID
  5
3456
  8
DIMENSIONS
 62
     0
 10
8.6451339933997691
 20
26.331154771200861
 30
0.0
 11
8.6868006600664351
 21
26.331154771200861
 31
0.0
 12
8.6659673267331012
 22
26.206154771200861
 32
0.0
 13
8.6659673267331012
 23
26.206154771200861
 33
0.0
  0
SOLID
  5
3457
  8
DIMENSIONS
 62
     0
 10
8.6451339933997691
 20
26.706154771200861
 30
0.0
 11
8.6868006600664351
 21
26.706154771200861
 31
0.0
 12
8.6659673267331012
 22
26.831154771200861
 32
0.0
 13
8.6659673267331012
 23
26.831154771200861
 33
0.0
  0
POINT
  5
3458
  8
DEFPOINTS
 62
     0
 10
7.8199865752722877
 20
26.206154771200861
 30
0.0
  0
POINT
  5
3459
  8
DEFPOINTS
 62
     0
 10
7.2199865752722872
 20
26.831154771200861
 30
0.0
  0
POINT
  5
345A
  8
DEFPOINTS
 62
     0
 10
8.6659673267331012
 20
26.831154771200861
 30
0.0
  0
ENDBLK
  5
111A
  8
0
  0
BLOCK
  8
0
  2
*D5
 70
     1
 10
0.0
 20
0.0
 30
0.0
  3
*D5
  1

  0
LINE
  5
345B
  8
DIMENSIONS
 62
     0
 10
7.6024865752722883
 20
26.206154771200868
 30
0.0
 11
8.3257949262640665
 21
26.206154771200861
 31
0.0
  0
LINE
  5
345C
  8
DIMENSIONS
 62
     0
 10
7.2824865752722872
 20
26.456154771200868
 30
0.0
 11
8.3257949262640665
 21
26.456154771200861
 31
0.0
  0
LINE
  5
345D
  8
DIMENSIONS
 62
     0
 10
8.1457949262640668
 20
26.081154771200868
 30
0.0
 11
8.1457949262640668
 21
25.956154771200868
 31
0.0
  0
LINE
  5
345E
  8
DIMENSIONS
 62
     0
 10
8.1457949262640668
 20
26.581154771200861
 30
0.0
 11
8.1457949262640668
 21
26.706154771200861
 31
0.0
  0
LINE
  5
345F
  8
DIMENSIONS
 62
     0
 10
8.2707949262640668
 20
25.647250791825261
 30
0.0
 11
8.1457949262640668
 21
25.647250791825261
 31
0.0
  0
LINE
  5
3460
  8
DIMENSIONS
 62
     0
 10
8.1457949262640668
 20
25.647250791825261
 30
0.0
 11
8.1457949262640668
 21
25.956154771200868
 31
0.0
  0
TEXT
  8
DIMENSIONS
  40
0.125
  5
36EC
  62
0
  72
0
  71
0
 10
8.55361
 20
25.4260
 30
0.000000
  1
0.250 [6.35]
  0
SOLID
  5
3462
  8
DIMENSIONS
 62
     0
 10
8.1249615929307328
 20
26.081154771200868
 30
0.0
 11
8.1666282595974007
 21
26.081154771200868
 31
0.0
 12
8.1457949262640668
 22
26.206154771200861
 32
0.0
 13
8.1457949262640668
 23
26.206154771200861
 33
0.0
  0
SOLID
  5
3463
  8
DIMENSIONS
 62
     0
 10
8.1249615929307328
 20
26.581154771200861
 30
0.0
 11
8.1666282595974007
 21
26.581154771200861
 31
0.0
 12
8.1457949262640668
 22
26.456154771200861
 32
0.0
 13
8.1457949262640668
 23
26.456154771200861
 33
0.0
  0
POINT
  5
3464
  8
DEFPOINTS
 62
     0
 10
7.5399865752722883
 20
26.206154771200868
 30
0.0
  0
POINT
  5
3465
  8
DEFPOINTS
 62
     0
 10
7.2199865752722872
 20
26.456154771200868
 30
0.0
  0
POINT
  5
3466
  8
DEFPOINTS
 62
     0
 10
8.1457949262640668
 20
26.456154771200861
 30
0.0
  0
ENDBLK
  5
1129
  8
0
  0
BLOCK
  8
0
  2
*D6
 70
     1
 10
0.0
 20
0.0
 30
0.0
  3
*D6
  1

  0
LINE
  5
3467
  8
DIMENSIONS
 62
     0
 10
7.8824865752722877
 20
29.706154771200868
 30
0.0
 11
8.3010999507914605
 21
29.706154771200861
 31
0.0
  0
LINE
  5
3468
  8
DIMENSIONS
 62
     0
 10
7.2824865752722872
 20
29.456154771200868
 30
0.0
 11
8.3010999507914605
 21
29.456154771200861
 31
0.0
  0
LINE
  5
3469
  8
DIMENSIONS
 62
     0
 10
8.1210999507914607
 20
29.831154771200861
 30
0.0
 11
8.1210999507914607
 21
29.956154771200861
 31
0.0
  0
LINE
  5
346A
  8
DIMENSIONS
 62
     0
 10
8.1210999507914607
 20
29.331154771200861
 30
0.0
 11
8.1210999507914607
 21
29.206154771200861
 31
0.0
  0
LINE
  5
346B
  8
DIMENSIONS
 62
     0
 10
8.2460999507914607
 20
30.38180570876839
 30
0.0
 11
8.1210999507914607
 21
30.38180570876839
 31
0.0
  0
LINE
  5
346C
  8
DIMENSIONS
 62
     0
 10
8.1210999507914607
 20
30.38180570876839
 30
0.0
 11
8.1210999507914607
 21
29.956154771200861
 31
0.0
  0
TEXT
  8
DIMENSIONS
  40
0.125
  5
36ED
  62
0
  72
0
  71
0
 10
8.52892
 20
30.1606
 30
0.000000
  1
0.250 [6.35]
  0
SOLID
  5
346E
  8
DIMENSIONS
 62
     0
 10
8.1002666174581268
 20
29.831154771200861
 30
0.0
 11
8.1419332841247947
 21
29.831154771200861
 31
0.0
 12
8.1210999507914607
 22
29.706154771200861
 32
0.0
 13
8.1210999507914607
 23
29.706154771200861
 33
0.0
  0
SOLID
  5
346F
  8
DIMENSIONS
 62
     0
 10
8.1002666174581268
 20
29.331154771200861
 30
0.0
 11
8.1419332841247947
 21
29.331154771200861
 31
0.0
 12
8.1210999507914607
 22
29.456154771200861
 32
0.0
 13
8.1210999507914607
 23
29.456154771200861
 33
0.0
  0
POINT
  5
3470
  8
DEFPOINTS
 62
     0
 10
7.8199865752722877
 20
29.706154771200868
 30
0.0
  0
POINT
  5
3471
  8
DEFPOINTS
 62
     0
 10
7.2199865752722872
 20
29.456154771200868
 30
0.0
  0
POINT
  5
3472
  8
DEFPOINTS
 62
     0
 10
8.1210999507914607
 20
29.456154771200861
 30
0.0
  0
ENDBLK
  5
1138
  8
0
  0
BLOCK
  8
0
  2
*D7
 70
     1
 10
0.0
 20
0.0
 30
0.0
  3
*D7
  1

  0
LINE
  5
3473
  8
DIMENSIONS
 62
     0
 10
7.6024865752722883
 20
29.706154771200868
 30
0.0
 11
8.8417414190655776
 21
29.706154771200861
 31
0.0
  0
LINE
  5
3474
  8
DIMENSIONS
 62
     0
 10
7.2824865752722872
 20
29.081154771200868
 30
0.0
 11
8.8417414190655776
 21
29.081154771200861
 31
0.0
  0
LINE
  5
3475
  8
DIMENSIONS
 62
     0
 10
8.6617414190655762
 20
29.581154771200861
 30
0.0
 11
8.6617414190655762
 21
29.206154771200861
 31
0.0
  0
LINE
  5
3476
  8
DIMENSIONS
 62
     0
 10
8.7867414190655762
 20
30.075624212399259
 30
0.0
 11
8.6617414190655762
 21
30.075624212399259
 31
0.0
  0
LINE
  5
3477
  8
DIMENSIONS
 62
     0
 10
8.6617414190655762
 20
30.075624212399259
 30
0.0
 11
8.6617414190655762
 21
29.706154771200861
 31
0.0
  0
TEXT
  8
DIMENSIONS
  40
0.125
  5
36EE
  62
0
  72
0
  71
0
 10
9.11570
 20
29.8544
 30
0.000000
  1
0.625 [15.88]
  0
SOLID
  5
3479
  8
DIMENSIONS
 62
     0
 10
8.640908085732244
 20
29.581154771200861
 30
0.0
 11
8.6825747523989119
 21
29.581154771200861
 31
0.0
 12
8.6617414190655762
 22
29.706154771200861
 32
0.0
 13
8.6617414190655762
 23
29.706154771200861
 33
0.0
  0
SOLID
  5
347A
  8
DIMENSIONS
 62
     0
 10
8.640908085732244
 20
29.206154771200861
 30
0.0
 11
8.6825747523989119
 21
29.206154771200861
 31
0.0
 12
8.6617414190655762
 22
29.081154771200861
 32
0.0
 13
8.6617414190655762
 23
29.081154771200861
 33
0.0
  0
POINT
  5
347B
  8
DEFPOINTS
 62
     0
 10
7.5399865752722883
 20
29.706154771200868
 30
0.0
  0
POINT
  5
347C
  8
DEFPOINTS
 62
     0
 10
7.2199865752722872
 20
29.081154771200868
 30
0.0
  0
POINT
  5
347D
  8
DEFPOINTS
 62
     0
 10
8.6617414190655762
 20
29.081154771200861
 30
0.0
  0
ENDBLK
  5
1146
  8
0
  0
BLOCK
  8
0
  2
*D8
 70
     1
 10
0.0
 20
0.0
 30
0.0
  3
*D8
  1

  0
LINE
  5
347E
  8
DIMENSIONS
 62
     0
 10
7.2824865752722872
 20
29.081154771200868
 30
0.0
 11
8.8417414190655794
 21
29.081154771200861
 31
0.0
  0
LINE
  5
347F
  8
DIMENSIONS
 62
     0
 10
7.2824865752722872
 20
26.831154771200861
 30
0.0
 11
8.8417414190655776
 21
26.831154771200861
 31
0.0
  0
LINE
  5
3480
  8
DIMENSIONS
 62
     0
 10
8.6617414190655797
 20
28.956154771200861
 30
0.0
 11
8.6617414190655797
 21
28.788954494021851
 31
0.0
  0
LINE
  5
3481
  8
DIMENSIONS
 62
     0
 10
8.6617414190655762
 20
26.956154771200861
 30
0.0
 11
8.6617414190655762
 21
27.193038848744269
 31
0.0
  0
TEXT
  8
DIMENSIONS
  40
0.125
  5
36EF
  62
0
  72
0
  71
0
 10
8.41174
 20
27.7697
 30
0.000000
  1
6 plc. 0.375" [9.53]
  0
SOLID
  5
3483
  8
DIMENSIONS
 62
     0
 10
8.6409080857322458
 20
28.956154771200861
 30
0.0
 11
8.6825747523989136
 21
28.956154771200861
 31
0.0
 12
8.6617414190655797
 22
29.081154771200861
 32
0.0
 13
8.6617414190655797
 23
29.081154771200861
 33
0.0
  0
SOLID
  5
3484
  8
DIMENSIONS
 62
     0
 10
8.640908085732244
 20
26.956154771200861
 30
0.0
 11
8.6825747523989119
 21
26.956154771200861
 31
0.0
 12
8.6617414190655762
 22
26.831154771200861
 32
0.0
 13
8.6617414190655762
 23
26.831154771200861
 33
0.0
  0
POINT
  5
3485
  8
DEFPOINTS
 62
     0
 10
7.2199865752722872
 20
29.081154771200868
 30
0.0
  0
POINT
  5
3486
  8
DEFPOINTS
 62
     0
 10
7.2199865752722872
 20
26.831154771200861
 30
0.0
  0
POINT
  5
3487
  8
DEFPOINTS
 62
     0
 10
8.6617414190655762
 20
26.831154771200861
 30
0.0
  0
ENDBLK
  5
1152
  8
0
  0
BLOCK
  8
0
  2
*D9
 70
     1
 10
0.0
 20
0.0
 30
0.0
  3
*D9
  1

  0
LINE
  5
3488
  8
DIMENSIONS
 62
     0
 10
2.2574865752722881
 20
29.706154771200868
 30
0.0
 11
1.432552946197851
 21
29.706154771200868
 31
0.0
  0
LINE
  5
3489
  8
DIMENSIONS
 62
     0
 10
2.557486575272292
 20
28.706154771200861
 30
0.0
 11
1.432552946197851
 21
28.706154771200861
 31
0.0
  0
LINE
  5
348A
  8
DIMENSIONS
 62
     0
 10
1.6125529461978509
 20
29.581154771200868
 30
0.0
 11
1.6125529461978509
 21
29.370449361392481
 31
0.0
  0
LINE
  5
348B
  8
DIMENSIONS
 62
     0
 10
1.6125529461978509
 20
28.831154771200868
 30
0.0
 11
1.6125529461978509
 21
29.02876947674936
 31
0.0
  0
TEXT
  8
DIMENSIONS
  40
0.125
  5
36F0
  62
0
  72
0
  71
0
 10
1.16182
 20
28.9784
 30
0.000000
  1
1.000 [25.40]
  0
SOLID
  5
348D
  8
DIMENSIONS
 62
     0
 10
1.5917196128645179
 20
29.581154771200868
 30
0.0
 11
1.6333862795311851
 21
29.581154771200868
 31
0.0
 12
1.6125529461978509
 22
29.706154771200868
 32
0.0
 13
1.6125529461978509
 23
29.706154771200868
 33
0.0
  0
SOLID
  5
348E
  8
DIMENSIONS
 62
     0
 10
1.5917196128645179
 20
28.831154771200868
 30
0.0
 11
1.633386279531184
 21
28.831154771200868
 31
0.0
 12
1.6125529461978509
 22
28.706154771200861
 32
0.0
 13
1.6125529461978509
 23
28.706154771200861
 33
0.0
  0
POINT
  5
348F
  8
DEFPOINTS
 62
     0
 10
2.3199865752722881
 20
29.706154771200868
 30
0.0
  0
POINT
  5
3490
  8
DEFPOINTS
 62
     0
 10
2.619986575272292
 20
28.706154771200861
 30
0.0
  0
POINT
  5
3491
  8
DEFPOINTS
 62
     0
 10
1.6125529461978509
 20
28.706154771200861
 30
0.0
  0
ENDBLK
  5
115F
  8
0
  0
BLOCK
  8
0
  2
*D10
 70
     1
 10
0.0
 20
0.0
 30
0.0
  3
*D10
  1

  0
LINE
  5
34A0
  8
DIMENSIONS
 62
     0
 10
2.557486575272292
 20
26.831154771200861
 30
0.0
 11
1.4352459551725321
 21
26.831154771200861
 31
0.0
  0
LINE
  5
34A1
  8
DIMENSIONS
 62
     0
 10
2.557486575272292
 20
28.706154771200861
 30
0.0
 11
1.4352459551725321
 21
28.706154771200861
 31
0.0
  0
LINE
  5
34A2
  8
DIMENSIONS
 62
     0
 10
1.615245955172532
 20
26.956154771200868
 30
0.0
 11
1.615245955172532
 21
26.971147561395529
 31
0.0
  0
LINE
  5
34A3
  8
DIMENSIONS
 62
     0
 10
1.615245955172532
 20
28.581154771200868
 30
0.0
 11
1.615245955172532
 21
28.5661619810062
 31
0.0
  0
TEXT
  8
DIMENSIONS
  40
0.125
  5
36F1
  62
0
  72
0
  71
0
 10
1.36525
 20
27.5474
 30
0.000000
  1
5 plc. 0.375" [9.53]
  0
SOLID
  5
34A5
  8
DIMENSIONS
 62
     0
 10
1.594412621839199
 20
26.956154771200868
 30
0.0
 11
1.636079288505865
 21
26.956154771200868
 31
0.0
 12
1.615245955172532
 22
26.831154771200861
 32
0.0
 13
1.615245955172532
 23
26.831154771200861
 33
0.0
  0
SOLID
  5
34A6
  8
DIMENSIONS
 62
     0
 10
1.594412621839199
 20
28.581154771200868
 30
0.0
 11
1.6360792885058659
 21
28.581154771200868
 31
0.0
 12
1.615245955172532
 22
28.706154771200861
 32
0.0
 13
1.615245955172532
 23
28.706154771200861
 33
0.0
  0
POINT
  5
34A7
  8
DEFPOINTS
 62
     0
 10
2.619986575272292
 20
26.831154771200861
 30
0.0
  0
POINT
  5
34A8
  8
DEFPOINTS
 62
     0
 10
2.619986575272292
 20
28.706154771200861
 30
0.0
  0
POINT
  5
34A9
  8
DEFPOINTS
 62
     0
 10
1.615245955172532
 20
28.706154771200861
 30
0.0
  0
ENDBLK
  5
116B
  8
0
  0
BLOCK
  8
0
  2
*D11
 70
     1
 10
0.0
 20
0.0
 30
0.0
  3
*D11
  1

  0
LINE
  5
3122
  8
DIMENSIONS
 62
     0
 10
2.3199865752722881
 20
29.768654771200868
 30
0.0
 11
2.3199865752722881
 21
30.3057403031635
 31
0.0
  0
LINE
  5
3123
  8
DIMENSIONS
 62
     0
 10
2.9199865752722891
 20
29.518654771200868
 30
0.0
 11
2.9199865752722891
 21
30.3057403031635
 31
0.0
  0
LINE
  5
3124
  8
DIMENSIONS
 62
     0
 10
2.4449865752722881
 20
30.1257403031635
 30
0.0
 11
2.7949865752722891
 21
30.1257403031635
 31
0.0
  0
LINE
  5
3125
  8
DIMENSIONS
 62
     0
 10
2.9199865752722891
 20
30.1257403031635
 30
0.0
 11
3.0449865752722891
 21
30.1257403031635
 31
0.0
  0
SOLID
  5
3126
  8
DIMENSIONS
 62
     0
 10
2.4449865752722881
 20
30.146573636496829
 30
0.0
 11
2.4449865752722881
 21
30.104906969830161
 31
0.0
 12
2.3199865752722881
 22
30.1257403031635
 32
0.0
 13
2.3199865752722881
 23
30.1257403031635
 33
0.0
  0
SOLID
  5
3127
  8
DIMENSIONS
 62
     0
 10
2.7949865752722891
 20
30.146573636496829
 30
0.0
 11
2.7949865752722891
 21
30.104906969830161
 31
0.0
 12
2.9199865752722891
 22
30.1257403031635
 32
0.0
 13
2.9199865752722891
 23
30.1257403031635
 33
0.0
  0
INSERT
  5
3128
  8
DIMENSIONS
  2
*U114
 10
0.0
 20
0.0
 30
0.0
  0
POINT
  5
3129
  8
DEFPOINTS
 62
     0
 10
2.3199865752722881
 20
29.706154771200868
 30
0.0
  0
POINT
  5
312A
  8
DEFPOINTS
 62
     0
 10
2.9199865752722891
 20
29.456154771200868
 30
0.0
  0
POINT
  5
312B
  8
DEFPOINTS
 62
     0
 10
2.9199865752722891
 20
30.1257403031635
 30
0.0
  0
ENDBLK
  5
11B0
  8
0
  0
BLOCK
  8
0
  2
*D12
 70
     1
 10
0.0
 20
0.0
 30
0.0
  3
*D12
  1

  0
LINE
  5
312C
  8
DIMENSIONS
 62
     0
 10
2.3199865752722881
 20
29.768654771200868
 30
0.0
 11
2.3199865752722881
 21
30.73111206981245
 31
0.0
  0
LINE
  5
312D
  8
DIMENSIONS
 62
     0
 10
7.2199865752722872
 20
29.518654771200868
 30
0.0
 11
7.2199865752722872
 21
30.73111206981245
 31
0.0
  0
LINE
  5
312E
  8
DIMENSIONS
 62
     0
 10
2.4449865752722881
 20
30.551112069812451
 30
0.0
 11
4.142991261645756
 21
30.551112069812451
 31
0.0
  0
LINE
  5
312F
  8
DIMENSIONS
 62
     0
 10
7.0949865752722872
 20
30.551112069812451
 30
0.0
 11
5.3969818888988188
 21
30.551112069812451
 31
0.0
  0
SOLID
  5
3130
  8
DIMENSIONS
 62
     0
 10
2.4449865752722881
 20
30.571945403145779
 30
0.0
 11
2.4449865752722881
 21
30.530278736479112
 31
0.0
 12
2.3199865752722881
 22
30.551112069812451
 32
0.0
 13
2.3199865752722881
 23
30.551112069812451
 33
0.0
  0
SOLID
  5
3131
  8
DIMENSIONS
 62
     0
 10
7.0949865752722872
 20
30.571945403145779
 30
0.0
 11
7.0949865752722872
 21
30.530278736479112
 31
0.0
 12
7.2199865752722872
 22
30.551112069812451
 32
0.0
 13
7.2199865752722872
 23
30.551112069812451
 33
0.0
  0
INSERT
  5
3132
  8
DIMENSIONS
  2
*U115
 10
0.0
 20
0.0
 30
0.0
  0
POINT
  5
3133
  8
DEFPOINTS
 62
     0
 10
2.3199865752722881
 20
29.706154771200868
 30
0.0
  0
POINT
  5
3134
  8
DEFPOINTS
 62
     0
 10
7.2199865752722872
 20
29.456154771200868
 30
0.0
  0
POINT
  5
3135
  8
DEFPOINTS
 62
     0
 10
7.2199865752722872
 20
30.551112069812451
 30
0.0
  0
ENDBLK
  5
11BD
  8
0
  0
BLOCK
  8
0
  2
*D13
 70
     1
 10
0.0
 20
0.0
 30
0.0
  3
*D13
  1

  0
LINE
  5
3136
  8
DIMENSIONS
 62
     0
 10
2.3199865752722881
 20
29.488654771200871
 30
0.0
 11
2.3199865752722881
 21
31.132852077342012
 31
0.0
  0
LINE
  5
3137
  8
DIMENSIONS
 62
     0
 10
7.8199865752722877
 20
29.488654771200871
 30
0.0
 11
7.8199865752722877
 21
31.132852077342012
 31
0.0
  0
LINE
  5
3138
  8
DIMENSIONS
 62
     0
 10
2.4449865752722881
 20
30.952852077342008
 30
0.0
 11
4.4459653063465492
 21
30.952852077342008
 31
0.0
  0
LINE
  5
3139
  8
DIMENSIONS
 62
     0
 10
7.6949865752722877
 20
30.952852077342008
 30
0.0
 11
5.6940078441980271
 21
30.952852077342008
 31
0.0
  0
SOLID
  5
313A
  8
DIMENSIONS
 62
     0
 10
2.4449865752722881
 20
30.973685410675341
 30
0.0
 11
2.4449865752722881
 21
30.93201874400868
 31
0.0
 12
2.3199865752722881
 22
30.952852077342008
 32
0.0
 13
2.3199865752722881
 23
30.952852077342008
 33
0.0
  0
SOLID
  5
313B
  8
DIMENSIONS
 62
     0
 10
7.6949865752722877
 20
30.973685410675341
 30
0.0
 11
7.6949865752722877
 21
30.93201874400868
 31
0.0
 12
7.8199865752722877
 22
30.952852077342008
 32
0.0
 13
7.8199865752722877
 23
30.952852077342008
 33
0.0
  0
INSERT
  5
313C
  8
DIMENSIONS
  2
*U116
 10
0.0
 20
0.0
 30
0.0
  0
POINT
  5
313D
  8
DEFPOINTS
 62
     0
 10
2.3199865752722881
 20
29.426154771200871
 30
0.0
  0
POINT
  5
313E
  8
DEFPOINTS
 62
     0
 10
7.8199865752722877
 20
29.426154771200871
 30
0.0
  0
POINT
  5
313F
  8
DEFPOINTS
 62
     0
 10
7.8199865752722877
 20
30.952852077342008
 30
0.0
  0
ENDBLK
  5
11CA
  8
0
  0
BLOCK
  8
0
  2
*D14
 70
     1
 10
0.0
 20
0.0
 30
0.0
  3
*D14
  1

  0
LINE
  5
34AA
  8
DIMENSIONS
 62
     0
 10
2.2574865752722881
 20
29.706154771200868
 30
0.0
 11
1.812619007613907
 21
29.706154771200868
 31
0.0
  0
LINE
  5
34AB
  8
DIMENSIONS
 62
     0
 10
2.8574865752722891
 20
29.456154771200868
 30
0.0
 11
1.812619007613907
 21
29.456154771200868
 31
0.0
  0
LINE
  5
34AC
  8
DIMENSIONS
 62
     0
 10
1.992619007613907
 20
29.831154771200868
 30
0.0
 11
1.992619007613907
 21
29.956154771200861
 31
0.0
  0
LINE
  5
34AD
  8
DIMENSIONS
 62
     0
 10
1.992619007613907
 20
29.331154771200861
 30
0.0
 11
1.992619007613907
 21
29.206154771200868
 31
0.0
  0
LINE
  5
34AE
  8
DIMENSIONS
 62
     0
 10
1.867619007613907
 20
30.124031809511902
 30
0.0
 11
1.992619007613907
 21
30.124031809511902
 31
0.0
  0
LINE
  5
34AF
  8
DIMENSIONS
 62
     0
 10
1.992619007613907
 20
30.124031809511902
 30
0.0
 11
1.992619007613907
 21
29.956154771200861
 31
0.0
  0
TEXT
  8
DIMENSIONS
  40
0.125
  5
36F2
  62
0
  72
0
  71
0
 10
1.08480
 20
29.9028
 30
0.000000
  1
0.250 [6.35]
  0
SOLID
  5
34B1
  8
DIMENSIONS
 62
     0
 10
1.9717856742805731
 20
29.831154771200868
 30
0.0
 11
2.0134523409472398
 21
29.831154771200868
 31
0.0
 12
1.992619007613907
 22
29.706154771200868
 32
0.0
 13
1.992619007613907
 23
29.706154771200868
 33
0.0
  0
SOLID
  5
34B2
  8
DIMENSIONS
 62
     0
 10
1.9717856742805731
 20
29.331154771200861
 30
0.0
 11
2.0134523409472398
 21
29.331154771200861
 31
0.0
 12
1.992619007613907
 22
29.456154771200868
 32
0.0
 13
1.992619007613907
 23
29.456154771200868
 33
0.0
  0
POINT
  5
34B3
  8
DEFPOINTS
 62
     0
 10
2.3199865752722881
 20
29.706154771200868
 30
0.0
  0
POINT
  5
34B4
  8
DEFPOINTS
 62
     0
 10
2.9199865752722891
 20
29.456154771200868
 30
0.0
  0
POINT
  5
34B5
  8
DEFPOINTS
 62
     0
 10
1.992619007613907
 20
29.456154771200868
 30
0.0
  0
ENDBLK
  5
11D9
  8
0
  0
BLOCK
  8
0
  2
*D15
 70
     1
 10
0.0
 20
0.0
 30
0.0
  3
*D15
  1

  0
LINE
  5
2FB3
  8
DIMENSIONS
 62
     0
 10
2.2574865752722881
 20
22.65823375318687
 30
0.0
 11
1.468908206343734
 21
22.65823375318687
 31
0.0
  0
LINE
  5
2FB4
  8
DIMENSIONS
 62
     0
 10
2.8374865752722931
 20
22.85823375318687
 30
0.0
 11
1.468908206343734
 21
22.85823375318687
 31
0.0
  0
LINE
  5
2FB5
  8
DIMENSIONS
 62
     0
 10
1.6489082063437339
 20
22.53323375318687
 30
0.0
 11
1.6489082063437339
 21
22.40823375318687
 31
0.0
  0
LINE
  5
2FB6
  8
DIMENSIONS
 62
     0
 10
1.6489082063437339
 20
22.98323375318688
 30
0.0
 11
1.6489082063437339
 21
23.21833866388355
 31
0.0
  0
LINE
  5
2FB7
  8
DIMENSIONS
 62
     0
 10
1.6489082063437339
 20
23.21833866388355
 30
0.0
 11
1.7739082063437339
 21
23.21833866388355
 31
0.0
  0
SOLID
  5
2FB8
  8
DIMENSIONS
 62
     0
 10
1.6280748730104011
 20
22.53323375318687
 30
0.0
 11
1.669741539677067
 21
22.53323375318687
 31
0.0
 12
1.6489082063437339
 22
22.65823375318687
 32
0.0
 13
1.6489082063437339
 23
22.65823375318687
 33
0.0
  0
SOLID
  5
2FB9
  8
DIMENSIONS
 62
     0
 10
1.6280748730104011
 20
22.98323375318688
 30
0.0
 11
1.669741539677067
 21
22.98323375318688
 31
0.0
 12
1.6489082063437339
 22
22.85823375318687
 32
0.0
 13
1.6489082063437339
 23
22.85823375318687
 33
0.0
  0
INSERT
  5
2FBA
  8
DIMENSIONS
  2
*U109
 10
0.0
 20
0.0
 30
0.0
  0
POINT
  5
2FBB
  8
DEFPOINTS
 62
     0
 10
2.3199865752722881
 20
22.65823375318687
 30
0.0
  0
POINT
  5
2FBC
  8
DEFPOINTS
 62
     0
 10
2.8999865752722931
 20
22.85823375318687
 30
0.0
  0
POINT
  5
2FBD
  8
DEFPOINTS
 62
     0
 10
1.6489082063437339
 20
22.85823375318687
 30
0.0
  0
ENDBLK
  5
13FE
  8
0
  0
BLOCK
  8
0
  2
*D16
 70
     1
 10
0.0
 20
0.0
 30
0.0
  3
*D16
  1

  0
LINE
  5
35E1
  8
DIMENSIONS
 62
     0
 10
24.75593232924545
 20
26.206154771200861
 30
0.0
 11
25.999413080706269
 21
26.206154771200861
 31
0.0
  0
LINE
  5
35E2
  8
DIMENSIONS
 62
     0
 10
24.73593232924545
 20
26.831154771200861
 30
0.0
 11
25.999413080706269
 21
26.831154771200861
 31
0.0
  0
LINE
  5
35E3
  8
DIMENSIONS
 62
     0
 10
25.819413080706269
 20
26.331154771200868
 30
0.0
 11
25.819413080706269
 21
26.706154771200868
 31
0.0
  0
LINE
  5
35E4
  8
DIMENSIONS
 62
     0
 10
25.944413080706269
 20
25.99551824142107
 30
0.0
 11
25.819413080706269
 21
25.99551824142107
 31
0.0
  0
LINE
  5
35E5
  8
DIMENSIONS
 62
     0
 10
25.819413080706269
 20
25.99551824142107
 30
0.0
 11
25.819413080706269
 21
26.206154771200861
 31
0.0
  0
TEXT
  8
DIMENSIONS
  40
0.125
  5
36F3
  62
0
  72
0
  71
0
 10
26.2734
 20
25.7743
 30
0.000000
  1
0.625 [15.88]
  0
SOLID
  5
35E7
  8
DIMENSIONS
 62
     0
 10
25.798579747372941
 20
26.331154771200868
 30
0.0
 11
25.840246414039601
 21
26.331154771200868
 31
0.0
 12
25.819413080706269
 22
26.206154771200861
 32
0.0
 13
25.819413080706269
 23
26.206154771200861
 33
0.0
  0
SOLID
  5
35E8
  8
DIMENSIONS
 62
     0
 10
25.798579747372941
 20
26.706154771200868
 30
0.0
 11
25.840246414039601
 21
26.706154771200868
 31
0.0
 12
25.819413080706269
 22
26.831154771200861
 32
0.0
 13
25.819413080706269
 23
26.831154771200861
 33
0.0
  0
POINT
  5
35E9
  8
DEFPOINTS
 62
     0
 10
24.693432329245461
 20
26.206154771200861
 30
0.0
  0
POINT
  5
35EA
  8
DEFPOINTS
 62
     0
 10
24.67343232924545
 20
26.831154771200861
 30
0.0
  0
POINT
  5
35EB
  8
DEFPOINTS
 62
     0
 10
25.819413080706269
 20
26.831154771200861
 30
0.0
  0
ENDBLK
  5
1607
  8
0
  0
BLOCK
  8
0
  2
*D17
 70
     1
 10
0.0
 20
0.0
 30
0.0
  3
*D17
  1

  0
LINE
  5
35D5
  8
DIMENSIONS
 62
     0
 10
25.035932329245458
 20
26.206154771200861
 30
0.0
 11
25.47924068023724
 21
26.206154771200861
 31
0.0
  0
LINE
  5
35D6
  8
DIMENSIONS
 62
     0
 10
24.73593232924545
 20
26.456154771200868
 30
0.0
 11
25.47924068023724
 21
26.456154771200868
 31
0.0
  0
LINE
  5
35D7
  8
DIMENSIONS
 62
     0
 10
25.299240680237229
 20
26.081154771200868
 30
0.0
 11
25.299240680237229
 21
25.956154771200868
 31
0.0
  0
LINE
  5
35D8
  8
DIMENSIONS
 62
     0
 10
25.299240680237229
 20
26.581154771200868
 30
0.0
 11
25.299240680237229
 21
26.706154771200868
 31
0.0
  0
LINE
  5
35D9
  8
DIMENSIONS
 62
     0
 10
25.42424068023724
 20
25.647250791825261
 30
0.0
 11
25.299240680237229
 21
25.647250791825261
 31
0.0
  0
LINE
  5
35DA
  8
DIMENSIONS
 62
     0
 10
25.299240680237229
 20
25.647250791825261
 30
0.0
 11
25.299240680237229
 21
25.956154771200868
 31
0.0
  0
TEXT
  8
DIMENSIONS
  40
0.125
  5
36F4
  62
0
  72
0
  71
0
 10
25.7071
 20
25.4260
 30
0.000000
  1
0.250 [6.35]
  0
SOLID
  5
35DC
  8
DIMENSIONS
 62
     0
 10
25.278407346903901
 20
26.081154771200868
 30
0.0
 11
25.320074013570569
 21
26.081154771200868
 31
0.0
 12
25.299240680237229
 22
26.206154771200861
 32
0.0
 13
25.299240680237229
 23
26.206154771200861
 33
0.0
  0
SOLID
  5
35DD
  8
DIMENSIONS
 62
     0
 10
25.278407346903901
 20
26.581154771200868
 30
0.0
 11
25.320074013570569
 21
26.581154771200868
 31
0.0
 12
25.299240680237229
 22
26.456154771200868
 32
0.0
 13
25.299240680237229
 23
26.456154771200868
 33
0.0
  0
POINT
  5
35DE
  8
DEFPOINTS
 62
     0
 10
24.973432329245458
 20
26.206154771200861
 30
0.0
  0
POINT
  5
35DF
  8
DEFPOINTS
 62
     0
 10
24.67343232924545
 20
26.456154771200868
 30
0.0
  0
POINT
  5
35E0
  8
DEFPOINTS
 62
     0
 10
25.299240680237229
 20
26.456154771200868
 30
0.0
  0
ENDBLK
  5
1616
  8
0
  0
BLOCK
  8
0
  2
*D18
 70
     1
 10
0.0
 20
0.0
 30
0.0
  3
*D18
  1

  0
LINE
  5
35C9
  8
DIMENSIONS
 62
     0
 10
24.75593232924545
 20
29.706154771200868
 30
0.0
 11
25.45454570476463
 21
29.706154771200868
 31
0.0
  0
LINE
  5
35CA
  8
DIMENSIONS
 62
     0
 10
24.43593232924545
 20
29.456154771200868
 30
0.0
 11
25.45454570476463
 21
29.456154771200868
 31
0.0
  0
LINE
  5
35CB
  8
DIMENSIONS
 62
     0
 10
25.27454570476463
 20
29.831154771200868
 30
0.0
 11
25.27454570476463
 21
29.956154771200861
 31
0.0
  0
LINE
  5
35CC
  8
DIMENSIONS
 62
     0
 10
25.27454570476463
 20
29.331154771200861
 30
0.0
 11
25.27454570476463
 21
29.206154771200868
 31
0.0
  0
LINE
  5
35CD
  8
DIMENSIONS
 62
     0
 10
25.39954570476463
 20
30.381805708768379
 30
0.0
 11
25.27454570476463
 21
30.381805708768379
 31
0.0
  0
LINE
  5
35CE
  8
DIMENSIONS
 62
     0
 10
25.27454570476463
 20
30.381805708768379
 30
0.0
 11
25.27454570476463
 21
29.956154771200861
 31
0.0
  0
TEXT
  8
DIMENSIONS
  40
0.125
  5
36F5
  62
0
  72
0
  71
0
 10
25.6824
 20
30.1606
 30
0.000000
  1
0.250 [6.35]
  0
SOLID
  5
35D0
  8
DIMENSIONS
 62
     0
 10
25.253712371431298
 20
29.831154771200868
 30
0.0
 11
25.295379038097959
 21
29.831154771200868
 31
0.0
 12
25.27454570476463
 22
29.706154771200868
 32
0.0
 13
25.27454570476463
 23
29.706154771200868
 33
0.0
  0
SOLID
  5
35D1
  8
DIMENSIONS
 62
     0
 10
25.253712371431298
 20
29.331154771200861
 30
0.0
 11
25.295379038097959
 21
29.331154771200861
 31
0.0
 12
25.27454570476463
 22
29.456154771200868
 32
0.0
 13
25.27454570476463
 23
29.456154771200868
 33
0.0
  0
POINT
  5
35D2
  8
DEFPOINTS
 62
     0
 10
24.693432329245461
 20
29.706154771200868
 30
0.0
  0
POINT
  5
35D3
  8
DEFPOINTS
 62
     0
 10
24.37343232924546
 20
29.456154771200868
 30
0.0
  0
POINT
  5
35D4
  8
DEFPOINTS
 62
     0
 10
25.27454570476463
 20
29.456154771200868
 30
0.0
  0
ENDBLK
  5
1625
  8
0
  0
BLOCK
  8
0
  2
*D19
 70
     1
 10
0.0
 20
0.0
 30
0.0
  3
*D19
  1

  0
LINE
  5
35BE
  8
DIMENSIONS
 62
     0
 10
25.035932329245458
 20
29.706154771200868
 30
0.0
 11
25.995187173038751
 21
29.706154771200868
 31
0.0
  0
LINE
  5
35BF
  8
DIMENSIONS
 62
     0
 10
24.73593232924545
 20
29.081154771200868
 30
0.0
 11
25.995187173038751
 21
29.081154771200868
 31
0.0
  0
LINE
  5
35C0
  8
DIMENSIONS
 62
     0
 10
25.815187173038741
 20
29.581154771200868
 30
0.0
 11
25.815187173038741
 21
29.206154771200868
 31
0.0
  0
LINE
  5
35C1
  8
DIMENSIONS
 62
     0
 10
25.940187173038751
 20
30.075624212399259
 30
0.0
 11
25.815187173038741
 21
30.075624212399259
 31
0.0
  0
LINE
  5
35C2
  8
DIMENSIONS
 62
     0
 10
25.815187173038741
 20
30.075624212399259
 30
0.0
 11
25.815187173038741
 21
29.706154771200868
 31
0.0
  0
TEXT
  8
DIMENSIONS
  40
0.125
  5
36F6
  62
0
  72
0
  71
0
 10
26.2691
 20
29.8544
 30
0.000000
  1
0.625 [15.88]
  0
SOLID
  5
35C4
  8
DIMENSIONS
 62
     0
 10
25.794353839705408
 20
29.581154771200868
 30
0.0
 11
25.83602050637208
 21
29.581154771200868
 31
0.0
 12
25.815187173038741
 22
29.706154771200868
 32
0.0
 13
25.815187173038741
 23
29.706154771200868
 33
0.0
  0
SOLID
  5
35C5
  8
DIMENSIONS
 62
     0
 10
25.794353839705408
 20
29.206154771200868
 30
0.0
 11
25.83602050637208
 21
29.206154771200868
 31
0.0
 12
25.815187173038741
 22
29.081154771200868
 32
0.0
 13
25.815187173038741
 23
29.081154771200868
 33
0.0
  0
POINT
  5
35C6
  8
DEFPOINTS
 62
     0
 10
24.973432329245458
 20
29.706154771200868
 30
0.0
  0
POINT
  5
35C7
  8
DEFPOINTS
 62
     0
 10
24.67343232924545
 20
29.081154771200868
 30
0.0
  0
POINT
  5
35C8
  8
DEFPOINTS
 62
     0
 10
25.815187173038741
 20
29.081154771200868
 30
0.0
  0
ENDBLK
  5
1633
  8
0
  0
BLOCK
  8
0
  2
*D20
 70
     1
 10
0.0
 20
0.0
 30
0.0
  3
*D20
  1

  0
LINE
  5
35B4
  8
DIMENSIONS
 62
     0
 10
24.43593232924545
 20
29.081154771200868
 30
0.0
 11
25.995187173038751
 21
29.081154771200868
 31
0.0
  0
LINE
  5
35B5
  8
DIMENSIONS
 62
     0
 10
24.73593232924545
 20
26.831154771200861
 30
0.0
 11
25.995187173038751
 21
26.831154771200861
 31
0.0
  0
LINE
  5
35B6
  8
DIMENSIONS
 62
     0
 10
25.815187173038741
 20
28.956154771200868
 30
0.0
 11
25.815187173038741
 21
28.78895449402183
 31
0.0
  0
LINE
  5
35B7
  8
DIMENSIONS
 62
     0
 10
25.815187173038741
 20
26.956154771200868
 30
0.0
 11
25.815187173038741
 21
27.193038848744241
 31
0.0
  0
TEXT
  8
DIMENSIONS
  40
0.125
  5
36F7
  62
0
  72
0
  71
0
 10
25.5652
 20
27.7697
 30
0.000000
  1
6 plc. 0.375" [9.53]
  0
SOLID
  5
35B9
  8
DIMENSIONS
 62
     0
 10
25.794353839705408
 20
28.956154771200868
 30
0.0
 11
25.83602050637208
 21
28.956154771200868
 31
0.0
 12
25.815187173038741
 22
29.081154771200868
 32
0.0
 13
25.815187173038741
 23
29.081154771200868
 33
0.0
  0
SOLID
  5
35BA
  8
DIMENSIONS
 62
     0
 10
25.794353839705408
 20
26.956154771200868
 30
0.0
 11
25.83602050637208
 21
26.956154771200868
 31
0.0
 12
25.815187173038741
 22
26.831154771200861
 32
0.0
 13
25.815187173038741
 23
26.831154771200861
 33
0.0
  0
POINT
  5
35BB
  8
DEFPOINTS
 62
     0
 10
24.37343232924546
 20
29.081154771200868
 30
0.0
  0
POINT
  5
35BC
  8
DEFPOINTS
 62
     0
 10
24.67343232924545
 20
26.831154771200861
 30
0.0
  0
POINT
  5
35BD
  8
DEFPOINTS
 62
     0
 10
25.815187173038741
 20
26.831154771200861
 30
0.0
  0
ENDBLK
  5
163F
  8
0
  0
BLOCK
  8
0
  2
*D21
 70
     1
 10
0.0
 20
0.0
 30
0.0
  3
*D21
  1

  0
LINE
  5
35AA
  8
DIMENSIONS
 62
     0
 10
19.690932329245449
 20
29.706154771200868
 30
0.0
 11
18.35022093736357
 21
29.706154771200868
 31
0.0
  0
LINE
  5
35AB
  8
DIMENSIONS
 62
     0
 10
19.710932329245459
 20
28.706154771200861
 30
0.0
 11
18.35022093736357
 21
28.706154771200861
 31
0.0
  0
LINE
  5
35AC
  8
DIMENSIONS
 62
     0
 10
18.53022093736357
 20
29.581154771200868
 30
0.0
 11
18.53022093736357
 21
29.37044936139247
 31
0.0
  0
LINE
  5
35AD
  8
DIMENSIONS
 62
     0
 10
18.53022093736357
 20
28.831154771200868
 30
0.0
 11
18.53022093736357
 21
29.02876947674936
 31
0.0
  0
TEXT
  8
DIMENSIONS
  40
0.125
  5
36F8
  62
0
  72
0
  71
0
 10
18.2493
 20
28.9784
 30
0.000000
  1
1.000 [25.40]
  0
SOLID
  5
35AF
  8
DIMENSIONS
 62
     0
 10
18.509387604030241
 20
29.581154771200868
 30
0.0
 11
18.551054270696898
 21
29.581154771200868
 31
0.0
 12
18.53022093736357
 22
29.706154771200868
 32
0.0
 13
18.53022093736357
 23
29.706154771200868
 33
0.0
  0
SOLID
  5
35B0
  8
DIMENSIONS
 62
     0
 10
18.509387604030241
 20
28.831154771200868
 30
0.0
 11
18.551054270696898
 21
28.831154771200868
 31
0.0
 12
18.53022093736357
 22
28.706154771200861
 32
0.0
 13
18.53022093736357
 23
28.706154771200861
 33
0.0
  0
POINT
  5
35B1
  8
DEFPOINTS
 62
     0
 10
19.753432329245449
 20
29.706154771200868
 30
0.0
  0
POINT
  5
35B2
  8
DEFPOINTS
 62
     0
 10
19.773432329245459
 20
28.706154771200861
 30
0.0
  0
POINT
  5
35B3
  8
DEFPOINTS
 62
     0
 10
18.53022093736357
 20
28.706154771200861
 30
0.0
  0
ENDBLK
  5
164C
  8
0
  0
BLOCK
  8
0
  2
*D22
 70
     1
 10
0.0
 20
0.0
 30
0.0
  3
*D22
  1

  0
LINE
  5
3593
  8
DIMENSIONS
 62
     0
 10
19.710932329245459
 20
26.831154771200861
 30
0.0
 11
18.35022093736357
 21
26.831154771200861
 31
0.0
  0
LINE
  5
3594
  8
DIMENSIONS
 62
     0
 10
19.710932329245459
 20
28.706154771200861
 30
0.0
 11
18.35022093736357
 21
28.706154771200861
 31
0.0
  0
LINE
  5
3595
  8
DIMENSIONS
 62
     0
 10
18.53022093736357
 20
26.956154771200868
 30
0.0
 11
18.53022093736357
 21
26.971696816647441
 31
0.0
  0
LINE
  5
3596
  8
DIMENSIONS
 62
     0
 10
18.53022093736357
 20
28.581154771200868
 30
0.0
 11
18.53022093736357
 21
28.566711236258111
 31
0.0
  0
TEXT
  8
DIMENSIONS
  40
0.125
  5
36F9
  62
0
  72
0
  71
0
 10
18.2888
 20
27.5480
 30
0.000000
  1
5 plc. 0.375" [9.53]
  0
SOLID
  5
3598
  8
DIMENSIONS
 62
     0
 10
18.509387604030241
 20
26.956154771200868
 30
0.0
 11
18.551054270696898
 21
26.956154771200868
 31
0.0
 12
18.53022093736357
 22
26.831154771200861
 32
0.0
 13
18.53022093736357
 23
26.831154771200861
 33
0.0
  0
SOLID
  5
3599
  8
DIMENSIONS
 62
     0
 10
18.509387604030241
 20
28.581154771200868
 30
0.0
 11
18.551054270696898
 21
28.581154771200868
 31
0.0
 12
18.53022093736357
 22
28.706154771200861
 32
0.0
 13
18.53022093736357
 23
28.706154771200861
 33
0.0
  0
POINT
  5
359A
  8
DEFPOINTS
 62
     0
 10
19.773432329245459
 20
26.831154771200861
 30
0.0
  0
POINT
  5
359B
  8
DEFPOINTS
 62
     0
 10
19.773432329245459
 20
28.706154771200861
 30
0.0
  0
POINT
  5
359C
  8
DEFPOINTS
 62
     0
 10
18.53022093736357
 20
28.706154771200861
 30
0.0
  0
ENDBLK
  5
1658
  8
0
  0
BLOCK
  8
0
  2
*D23
 70
     1
 10
0.0
 20
0.0
 30
0.0
  3
*D23
  1

  0
LINE
  5
316C
  8
DIMENSIONS
 62
     0
 10
19.473432329245451
 20
29.488654771200871
 30
0.0
 11
19.473432329245451
 21
30.305399081037191
 31
0.0
  0
LINE
  5
316D
  8
DIMENSIONS
 62
     0
 10
20.073432329245449
 20
29.518654771200868
 30
0.0
 11
20.073432329245449
 21
30.305399081037191
 31
0.0
  0
LINE
  5
316E
  8
DIMENSIONS
 62
     0
 10
19.598432329245451
 20
30.125399081037191
 30
0.0
 11
19.948432329245449
 21
30.125399081037191
 31
0.0
  0
LINE
  5
316F
  8
DIMENSIONS
 62
     0
 10
20.073432329245449
 20
30.125399081037191
 30
0.0
 11
20.19843232924546
 21
30.125399081037191
 31
0.0
  0
SOLID
  5
3170
  8
DIMENSIONS
 62
     0
 10
19.598432329245451
 20
30.14623241437052
 30
0.0
 11
19.598432329245451
 21
30.104565747703852
 31
0.0
 12
19.473432329245451
 22
30.125399081037191
 32
0.0
 13
19.473432329245451
 23
30.125399081037191
 33
0.0
  0
SOLID
  5
3171
  8
DIMENSIONS
 62
     0
 10
19.948432329245449
 20
30.14623241437052
 30
0.0
 11
19.948432329245449
 21
30.104565747703852
 31
0.0
 12
20.073432329245449
 22
30.125399081037191
 32
0.0
 13
20.073432329245449
 23
30.125399081037191
 33
0.0
  0
INSERT
  5
3172
  8
DIMENSIONS
  2
*U117
 10
0.0
 20
0.0
 30
0.0
  0
POINT
  5
3173
  8
DEFPOINTS
 62
     0
 10
19.473432329245451
 20
29.426154771200871
 30
0.0
  0
POINT
  5
3174
  8
DEFPOINTS
 62
     0
 10
20.073432329245449
 20
29.456154771200868
 30
0.0
  0
POINT
  5
3175
  8
DEFPOINTS
 62
     0
 10
20.073432329245449
 20
30.125399081037191
 30
0.0
  0
ENDBLK
  5
1665
  8
0
  0
BLOCK
  8
0
  2
*D24
 70
     1
 10
0.0
 20
0.0
 30
0.0
  3
*D24
  1

  0
LINE
  5
3587
  8
DIMENSIONS
 62
     0
 10
19.410932329245451
 20
29.706154771200868
 30
0.0
 11
18.87606476158707
 21
29.706154771200868
 31
0.0
  0
LINE
  5
3588
  8
DIMENSIONS
 62
     0
 10
20.01093232924546
 20
29.456154771200868
 30
0.0
 11
18.87606476158707
 21
29.456154771200868
 31
0.0
  0
LINE
  5
3589
  8
DIMENSIONS
 62
     0
 10
19.05606476158707
 20
29.831154771200868
 30
0.0
 11
19.05606476158707
 21
29.956154771200861
 31
0.0
  0
LINE
  5
358A
  8
DIMENSIONS
 62
     0
 10
19.05606476158707
 20
29.331154771200861
 30
0.0
 11
19.05606476158707
 21
29.206154771200868
 31
0.0
  0
LINE
  5
358B
  8
DIMENSIONS
 62
     0
 10
18.93106476158707
 20
30.124031809511891
 30
0.0
 11
19.05606476158707
 21
30.124031809511891
 31
0.0
  0
LINE
  5
358C
  8
DIMENSIONS
 62
     0
 10
19.05606476158707
 20
30.124031809511891
 30
0.0
 11
19.05606476158707
 21
29.956154771200861
 31
0.0
  0
TEXT
  8
DIMENSIONS
  40
0.125
  5
36FA
  62
0
  72
0
  71
0
 10
18.1482
 20
29.9028
 30
0.000000
  1
0.250 [6.35]
  0
SOLID
  5
358E
  8
DIMENSIONS
 62
     0
 10
19.035231428253741
 20
29.831154771200868
 30
0.0
 11
19.076898094920399
 21
29.831154771200868
 31
0.0
 12
19.05606476158707
 22
29.706154771200868
 32
0.0
 13
19.05606476158707
 23
29.706154771200868
 33
0.0
  0
SOLID
  5
358F
  8
DIMENSIONS
 62
     0
 10
19.035231428253741
 20
29.331154771200861
 30
0.0
 11
19.076898094920399
 21
29.331154771200861
 31
0.0
 12
19.05606476158707
 22
29.456154771200868
 32
0.0
 13
19.05606476158707
 23
29.456154771200868
 33
0.0
  0
POINT
  5
3590
  8
DEFPOINTS
 62
     0
 10
19.473432329245451
 20
29.706154771200868
 30
0.0
  0
POINT
  5
3591
  8
DEFPOINTS
 62
     0
 10
20.073432329245449
 20
29.456154771200868
 30
0.0
  0
POINT
  5
3592
  8
DEFPOINTS
 62
     0
 10
19.05606476158707
 20
29.456154771200868
 30
0.0
  0
ENDBLK
  5
168E
  8
0
  0
BLOCK
  8
0
  2
*D25
 70
     1
 10
0.0
 20
0.0
 30
0.0
  3
*D25
  1

  0
LINE
  5
3034
  8
DIMENSIONS
 62
     0
 10
19.410932329245451
 20
22.65823375318687
 30
0.0
 11
18.57986523089523
 21
22.65823375318687
 31
0.0
  0
LINE
  5
3035
  8
DIMENSIONS
 62
     0
 10
19.558012886336279
 20
22.968233753186869
 30
0.0
 11
18.57986523089523
 21
22.968233753186869
 31
0.0
  0
LINE
  5
3036
  8
DIMENSIONS
 62
     0
 10
18.75986523089523
 20
22.53323375318687
 30
0.0
 11
18.75986523089523
 21
22.40823375318687
 31
0.0
  0
LINE
  5
3037
  8
DIMENSIONS
 62
     0
 10
18.75986523089523
 20
23.093233753186869
 30
0.0
 11
18.75986523089523
 21
23.402694587295329
 31
0.0
  0
LINE
  5
3038
  8
DIMENSIONS
 62
     0
 10
18.75986523089523
 20
23.402694587295329
 30
0.0
 11
18.88486523089523
 21
23.402694587295329
 31
0.0
  0
SOLID
  5
3039
  8
DIMENSIONS
 62
     0
 10
18.73903189756189
 20
22.53323375318687
 30
0.0
 11
18.780698564228562
 21
22.53323375318687
 31
0.0
 12
18.75986523089523
 22
22.65823375318687
 32
0.0
 13
18.75986523089523
 23
22.65823375318687
 33
0.0
  0
SOLID
  5
303A
  8
DIMENSIONS
 62
     0
 10
18.73903189756189
 20
23.093233753186869
 30
0.0
 11
18.780698564228562
 21
23.093233753186869
 31
0.0
 12
18.75986523089523
 22
22.968233753186869
 32
0.0
 13
18.75986523089523
 23
22.968233753186869
 33
0.0
  0
INSERT
  5
303B
  8
DIMENSIONS
  2
*U110
 10
0.0
 20
0.0
 30
0.0
  0
POINT
  5
303C
  8
DEFPOINTS
 62
     0
 10
19.473432329245451
 20
22.65823375318687
 30
0.0
  0
POINT
  5
303D
  8
DEFPOINTS
 62
     0
 10
19.620512886336279
 20
22.968233753186869
 30
0.0
  0
POINT
  5
303E
  8
DEFPOINTS
 62
     0
 10
18.75986523089523
 20
22.968233753186869
 30
0.0
  0
ENDBLK
  5
1C70
  8
0
  0
BLOCK
  8
0
  2
*D26
 70
     1
 10
0.0
 20
0.0
 30
0.0
  3
*D26
  1

  0
LINE
  5
303F
  8
DIMENSIONS
 62
     0
 10
19.410932329245451
 20
22.65823375318687
 30
0.0
 11
18.308414525905889
 21
22.65823375318687
 31
0.0
  0
LINE
  5
3040
  8
DIMENSIONS
 62
     0
 10
19.420476973325901
 20
23.133233753186872
 30
0.0
 11
18.308414525905889
 21
23.133233753186872
 31
0.0
  0
LINE
  5
3041
  8
DIMENSIONS
 62
     0
 10
18.488414525905888
 20
22.78323375318687
 30
0.0
 11
18.488414525905888
 21
23.008233753186872
 31
0.0
  0
LINE
  5
3042
  8
DIMENSIONS
 62
     0
 10
18.488414525905888
 20
23.133233753186872
 30
0.0
 11
18.488414525905888
 21
23.661920741455258
 31
0.0
  0
LINE
  5
3043
  8
DIMENSIONS
 62
     0
 10
18.488414525905888
 20
23.661920741455258
 30
0.0
 11
18.613414525905888
 21
23.661920741455258
 31
0.0
  0
SOLID
  5
3044
  8
DIMENSIONS
 62
     0
 10
18.46758119257256
 20
22.78323375318687
 30
0.0
 11
18.50924785923922
 21
22.78323375318687
 31
0.0
 12
18.488414525905888
 22
22.65823375318687
 32
0.0
 13
18.488414525905888
 23
22.65823375318687
 33
0.0
  0
SOLID
  5
3045
  8
DIMENSIONS
 62
     0
 10
18.46758119257256
 20
23.008233753186872
 30
0.0
 11
18.50924785923922
 21
23.008233753186872
 31
0.0
 12
18.488414525905888
 22
23.133233753186872
 32
0.0
 13
18.488414525905888
 23
23.133233753186872
 33
0.0
  0
INSERT
  5
3046
  8
DIMENSIONS
  2
*U111
 10
0.0
 20
0.0
 30
0.0
  0
POINT
  5
3047
  8
DEFPOINTS
 62
     0
 10
19.473432329245451
 20
22.65823375318687
 30
0.0
  0
POINT
  5
3048
  8
DEFPOINTS
 62
     0
 10
19.482976973325901
 20
23.133233753186872
 30
0.0
  0
POINT
  5
3049
  8
DEFPOINTS
 62
     0
 10
18.488414525905888
 20
23.133233753186872
 30
0.0
  0
ENDBLK
  5
1C8C
  8
0
  0
BLOCK
  8
0
  2
*D27
 70
     1
 10
0.0
 20
0.0
 30
0.0
  3
*D27
  1

  0
LINE
  5
31EE
  8
DIMENSIONS
 62
     0
 10
24.93593232924546
 20
21.76823375318687
 30
0.0
 11
25.908479679323161
 21
21.76823375318687
 31
0.0
  0
LINE
  5
31EF
  8
DIMENSIONS
 62
     0
 10
24.26093232924546
 20
21.26823375318688
 30
0.0
 11
25.908479679323161
 21
21.26823375318688
 31
0.0
  0
LINE
  5
31F0
  8
DIMENSIONS
 62
     0
 10
25.728479679323161
 20
21.89323375318687
 30
0.0
 11
25.728479679323161
 21
22.01823375318687
 31
0.0
  0
LINE
  5
31F1
  8
DIMENSIONS
 62
     0
 10
25.728479679323161
 20
21.14323375318688
 30
0.0
 11
25.728479679323161
 21
21.01823375318688
 31
0.0
  0
SOLID
  5
31F2
  8
DIMENSIONS
 62
     0
 10
25.707646345989829
 20
21.89323375318687
 30
0.0
 11
25.749313012656501
 21
21.89323375318687
 31
0.0
 12
25.728479679323161
 22
21.76823375318687
 32
0.0
 13
25.728479679323161
 23
21.76823375318687
 33
0.0
  0
SOLID
  5
31F3
  8
DIMENSIONS
 62
     0
 10
25.707646345989829
 20
21.14323375318688
 30
0.0
 11
25.749313012656501
 21
21.14323375318688
 31
0.0
 12
25.728479679323161
 22
21.26823375318688
 32
0.0
 13
25.728479679323161
 23
21.26823375318688
 33
0.0
  0
INSERT
  5
31F4
  8
DIMENSIONS
  2
*U122
 10
0.0
 20
0.0
 30
0.0
  0
POINT
  5
31F5
  8
DEFPOINTS
 62
     0
 10
24.87343232924545
 20
21.76823375318687
 30
0.0
  0
POINT
  5
31F6
  8
DEFPOINTS
 62
     0
 10
24.19843232924546
 20
21.26823375318688
 30
0.0
  0
POINT
  5
31F7
  8
DEFPOINTS
 62
     0
 10
25.728479679323161
 20
21.26823375318688
 30
0.0
  0
ENDBLK
  5
1CC1
  8
0
  0
BLOCK
  8
0
  2
*D28
 70
     1
 10
0.0
 20
0.0
 30
0.0
  3
*D28
  1

  0
LINE
  5
31F8
  8
DIMENSIONS
 62
     0
 10
14.559102527563891
 20
21.20573375318688
 30
0.0
 11
14.559102527563891
 21
20.806939436944891
 31
0.0
  0
LINE
  5
31F9
  8
DIMENSIONS
 62
     0
 10
17.80910252756388
 20
21.20573375318688
 30
0.0
 11
17.80910252756388
 21
20.806939436944891
 31
0.0
  0
LINE
  5
31FA
  8
DIMENSIONS
 62
     0
 10
14.684102527563891
 20
20.986939436944901
 30
0.0
 11
15.54304944190427
 21
20.986939436944901
 31
0.0
  0
LINE
  5
31FB
  8
DIMENSIONS
 62
     0
 10
17.68410252756388
 20
20.986939436944901
 30
0.0
 11
16.700158309964831
 21
20.986939436944901
 31
0.0
  0
SOLID
  5
31FC
  8
DIMENSIONS
 62
     0
 10
14.684102527563891
 20
21.00777277027823
 30
0.0
 11
14.684102527563891
 21
20.966106103611558
 31
0.0
 12
14.559102527563891
 22
20.986939436944901
 32
0.0
 13
14.559102527563891
 23
20.986939436944901
 33
0.0
  0
SOLID
  5
31FD
  8
DIMENSIONS
 62
     0
 10
17.68410252756388
 20
21.00777277027823
 30
0.0
 11
17.68410252756388
 21
20.966106103611558
 31
0.0
 12
17.80910252756388
 22
20.986939436944901
 32
0.0
 13
17.80910252756388
 23
20.986939436944901
 33
0.0
  0
INSERT
  5
31FE
  8
DIMENSIONS
  2
*U123
 10
0.0
 20
0.0
 30
0.0
  0
POINT
  5
31FF
  8
DEFPOINTS
 62
     0
 10
14.559102527563891
 20
21.26823375318688
 30
0.0
  0
POINT
  5
3200
  8
DEFPOINTS
 62
     0
 10
17.80910252756388
 20
21.26823375318688
 30
0.0
  0
POINT
  5
3201
  8
DEFPOINTS
 62
     0
 10
17.80910252756388
 20
20.986939436944901
 30
0.0
  0
ENDBLK
  5
1CDB
  8
0
  0
BLOCK
  8
0
  2
*D29
 70
     1
 10
0.0
 20
0.0
 30
0.0
  3
*D29
  1

  0
LINE
  5
3072
  8
DIMENSIONS
 62
     0
 10
14.53410252756389
 20
23.030733753186869
 30
0.0
 11
14.53410252756389
 21
23.639326346142429
 31
0.0
  0
LINE
  5
3073
  8
DIMENSIONS
 62
     0
 10
17.834102527563878
 20
23.030733753186869
 30
0.0
 11
17.834102527563878
 21
23.639326346142429
 31
0.0
  0
LINE
  5
3074
  8
DIMENSIONS
 62
     0
 10
14.65910252756389
 20
23.459326346142429
 30
0.0
 11
15.68418054016381
 21
23.459326346142429
 31
0.0
  0
LINE
  5
3075
  8
DIMENSIONS
 62
     0
 10
17.709102527563878
 20
23.459326346142429
 30
0.0
 11
16.84128940822437
 21
23.459326346142429
 31
0.0
  0
SOLID
  5
3076
  8
DIMENSIONS
 62
     0
 10
14.65910252756389
 20
23.480159679475761
 30
0.0
 11
14.65910252756389
 21
23.438493012809101
 31
0.0
 12
14.53410252756389
 22
23.459326346142429
 32
0.0
 13
14.53410252756389
 23
23.459326346142429
 33
0.0
  0
SOLID
  5
3077
  8
DIMENSIONS
 62
     0
 10
17.709102527563878
 20
23.480159679475761
 30
0.0
 11
17.709102527563878
 21
23.438493012809101
 31
0.0
 12
17.834102527563878
 22
23.459326346142429
 32
0.0
 13
17.834102527563878
 23
23.459326346142429
 33
0.0
  0
INSERT
  5
3078
  8
DIMENSIONS
  2
*U112
 10
0.0
 20
0.0
 30
0.0
  0
POINT
  5
3079
  8
DEFPOINTS
 62
     0
 10
14.53410252756389
 20
22.968233753186869
 30
0.0
  0
POINT
  5
307A
  8
DEFPOINTS
 62
     0
 10
17.834102527563878
 20
22.968233753186869
 30
0.0
  0
POINT
  5
307B
  8
DEFPOINTS
 62
     0
 10
17.834102527563878
 20
23.459326346142429
 30
0.0
  0
ENDBLK
  5
1DBD
  8
0
  0
BLOCK
  8
0
  2
*D30
 70
     1
 10
0.0
 20
0.0
 30
0.0
  3
*D30
  1

  0
LINE
  5
307C
  8
DIMENSIONS
 62
     0
 10
24.035932329245458
 20
23.195733753186872
 30
0.0
 11
24.035932329245458
 21
23.462509095459819
 31
0.0
  0
LINE
  5
307D
  8
DIMENSIONS
 62
     0
 10
24.910932329245458
 20
23.195733753186872
 30
0.0
 11
24.910932329245458
 21
23.462509095459819
 31
0.0
  0
LINE
  5
307E
  8
DIMENSIONS
 62
     0
 10
24.785932329245458
 20
23.282509095459819
 30
0.0
 11
24.160932329245451
 21
23.282509095459819
 31
0.0
  0
LINE
  5
307F
  8
DIMENSIONS
 62
     0
 10
24.035932329245458
 20
23.282509095459819
 30
0.0
 11
23.743642314825848
 21
23.282509095459819
 31
0.0
  0
SOLID
  5
3080
  8
DIMENSIONS
 62
     0
 10
24.785932329245458
 20
23.303342428793151
 30
0.0
 11
24.785932329245458
 21
23.26167576212649
 31
0.0
 12
24.910932329245458
 22
23.282509095459819
 32
0.0
 13
24.910932329245458
 23
23.282509095459819
 33
0.0
  0
SOLID
  5
3081
  8
DIMENSIONS
 62
     0
 10
24.160932329245451
 20
23.303342428793151
 30
0.0
 11
24.160932329245451
 21
23.26167576212649
 31
0.0
 12
24.035932329245458
 22
23.282509095459819
 32
0.0
 13
24.035932329245458
 23
23.282509095459819
 33
0.0
  0
INSERT
  5
3082
  8
DIMENSIONS
  2
*U113
 10
0.0
 20
0.0
 30
0.0
  0
POINT
  5
3083
  8
DEFPOINTS
 62
     0
 10
24.035932329245458
 20
23.133233753186872
 30
0.0
  0
POINT
  5
3084
  8
DEFPOINTS
 62
     0
 10
24.910932329245458
 20
23.133233753186872
 30
0.0
  0
POINT
  5
3085
  8
DEFPOINTS
 62
     0
 10
24.910932329245458
 20
23.282509095459819
 30
0.0
  0
ENDBLK
  5
1DF0
  8
0
  0
BLOCK
  8
0
  2
*D31
 70
     1
 10
0.0
 20
0.0
 30
0.0
  3
*D31
  1

  0
LINE
  5
3202
  8
DIMENSIONS
 62
     0
 10
-2.5943432264092769
 20
21.20573375318688
 30
0.0
 11
-2.5943432264092769
 21
20.806939436944891
 31
0.0
  0
LINE
  5
3203
  8
DIMENSIONS
 62
     0
 10
0.6556567735907209
 20
21.20573375318688
 30
0.0
 11
0.6556567735907209
 21
20.806939436944891
 31
0.0
  0
LINE
  5
3204
  8
DIMENSIONS
 62
     0
 10
-2.4693432264092769
 20
20.986939436944901
 30
0.0
 11
-1.6103963120688931
 21
20.986939436944901
 31
0.0
  0
LINE
  5
3205
  8
DIMENSIONS
 62
     0
 10
0.5306567735907209
 20
20.986939436944901
 30
0.0
 11
-0.4532874440083314
 21
20.986939436944901
 31
0.0
  0
SOLID
  5
3206
  8
DIMENSIONS
 62
     0
 10
-2.4693432264092769
 20
21.00777277027823
 30
0.0
 11
-2.4693432264092769
 21
20.966106103611558
 31
0.0
 12
-2.5943432264092769
 22
20.986939436944901
 32
0.0
 13
-2.5943432264092769
 23
20.986939436944901
 33
0.0
  0
SOLID
  5
3207
  8
DIMENSIONS
 62
     0
 10
0.5306567735907209
 20
21.00777277027823
 30
0.0
 11
0.5306567735907209
 21
20.966106103611558
 31
0.0
 12
0.6556567735907209
 22
20.986939436944901
 32
0.0
 13
0.6556567735907209
 23
20.986939436944901
 33
0.0
  0
INSERT
  5
3208
  8
DIMENSIONS
  2
*U124
 10
0.0
 20
0.0
 30
0.0
  0
POINT
  5
3209
  8
DEFPOINTS
 62
     0
 10
-2.5943432264092769
 20
21.26823375318688
 30
0.0
  0
POINT
  5
320A
  8
DEFPOINTS
 62
     0
 10
0.6556567735907209
 20
21.26823375318688
 30
0.0
  0
POINT
  5
320B
  8
DEFPOINTS
 62
     0
 10
0.6556567735907209
 20
20.986939436944901
 30
0.0
  0
ENDBLK
  5
2603
  8
0
  0
BLOCK
  8
0
  2
*D32
 70
     1
 10
0.0
 20
0.0
 30
0.0
  3
*D32
  1

  0
LINE
  5
320C
  8
DIMENSIONS
 62
     0
 10
7.7824865752722872
 20
21.76823375318687
 30
0.0
 11
8.7550339253499931
 21
21.768233753186859
 31
0.0
  0
LINE
  5
320D
  8
DIMENSIONS
 62
     0
 10
7.1074865752722891
 20
21.26823375318688
 30
0.0
 11
8.7550339253499931
 21
21.26823375318688
 31
0.0
  0
LINE
  5
320E
  8
DIMENSIONS
 62
     0
 10
8.5750339253499952
 20
21.89323375318687
 30
0.0
 11
8.5750339253499952
 21
22.01823375318687
 31
0.0
  0
LINE
  5
320F
  8
DIMENSIONS
 62
     0
 10
8.5750339253499952
 20
21.14323375318687
 30
0.0
 11
8.5750339253499952
 21
21.01823375318687
 31
0.0
  0
SOLID
  5
3210
  8
DIMENSIONS
 62
     0
 10
8.5542005920166613
 20
21.89323375318687
 30
0.0
 11
8.5958672586833291
 21
21.89323375318687
 31
0.0
 12
8.5750339253499952
 22
21.768233753186859
 32
0.0
 13
8.5750339253499952
 23
21.768233753186859
 33
0.0
  0
SOLID
  5
3211
  8
DIMENSIONS
 62
     0
 10
8.5542005920166613
 20
21.14323375318687
 30
0.0
 11
8.5958672586833291
 21
21.14323375318687
 31
0.0
 12
8.5750339253499952
 22
21.26823375318688
 32
0.0
 13
8.5750339253499952
 23
21.26823375318688
 33
0.0
  0
INSERT
  5
3212
  8
DIMENSIONS
  2
*U125
 10
0.0
 20
0.0
 30
0.0
  0
POINT
  5
3213
  8
DEFPOINTS
 62
     0
 10
7.7199865752722872
 20
21.76823375318687
 30
0.0
  0
POINT
  5
3214
  8
DEFPOINTS
 62
     0
 10
7.0449865752722891
 20
21.26823375318688
 30
0.0
  0
POINT
  5
3215
  8
DEFPOINTS
 62
     0
 10
8.5750339253499952
 20
21.26823375318688
 30
0.0
  0
ENDBLK
  5
26D5
  8
0
  0
BLOCK
  8
0
  2
*D33
 70
     1
 10
0.0
 20
0.0
 30
0.0
  3
*D33
  1

  0
LINE
  5
31C2
  8
DIMENSIONS
 62
     0
 10
2.8574865752722891
 20
26.456154771200868
 30
0.0
 11
0.6494456494846298
 21
26.456154771200868
 31
0.0
  0
LINE
  5
31C3
  8
DIMENSIONS
 62
     0
 10
2.8574865752722891
 20
29.456154771200868
 30
0.0
 11
0.6494456494846305
 21
29.456154771200868
 31
0.0
  0
LINE
  5
31C4
  8
DIMENSIONS
 62
     0
 10
0.8294456494846301
 20
26.581154771200868
 30
0.0
 11
0.8294456494846302
 21
27.415577885118719
 31
0.0
  0
LINE
  5
31C5
  8
DIMENSIONS
 62
     0
 10
0.8294456494846308
 20
29.331154771200861
 30
0.0
 11
0.8294456494846304
 21
28.572686753179291
 31
0.0
  0
SOLID
  5
31C6
  8
DIMENSIONS
 62
     0
 10
0.8086123161512967
 20
26.581154771200868
 30
0.0
 11
0.8502789828179636
 21
26.581154771200868
 31
0.0
 12
0.8294456494846301
 22
26.456154771200868
 32
0.0
 13
0.8294456494846301
 23
26.456154771200868
 33
0.0
  0
SOLID
  5
31C7
  8
DIMENSIONS
 62
     0
 10
0.8086123161512974
 20
29.331154771200861
 30
0.0
 11
0.850278982817964
 21
29.331154771200861
 31
0.0
 12
0.8294456494846308
 22
29.456154771200868
 32
0.0
 13
0.8294456494846308
 23
29.456154771200868
 33
0.0
  0
INSERT
  5
31C8
  8
DIMENSIONS
  2
*U118
 10
0.0
 20
0.0
 30
0.0
  0
POINT
  5
31C9
  8
DEFPOINTS
 62
     0
 10
2.9199865752722891
 20
26.456154771200868
 30
0.0
  0
POINT
  5
31CA
  8
DEFPOINTS
 62
     0
 10
2.9199865752722891
 20
29.456154771200868
 30
0.0
  0
POINT
  5
31CB
  8
DEFPOINTS
 62
     0
 10
0.8294456494846308
 20
29.456154771200868
 30
0.0
  0
ENDBLK
  5
2E42
  8
0
  0
BLOCK
  8
0
  2
*D34
 70
     1
 10
0.0
 20
0.0
 30
0.0
  3
*D34
  1

  0
LINE
  5
31CC
  8
DIMENSIONS
 62
     0
 10
2.5374865752722879
 20
26.206154771200861
 30
0.0
 11
0.1959610529212448
 21
26.206154771200861
 31
0.0
  0
LINE
  5
31CD
  8
DIMENSIONS
 62
     0
 10
2.5374865752722879
 20
29.706154771200868
 30
0.0
 11
0.1959610529212456
 21
29.706154771200868
 31
0.0
  0
LINE
  5
31CE
  8
DIMENSIONS
 62
     0
 10
0.375961052921245
 20
26.331154771200868
 30
0.0
 11
0.3759610529212453
 21
27.414433309684359
 31
0.0
  0
LINE
  5
31CF
  8
DIMENSIONS
 62
     0
 10
0.3759610529212458
 20
29.581154771200868
 30
0.0
 11
0.3759610529212455
 21
28.57154217774492
 31
0.0
  0
SOLID
  5
31D0
  8
DIMENSIONS
 62
     0
 10
0.3551277195879117
 20
26.331154771200868
 30
0.0
 11
0.3967943862545784
 21
26.331154771200868
 31
0.0
 12
0.375961052921245
 22
26.206154771200861
 32
0.0
 13
0.375961052921245
 23
26.206154771200861
 33
0.0
  0
SOLID
  5
31D1
  8
DIMENSIONS
 62
     0
 10
0.3551277195879124
 20
29.581154771200868
 30
0.0
 11
0.3967943862545791
 21
29.581154771200868
 31
0.0
 12
0.3759610529212458
 22
29.706154771200868
 32
0.0
 13
0.3759610529212458
 23
29.706154771200868
 33
0.0
  0
INSERT
  5
31D2
  8
DIMENSIONS
  2
*U119
 10
0.0
 20
0.0
 30
0.0
  0
POINT
  5
31D3
  8
DEFPOINTS
 62
     0
 10
2.5999865752722879
 20
26.206154771200861
 30
0.0
  0
POINT
  5
31D4
  8
DEFPOINTS
 62
     0
 10
2.5999865752722879
 20
29.706154771200868
 30
0.0
  0
POINT
  5
31D5
  8
DEFPOINTS
 62
     0
 10
0.3759610529212458
 20
29.706154771200868
 30
0.0
  0
ENDBLK
  5
2E5C
  8
0
  0
BLOCK
  8
0
  2
*D35
 70
     1
 10
0.0
 20
0.0
 30
0.0
  3
*D35
  1

  0
LINE
  5
31D6
  8
DIMENSIONS
 62
     0
 10
19.710932329245459
 20
26.456154771200868
 30
0.0
 11
17.741352452948689
 21
26.456154771200868
 31
0.0
  0
LINE
  5
31D7
  8
DIMENSIONS
 62
     0
 10
19.710932329245459
 20
29.456154771200868
 30
0.0
 11
17.741352452948689
 21
29.456154771200868
 31
0.0
  0
LINE
  5
31D8
  8
DIMENSIONS
 62
     0
 10
17.921352452948689
 20
26.581154771200868
 30
0.0
 11
17.921352452948689
 21
27.286687147430278
 31
0.0
  0
LINE
  5
31D9
  8
DIMENSIONS
 62
     0
 10
17.921352452948689
 20
29.331154771200861
 30
0.0
 11
17.921352452948689
 21
28.44379601549084
 31
0.0
  0
SOLID
  5
31DA
  8
DIMENSIONS
 62
     0
 10
17.90051911961535
 20
26.581154771200868
 30
0.0
 11
17.942185786282021
 21
26.581154771200868
 31
0.0
 12
17.921352452948689
 22
26.456154771200868
 32
0.0
 13
17.921352452948689
 23
26.456154771200868
 33
0.0
  0
SOLID
  5
31DB
  8
DIMENSIONS
 62
     0
 10
17.90051911961535
 20
29.331154771200861
 30
0.0
 11
17.942185786282021
 21
29.331154771200861
 31
0.0
 12
17.921352452948689
 22
29.456154771200868
 32
0.0
 13
17.921352452948689
 23
29.456154771200868
 33
0.0
  0
INSERT
  5
31DC
  8
DIMENSIONS
  2
*U120
 10
0.0
 20
0.0
 30
0.0
  0
POINT
  5
31DD
  8
DEFPOINTS
 62
     0
 10
19.773432329245459
 20
26.456154771200868
 30
0.0
  0
POINT
  5
31DE
  8
DEFPOINTS
 62
     0
 10
19.773432329245459
 20
29.456154771200868
 30
0.0
  0
POINT
  5
31DF
  8
DEFPOINTS
 62
     0
 10
17.921352452948689
 20
29.456154771200868
 30
0.0
  0
ENDBLK
  5
2E9E
  8
0
  0
BLOCK
  8
0
  2
*D36
 70
     1
 10
0.0
 20
0.0
 30
0.0
  3
*D36
  1

  0
LINE
  5
31E0
  8
DIMENSIONS
 62
     0
 10
19.690932329245449
 20
26.206154771200861
 30
0.0
 11
17.270600162794551
 21
26.206154771200861
 31
0.0
  0
LINE
  5
31E1
  8
DIMENSIONS
 62
     0
 10
19.690932329245449
 20
29.706154771200868
 30
0.0
 11
17.270600162794551
 21
29.706154771200868
 31
0.0
  0
LINE
  5
31E2
  8
DIMENSIONS
 62
     0
 10
17.450600162794551
 20
26.331154771200868
 30
0.0
 11
17.450600162794551
 21
27.286687147430278
 31
0.0
  0
LINE
  5
31E3
  8
DIMENSIONS
 62
     0
 10
17.450600162794551
 20
29.581154771200868
 30
0.0
 11
17.450600162794551
 21
28.44379601549084
 31
0.0
  0
SOLID
  5
31E4
  8
DIMENSIONS
 62
     0
 10
17.429766829461219
 20
26.331154771200868
 30
0.0
 11
17.471433496127879
 21
26.331154771200868
 31
0.0
 12
17.450600162794551
 22
26.206154771200861
 32
0.0
 13
17.450600162794551
 23
26.206154771200861
 33
0.0
  0
SOLID
  5
31E5
  8
DIMENSIONS
 62
     0
 10
17.429766829461219
 20
29.581154771200868
 30
0.0
 11
17.471433496127879
 21
29.581154771200868
 31
0.0
 12
17.450600162794551
 22
29.706154771200868
 32
0.0
 13
17.450600162794551
 23
29.706154771200868
 33
0.0
  0
INSERT
  5
31E6
  8
DIMENSIONS
  2
*U121
 10
0.0
 20
0.0
 30
0.0
  0
POINT
  5
31E7
  8
DEFPOINTS
 62
     0
 10
19.753432329245449
 20
26.206154771200861
 30
0.0
  0
POINT
  5
31E8
  8
DEFPOINTS
 62
     0
 10
19.753432329245449
 20
29.706154771200868
 30
0.0
  0
POINT
  5
31E9
  8
DEFPOINTS
 62
     0
 10
17.450600162794551
 20
29.706154771200868
 30
0.0
  0
ENDBLK
  5
2EB8
  8
0
  0
BLOCK
  8
0
  2
*D37
 70
     1
 10
0.0
 20
0.0
 30
0.0
  3
*D37
  1

  0
LINE
  5
3282
  8
DIMENSIONS
 62
     0
 10
19.473432329245451
 20
29.488654771200871
 30
0.0
 11
19.473432329245451
 21
31.625957757845288
 31
0.0
  0
LINE
  5
3283
  8
DIMENSIONS
 62
     0
 10
24.973432329245458
 20
29.488654771200871
 30
0.0
 11
24.973432329245458
 21
31.625957757845288
 31
0.0
  0
LINE
  5
3284
  8
DIMENSIONS
 62
     0
 10
19.598432329245451
 20
31.445957757845289
 30
0.0
 11
21.318922488897709
 21
31.445957757845289
 31
0.0
  0
LINE
  5
3285
  8
DIMENSIONS
 62
     0
 10
24.848432329245458
 20
31.445957757845289
 30
0.0
 11
22.56696502674918
 21
31.445957757845289
 31
0.0
  0
SOLID
  5
3286
  8
DIMENSIONS
 62
     0
 10
19.598432329245451
 20
31.466791091178621
 30
0.0
 11
19.598432329245451
 21
31.42512442451196
 31
0.0
 12
19.473432329245451
 22
31.445957757845289
 32
0.0
 13
19.473432329245451
 23
31.445957757845289
 33
0.0
  0
SOLID
  5
3287
  8
DIMENSIONS
 62
     0
 10
24.848432329245458
 20
31.466791091178621
 30
0.0
 11
24.848432329245458
 21
31.42512442451196
 31
0.0
 12
24.973432329245458
 22
31.445957757845289
 32
0.0
 13
24.973432329245458
 23
31.445957757845289
 33
0.0
  0
INSERT
  5
3288
  8
DIMENSIONS
  2
*U128
 10
0.0
 20
0.0
 30
0.0
  0
POINT
  5
3289
  8
DEFPOINTS
 62
     0
 10
19.473432329245451
 20
29.426154771200871
 30
0.0
  0
POINT
  5
328A
  8
DEFPOINTS
 62
     0
 10
24.973432329245458
 20
29.426154771200871
 30
0.0
  0
POINT
  5
328B
  8
DEFPOINTS
 62
     0
 10
24.973432329245458
 20
31.445957757845289
 30
0.0
  0
ENDBLK
  5
3219
  8
0
  0
BLOCK
  8
0
  2
*D38
 70
     1
 10
0.0
 20
0.0
 30
0.0
  3
*D38
  1

  0
LINE
  5
3254
  8
DIMENSIONS
 62
     0
 10
7.7824865752722872
 20
21.76823375318687
 30
0.0
 11
8.7550339253499931
 21
21.768233753186859
 31
0.0
  0
LINE
  5
3255
  8
DIMENSIONS
 62
     0
 10
7.8824865752722877
 20
22.65823375318687
 30
0.0
 11
8.7550339253499931
 21
22.65823375318687
 31
0.0
  0
LINE
  5
3256
  8
DIMENSIONS
 62
     0
 10
8.5750339253499952
 20
21.89323375318687
 30
0.0
 11
8.5750339253499952
 21
22.035263723412349
 31
0.0
  0
LINE
  5
3257
  8
DIMENSIONS
 62
     0
 10
8.5750339253499952
 20
22.53323375318687
 30
0.0
 11
8.5750339253499952
 21
22.376943608055459
 31
0.0
  0
SOLID
  5
3258
  8
DIMENSIONS
 62
     0
 10
8.5542005920166613
 20
21.89323375318687
 30
0.0
 11
8.5958672586833291
 21
21.89323375318687
 31
0.0
 12
8.5750339253499952
 22
21.768233753186859
 32
0.0
 13
8.5750339253499952
 23
21.768233753186859
 33
0.0
  0
SOLID
  5
3259
  8
DIMENSIONS
 62
     0
 10
8.5542005920166613
 20
22.53323375318687
 30
0.0
 11
8.5958672586833291
 21
22.53323375318687
 31
0.0
 12
8.5750339253499952
 22
22.65823375318687
 32
0.0
 13
8.5750339253499952
 23
22.65823375318687
 33
0.0
  0
INSERT
  5
325A
  8
DIMENSIONS
  2
*U126
 10
0.0
 20
0.0
 30
0.0
  0
POINT
  5
325B
  8
DEFPOINTS
 62
     0
 10
7.7199865752722872
 20
21.76823375318687
 30
0.0
  0
POINT
  5
325C
  8
DEFPOINTS
 62
     0
 10
7.8199865752722877
 20
22.65823375318687
 30
0.0
  0
POINT
  5
325D
  8
DEFPOINTS
 62
     0
 10
8.5750339253499952
 20
22.65823375318687
 30
0.0
  0
ENDBLK
  5
3233
  8
0
  0
BLOCK
  8
0
  2
*D39
 70
     1
 10
0.0
 20
0.0
 30
0.0
  3
*D39
  1

  0
LINE
  5
3278
  8
DIMENSIONS
 62
     0
 10
24.93593232924546
 20
21.76823375318687
 30
0.0
 11
25.908479679323161
 21
21.76823375318687
 31
0.0
  0
LINE
  5
3279
  8
DIMENSIONS
 62
     0
 10
25.035932329245458
 20
22.65823375318687
 30
0.0
 11
25.908479679323161
 21
22.65823375318687
 31
0.0
  0
LINE
  5
327A
  8
DIMENSIONS
 62
     0
 10
25.728479679323161
 20
21.89323375318687
 30
0.0
 11
25.728479679323161
 21
22.059379992961251
 31
0.0
  0
LINE
  5
327B
  8
DIMENSIONS
 62
     0
 10
25.728479679323161
 20
22.53323375318687
 30
0.0
 11
25.728479679323161
 21
22.401059877604361
 31
0.0
  0
SOLID
  5
327C
  8
DIMENSIONS
 62
     0
 10
25.707646345989829
 20
21.89323375318687
 30
0.0
 11
25.749313012656501
 21
21.89323375318687
 31
0.0
 12
25.728479679323161
 22
21.76823375318687
 32
0.0
 13
25.728479679323161
 23
21.76823375318687
 33
0.0
  0
SOLID
  5
327D
  8
DIMENSIONS
 62
     0
 10
25.707646345989829
 20
22.53323375318687
 30
0.0
 11
25.749313012656501
 21
22.53323375318687
 31
0.0
 12
25.728479679323161
 22
22.65823375318687
 32
0.0
 13
25.728479679323161
 23
22.65823375318687
 33
0.0
  0
INSERT
  5
327E
  8
DIMENSIONS
  2
*U127
 10
0.0
 20
0.0
 30
0.0
  0
POINT
  5
327F
  8
DEFPOINTS
 62
     0
 10
24.87343232924545
 20
21.76823375318687
 30
0.0
  0
POINT
  5
3280
  8
DEFPOINTS
 62
     0
 10
24.973432329245458
 20
22.65823375318687
 30
0.0
  0
POINT
  5
3281
  8
DEFPOINTS
 62
     0
 10
25.728479679323161
 20
22.65823375318687
 30
0.0
  0
ENDBLK
  5
3261
  8
0
  0
BLOCK
  8
0
  2
*D40
 70
     1
 10
0.0
 20
0.0
 30
0.0
  3
*D40
  1

  0
LINE
  5
329B
  8
DIMENSIONS
 62
     0
 10
20.073432329245449
 20
29.518654771200868
 30
0.0
 11
20.073432329245449
 21
30.794370034731109
 31
0.0
  0
LINE
  5
329C
  8
DIMENSIONS
 62
     0
 10
24.37343232924546
 20
29.518654771200868
 30
0.0
 11
24.37343232924546
 21
30.794370034731109
 31
0.0
  0
LINE
  5
329D
  8
DIMENSIONS
 62
     0
 10
20.19843232924546
 20
30.61437003473111
 30
0.0
 11
21.375932989403189
 21
30.61437003473111
 31
0.0
  0
LINE
  5
329E
  8
DIMENSIONS
 62
     0
 10
24.24843232924545
 20
30.61437003473111
 30
0.0
 11
22.62992361665626
 21
30.61437003473111
 31
0.0
  0
SOLID
  5
329F
  8
DIMENSIONS
 62
     0
 10
20.19843232924546
 20
30.635203368064442
 30
0.0
 11
20.19843232924546
 21
30.593536701397781
 31
0.0
 12
20.073432329245449
 22
30.61437003473111
 32
0.0
 13
20.073432329245449
 23
30.61437003473111
 33
0.0
  0
SOLID
  5
32A0
  8
DIMENSIONS
 62
     0
 10
24.24843232924545
 20
30.635203368064442
 30
0.0
 11
24.24843232924545
 21
30.593536701397781
 31
0.0
 12
24.37343232924546
 22
30.61437003473111
 32
0.0
 13
24.37343232924546
 23
30.61437003473111
 33
0.0
  0
INSERT
  5
32A1
  8
DIMENSIONS
  2
*U129
 10
0.0
 20
0.0
 30
0.0
  0
POINT
  5
32A2
  8
DEFPOINTS
 62
     0
 10
20.073432329245449
 20
29.456154771200868
 30
0.0
  0
POINT
  5
32A3
  8
DEFPOINTS
 62
     0
 10
24.37343232924546
 20
29.456154771200868
 30
0.0
  0
POINT
  5
32A4
  8
DEFPOINTS
 62
     0
 10
24.37343232924546
 20
30.61437003473111
 30
0.0
  0
ENDBLK
  5
328F
  8
0
  0
BLOCK
  8
0
  2
*D41
 70
     1
 10
0.0
 20
0.0
 30
0.0
  3
*D41
  1

  0
LINE
  5
32B5
  8
DIMENSIONS
 62
     0
 10
19.773432329245459
 20
29.518654771200868
 30
0.0
 11
19.773432329245459
 21
31.206272041475302
 31
0.0
  0
LINE
  5
32B6
  8
DIMENSIONS
 62
     0
 10
24.67343232924545
 20
29.518654771200868
 30
0.0
 11
24.67343232924545
 21
31.206272041475302
 31
0.0
  0
LINE
  5
32B7
  8
DIMENSIONS
 62
     0
 10
19.898432329245459
 20
31.026272041475298
 30
0.0
 11
21.35057443111565
 21
31.026272041475298
 31
0.0
  0
LINE
  5
32B8
  8
DIMENSIONS
 62
     0
 10
24.54843232924545
 20
31.026272041475298
 30
0.0
 11
22.604565058368721
 21
31.026272041475298
 31
0.0
  0
SOLID
  5
32B9
  8
DIMENSIONS
 62
     0
 10
19.898432329245459
 20
31.047105374808631
 30
0.0
 11
19.898432329245459
 21
31.005438708141959
 31
0.0
 12
19.773432329245459
 22
31.026272041475298
 32
0.0
 13
19.773432329245459
 23
31.026272041475298
 33
0.0
  0
SOLID
  5
32BA
  8
DIMENSIONS
 62
     0
 10
24.54843232924545
 20
31.047105374808631
 30
0.0
 11
24.54843232924545
 21
31.005438708141959
 31
0.0
 12
24.67343232924545
 22
31.026272041475298
 32
0.0
 13
24.67343232924545
 23
31.026272041475298
 33
0.0
  0
INSERT
  5
32BB
  8
DIMENSIONS
  2
*U130
 10
0.0
 20
0.0
 30
0.0
  0
POINT
  5
32BC
  8
DEFPOINTS
 62
     0
 10
19.773432329245459
 20
29.456154771200868
 30
0.0
  0
POINT
  5
32BD
  8
DEFPOINTS
 62
     0
 10
24.67343232924545
 20
29.456154771200868
 30
0.0
  0
POINT
  5
32BE
  8
DEFPOINTS
 62
     0
 10
24.67343232924545
 20
31.026272041475298
 30
0.0
  0
ENDBLK
  5
32A9
  8
0
  0
BLOCK
  8
0
  2
*D42
 70
     1
 10
0.0
 20
0.0
 30
0.0
  3
*D42
  1

  0
LINE
  5
32DA
  8
DIMENSIONS
 62
     0
 10
19.473432329245451
 20
29.488654771200871
 30
0.0
 11
19.473432329245451
 21
31.206272041475302
 31
0.0
  0
LINE
  5
32DB
  8
DIMENSIONS
 62
     0
 10
19.773432329245459
 20
29.518654771200868
 30
0.0
 11
19.773432329245459
 21
31.206272041475302
 31
0.0
  0
LINE
  5
32DC
  8
DIMENSIONS
 62
     0
 10
19.898432329245459
 20
31.026272041475298
 30
0.0
 11
20.023432329245459
 21
31.026272041475298
 31
0.0
  0
LINE
  5
32DD
  8
DIMENSIONS
 62
     0
 10
19.348432329245451
 20
31.026272041475298
 30
0.0
 11
19.223432329245451
 21
31.026272041475298
 31
0.0
  0
SOLID
  5
32DE
  8
DIMENSIONS
 62
     0
 10
19.898432329245459
 20
31.047105374808631
 30
0.0
 11
19.898432329245459
 21
31.005438708141959
 31
0.0
 12
19.773432329245459
 22
31.026272041475298
 32
0.0
 13
19.773432329245459
 23
31.026272041475298
 33
0.0
  0
SOLID
  5
32DF
  8
DIMENSIONS
 62
     0
 10
19.348432329245451
 20
31.047105374808631
 30
0.0
 11
19.348432329245451
 21
31.005438708141959
 31
0.0
 12
19.473432329245451
 22
31.026272041475298
 32
0.0
 13
19.473432329245451
 23
31.026272041475298
 33
0.0
  0
INSERT
  5
32E0
  8
DIMENSIONS
  2
*U131
 10
0.0
 20
0.0
 30
0.0
  0
POINT
  5
32E1
  8
DEFPOINTS
 62
     0
 10
19.473432329245451
 20
29.426154771200871
 30
0.0
  0
POINT
  5
32E2
  8
DEFPOINTS
 62
     0
 10
19.773432329245459
 20
29.456154771200868
 30
0.0
  0
POINT
  5
32E3
  8
DEFPOINTS
 62
     0
 10
19.773432329245459
 20
31.026272041475298
 30
0.0
  0
ENDBLK
  5
32C3
  8
0
  0
BLOCK
  8
0
  2
*U44
 70
     1
 10
0.0
 20
0.0
 30
0.0
  3
*U44
  1

  0
TEXT
  5
344C
  8
PINOUT
 10
-0.0030641437731005
 20
-0.0000000038621124
 30
0.0
 40
0.125
  1
PIN #
  0
ENDBLK
  5
344E
  8
0
  0
BLOCK
  8
0
  2
*U45
 70
     1
 10
0.0
 20
0.0
 30
0.0
  3
*U45
  1

  0
TEXT
  5
3493
  8
DIMENSIONS
 10
3.9699261760143352
 20
25.671708671554789
 30
0.0
 40
0.1
  1
#4-40 Threaded Through Inserts (4 places)
  0
ENDBLK
  5
3495
  8
0
  0
BLOCK
  8
0
  2
*U46
 70
     1
 10
0.0
 20
0.0
 30
0.0
  3
*U46
  1

  0
SOLID
  5
3497
  8
DIMENSIONS
 10
7.1324654123581839
 20
26.364508310167501
 30
0.0
 11
7.2199865752722872
 21
26.456154771200868
 31
0.0
 12
7.1669194625805801
 22
26.34107693089986
 32
0.0
 13
7.1669194625805801
 23
26.34107693089986
 33
0.0
  0
POLYLINE
  5
3498
  8
DIMENSIONS
 66
     1
 10
0.0
 20
0.0
 30
0.0
  0
VERTEX
  5
3499
  8
DIMENSIONS
 10
7.1496924374693824
 20
26.35279262053368
 30
0.0
  0
VERTEX
  5
349A
  8
DIMENSIONS
 10
6.8387037567975488
 20
25.89550756274522
 30
0.0
  0
VERTEX
  5
349B
  8
DIMENSIONS
 10
6.708646435567327
 20
25.688579616039291
 30
0.0
  0
VERTEX
  5
349C
  8
DIMENSIONS
 10
6.583646435567327
 20
25.688579616039291
 30
0.0
  0
SEQEND
  5
349D
  8
DIMENSIONS
  0
ENDBLK
  5
349F
  8
0
  0
BLOCK
  8
0
  2
*U47
 70
     1
 10
0.0
 20
0.0
 30
0.0
  3
*U47
  1

  0
SOLID
  5
34B7
  8
DIMENSIONS
 10
7.7471719095938436
 20
22.757872171939251
 30
0.0
 11
7.6688698452129884
 21
22.65823375318687
 31
0.0
 12
7.7106242027346488
 22
22.777881575589671
 32
0.0
 13
7.7106242027346488
 23
22.777881575589671
 33
0.0
  0
POLYLINE
  5
34B8
  8
DIMENSIONS
 66
     1
 10
0.0
 20
0.0
 30
0.0
  0
VERTEX
  5
34B9
  8
DIMENSIONS
 10
7.7288980561642466
 20
22.767876873764461
 30
0.0
  0
VERTEX
  5
34BA
  8
DIMENSIONS
 10
8.0731884383060049
 20
23.396732394938049
 30
0.0
  0
VERTEX
  5
34BB
  8
DIMENSIONS
 10
8.5713609321703341
 20
23.396732394938049
 30
0.0
  0
SEQEND
  5
34BC
  8
DIMENSIONS
  0
ENDBLK
  5
34BE
  8
0
  0
BLOCK
  8
0
  2
*U48
 70
     1
 10
0.0
 20
0.0
 30
0.0
  3
*U48
  1

  0
TEXT
  5
34C0
  8
DIMENSIONS
 10
8.6613609321703358
 20
23.334232394938049
 30
0.0
 40
0.125
  1
NONCONDUCTIVE BASE PLATE
  0
ENDBLK
  5
34C2
  8
0
  0
BLOCK
  8
0
  2
*U49
 70
     1
 10
0.0
 20
0.0
 30
0.0
  3
*U49
  1

  0
TEXT
  5
34C4
  8
DIMENSIONS
 10
1.8473869734499879
 20
23.358451140987011
 30
0.0
 40
0.1
  1
MIN PIN LENGTH
  0
ENDBLK
  5
34C6
  8
0
  0
BLOCK
  8
0
  2
*U50
 70
     1
 10
0.0
 20
0.0
 30
0.0
  3
*U50
  1

  0
TEXT
  5
34C8
  8
PINOUT
 10
6.3866896014255801
 20
15.62376594830811
 30
0.0
 40
0.125
  1
+V OUT
  0
ENDBLK
  5
34CA
  8
0
  0
BLOCK
  8
0
  2
*U51
 70
     1
 10
0.0
 20
0.0
 30
0.0
  3
*U51
  1

  0
TEXT
  5
34CC
  8
PINOUT
 10
6.4059307694140433
 20
15.97425146780229
 30
0.0
 40
0.125
  1
-V OUT
  0
ENDBLK
  5
34CE
  8
0
  0
BLOCK
  8
0
  2
*U52
 70
     1
 10
0.0
 20
0.0
 30
0.0
  3
*U52
  1

  0
TEXT
  5
34D0
  8
PINOUT
 10
5.4959192990791728
 20
15.62376594830811
 30
0.0
 40
0.125
  1
10
  0
ENDBLK
  5
34D2
  8
0
  0
BLOCK
  8
0
  2
*U53
 70
     1
 10
0.0
 20
0.0
 30
0.0
  3
*U53
  1

  0
TEXT
  5
34D4
  8
PINOUT
 10
5.5475567963675401
 20
15.974251467802301
 30
0.0
 40
0.125
  1
9
  0
ENDBLK
  5
34D6
  8
0
  0
BLOCK
  8
0
  2
*U54
 70
     1
 10
0.0
 20
0.0
 30
0.0
  3
*U54
  1

  0
TEXT
  5
34D8
  8
PINOUT
 10
5.377948859281048
 20
18.07716458476736
 30
0.0
 40
0.125
  1
PIN #
  0
ENDBLK
  5
34DA
  8
0
  0
BLOCK
  8
0
  2
*U55
 70
     1
 10
0.0
 20
0.0
 30
0.0
  3
*U55
  1

  0
TEXT
  5
34DC
  8
PINOUT
 10
6.3857433144753282
 20
18.07716458476737
 30
0.0
 40
0.125
  1
SINGLE
  0
ENDBLK
  5
34DE
  8
0
  0
BLOCK
  8
0
  2
*U56
 70
     1
 10
0.0
 20
0.0
 30
0.0
  3
*U56
  1

  0
TEXT
  5
34E0
  8
PINOUT
 10
5.4629795009537219
 20
17.726679065273181
 30
0.0
 40
0.125
  1
2, 3
  0
ENDBLK
  5
34E2
  8
0
  0
BLOCK
  8
0
  2
*U57
 70
     1
 10
0.0
 20
0.0
 30
0.0
  3
*U57
  1

  0
TEXT
  5
34E4
  8
PINOUT
 10
5.4619430914367788
 20
17.37619354577901
 30
0.0
 40
0.125
  1
4, 5
  0
ENDBLK
  5
34E6
  8
0
  0
BLOCK
  8
0
  2
*U58
 70
     1
 10
0.0
 20
0.0
 30
0.0
  3
*U58
  1

  0
TEXT
  5
34E8
  8
PINOUT
 10
5.5469259384007064
 20
17.025708026284828
 30
0.0
 40
0.125
  1
6
  0
ENDBLK
  5
34EA
  8
0
  0
BLOCK
  8
0
  2
*U59
 70
     1
 10
0.0
 20
0.0
 30
0.0
  3
*U59
  1

  0
TEXT
  5
34EC
  8
PINOUT
 10
5.5480074092009941
 20
16.67522250679065
 30
0.0
 40
0.125
  1
7
  0
ENDBLK
  5
34EE
  8
0
  0
BLOCK
  8
0
  2
*U60
 70
     1
 10
0.0
 20
0.0
 30
0.0
  3
*U60
  1

  0
TEXT
  5
34F0
  8
PINOUT
 10
6.4803720095005621
 20
16.67522250679065
 30
0.0
 40
0.125
  1
CASE
  0
ENDBLK
  5
34F2
  8
0
  0
BLOCK
  8
0
  2
*U61
 70
     1
 10
0.0
 20
0.0
 30
0.0
  3
*U61
  1

  0
TEXT
  5
34F4
  8
PINOUT
 10
6.3897988299764101
 20
17.022553736450661
 30
0.0
 40
0.125
  1
ON/OFF
  0
ENDBLK
  5
34F6
  8
0
  0
BLOCK
  8
0
  2
*U62
 70
     1
 10
0.0
 20
0.0
 30
0.0
  3
*U62
  1

  0
TEXT
  5
34F8
  8
PINOUT
 10
6.37127864252147
 20
17.37619354577901
 30
0.0
 40
0.125
  1
+ INPUT
  0
ENDBLK
  5
34FA
  8
0
  0
BLOCK
  8
0
  2
*U63
 70
     1
 10
0.0
 20
0.0
 30
0.0
  3
*U63
  1

  0
TEXT
  5
34FC
  8
PINOUT
 10
6.3905198105099341
 20
17.726679065273181
 30
0.0
 40
0.125
  1
- INPUT
  0
ENDBLK
  5
34FE
  8
0
  0
BLOCK
  8
0
  2
*U64
 70
     1
 10
0.0
 20
0.0
 30
0.0
  3
*U64
  1

  0
TEXT
  5
3500
  8
PINOUT
 10
5.5436815259998369
 20
16.324736987296468
 30
0.0
 40
0.125
  1
8
  0
ENDBLK
  5
3502
  8
0
  0
BLOCK
  8
0
  2
*U65
 70
     1
 10
0.0
 20
0.0
 30
0.0
  3
*U65
  1

  0
TEXT
  5
3504
  8
PINOUT
 10
6.4059307694140442
 20
16.324736987296468
 30
0.0
 40
0.125
  1
-V OUT
  0
ENDBLK
  5
3506
  8
0
  0
BLOCK
  8
0
  2
*U66
 70
     1
 10
0.0
 20
0.0
 30
0.0
  3
*U66
  1

  0
TEXT
  5
3508
  8
PINOUT
 10
7.8768300454984459
 20
17.726679065273181
 30
0.0
 40
0.125
  1
- INPUT
  0
ENDBLK
  5
350A
  8
0
  0
BLOCK
  8
0
  2
*U67
 70
     1
 10
0.0
 20
0.0
 30
0.0
  3
*U67
  1

  0
TEXT
  5
350C
  8
PINOUT
 10
7.9478916893340639
 20
18.07716458476736
 30
0.0
 40
0.125
  1
DUAL
  0
ENDBLK
  5
350E
  8
0
  0
BLOCK
  8
0
  2
*U68
 70
     1
 10
0.0
 20
0.0
 30
0.0
  3
*U68
  1

  0
TEXT
  5
3510
  8
PINOUT
 10
9.3767037267739148
 20
18.07716458476736
 30
0.0
 40
0.125
  1
TRIPLE
  0
ENDBLK
  5
3512
  8
0
  0
BLOCK
  8
0
  2
*U69
 70
     1
 10
0.0
 20
0.0
 30
0.0
  3
*U69
  1

  0
TEXT
  5
3514
  8
PINOUT
 10
9.3631402804869666
 20
17.726679065273181
 30
0.0
 40
0.125
  1
- INPUT
  0
ENDBLK
  5
3516
  8
0
  0
BLOCK
  8
0
  2
*U70
 70
     1
 10
0.0
 20
0.0
 30
0.0
  3
*U70
  1

  0
TEXT
  5
3518
  8
PINOUT
 10
6.3866896014255792
 20
15.27328042881393
 30
0.0
 40
0.125
  1
+V OUT
  0
ENDBLK
  5
351A
  8
0
  0
BLOCK
  8
0
  2
*U71
 70
     1
 10
0.0
 20
0.0
 30
0.0
  3
*U71
  1

  0
TEXT
  5
351C
  8
PINOUT
 10
5.5038951462312999
 20
15.273280428813941
 30
0.0
 40
0.125
  1
11
  0
ENDBLK
  5
351E
  8
0
  0
BLOCK
  8
0
  2
*U72
 70
     1
 10
0.0
 20
0.0
 30
0.0
  3
*U72
  1

  0
TEXT
  5
3520
  8
PINOUT
 10
5.496460034479318
 20
14.92279490931976
 30
0.0
 40
0.125
  1
12
  0
ENDBLK
  5
3522
  8
0
  0
BLOCK
  8
0
  2
*U73
 70
     1
 10
0.0
 20
0.0
 30
0.0
  3
*U73
  1

  0
TEXT
  5
3524
  8
PINOUT
 10
5.500290243563672
 20
14.57230938982558
 30
0.0
 40
0.125
  1
13
  0
ENDBLK
  5
3526
  8
0
  0
BLOCK
  8
0
  2
*U74
 70
     1
 10
0.0
 20
0.0
 30
0.0
  3
*U74
  1

  0
TEXT
  5
3528
  8
PINOUT
 10
6.3800205314904694
 20
14.92279490931975
 30
0.0
 40
0.125
  1
- SENSE
  0
ENDBLK
  5
352A
  8
0
  0
BLOCK
  8
0
  2
*U75
 70
     1
 10
0.0
 20
0.0
 30
0.0
  3
*U75
  1

  0
TEXT
  5
352C
  8
PINOUT
 10
6.4859145473520403
 20
14.572309389825589
 30
0.0
 40
0.125
  1
TRIM
  0
ENDBLK
  5
352E
  8
0
  0
BLOCK
  8
0
  2
*U76
 70
     1
 10
0.0
 20
0.0
 30
0.0
  3
*U76
  1

  0
TEXT
  5
3530
  8
PINOUT
 10
6.3607793635020018
 20
14.221823870331409
 30
0.0
 40
0.125
  1
+ SENSE
  0
ENDBLK
  5
3532
  8
0
  0
BLOCK
  8
0
  2
*U77
 70
     1
 10
0.0
 20
0.0
 30
0.0
  3
*U77
  1

  0
TEXT
  5
3534
  8
PINOUT
 10
5.4958291765124843
 20
14.221823870331409
 30
0.0
 40
0.125
  1
14
  0
ENDBLK
  5
3536
  8
0
  0
BLOCK
  8
0
  2
*U78
 70
     1
 10
0.0
 20
0.0
 30
0.0
  3
*U78
  1

  0
TEXT
  5
3538
  8
PINOUT
 10
7.8575888775099827
 20
17.37619354577901
 30
0.0
 40
0.125
  1
+ INPUT
  0
ENDBLK
  5
353A
  8
0
  0
BLOCK
  8
0
  2
*U79
 70
     1
 10
0.0
 20
0.0
 30
0.0
  3
*U79
  1

  0
TEXT
  5
353C
  8
PINOUT
 10
7.8761090649649228
 20
17.02255373645065
 30
0.0
 40
0.125
  1
ON/OFF
  0
ENDBLK
  5
353E
  8
0
  0
BLOCK
  8
0
  2
*U80
 70
     1
 10
0.0
 20
0.0
 30
0.0
  3
*U80
  1

  0
TEXT
  5
3540
  8
PINOUT
 10
7.9666822444890748
 20
16.67522250679065
 30
0.0
 40
0.125
  1
CASE
  0
ENDBLK
  5
3542
  8
0
  0
BLOCK
  8
0
  2
*U81
 70
     1
 10
0.0
 20
0.0
 30
0.0
  3
*U81
  1

  0
TEXT
  5
3544
  8
PINOUT
 10
9.3438991124985016
 20
17.37619354577901
 30
0.0
 40
0.125
  1
+ INPUT
  0
ENDBLK
  5
3546
  8
0
  0
BLOCK
  8
0
  2
*U82
 70
     1
 10
0.0
 20
0.0
 30
0.0
  3
*U82
  1

  0
TEXT
  5
3548
  8
PINOUT
 10
9.3624192999534408
 20
17.02255373645065
 30
0.0
 40
0.125
  1
ON/OFF
  0
ENDBLK
  5
354A
  8
0
  0
BLOCK
  8
0
  2
*U83
 70
     1
 10
0.0
 20
0.0
 30
0.0
  3
*U83
  1

  0
TEXT
  5
354C
  8
PINOUT
 10
9.4529924794775901
 20
16.67522250679065
 30
0.0
 40
0.125
  1
CASE
  0
ENDBLK
  5
354E
  8
0
  0
BLOCK
  8
0
  2
*U84
 70
     1
 10
0.0
 20
0.0
 30
0.0
  3
*U84
  1

  0
TEXT
  5
3550
  8
PINOUT
 10
7.8268570822684547
 20
14.2218238703314
 30
0.0
 40
0.125
  1
+V2 OUT
  0
ENDBLK
  5
3552
  8
0
  0
BLOCK
  8
0
  2
*U85
 70
     1
 10
0.0
 20
0.0
 30
0.0
  3
*U85
  1

  0
TEXT
  5
3554
  8
PINOUT
 10
7.9722247823405521
 20
14.57230938982558
 30
0.0
 40
0.125
  1
TRIM
  0
ENDBLK
  5
3556
  8
0
  0
BLOCK
  8
0
  2
*U86
 70
     1
 10
0.0
 20
0.0
 30
0.0
  3
*U86
  1

  0
TEXT
  5
3558
  8
PINOUT
 10
7.846098250256917
 20
14.92279490931975
 30
0.0
 40
0.125
  1
-V2 OUT
  0
ENDBLK
  5
355A
  8
0
  0
BLOCK
  8
0
  2
*U87
 70
     1
 10
0.0
 20
0.0
 30
0.0
  3
*U87
  1

  0
TEXT
  5
355C
  8
PINOUT
 10
7.7804439604227431
 20
15.273280428813941
 30
0.0
 40
0.125
  1
+V SENSE
  0
ENDBLK
  5
355E
  8
0
  0
BLOCK
  8
0
  2
*U88
 70
     1
 10
0.0
 20
0.0
 30
0.0
  3
*U88
  1

  0
TEXT
  5
3560
  8
PINOUT
 10
7.7535423742655709
 20
16.324736987296468
 30
0.0
 40
0.125
  1
-V1 SENSE
  0
ENDBLK
  5
3562
  8
0
  0
BLOCK
  8
0
  2
*U89
 70
     1
 10
0.0
 20
0.0
 30
0.0
  3
*U89
  1

  0
TEXT
  5
3564
  8
PINOUT
 10
7.8460982502569188
 20
15.974251467802301
 30
0.0
 40
0.125
  1
-V1 OUT
  0
ENDBLK
  5
3566
  8
0
  0
BLOCK
  8
0
  2
*U90
 70
     1
 10
0.0
 20
0.0
 30
0.0
  3
*U90
  1

  0
TEXT
  5
3568
  8
PINOUT
 10
7.8268570822684573
 20
15.62376594830811
 30
0.0
 40
0.125
  1
+V1 OUT
  0
ENDBLK
  5
356A
  8
0
  0
BLOCK
  8
0
  2
*U91
 70
     1
 10
0.0
 20
0.0
 30
0.0
  3
*U91
  1

  0
TEXT
  5
356C
  8
PINOUT
 10
9.3131673172569727
 20
15.623765948308121
 30
0.0
 40
0.125
  1
+V1 OUT
  0
ENDBLK
  5
356E
  8
0
  0
BLOCK
  8
0
  2
*U92
 70
     1
 10
0.0
 20
0.0
 30
0.0
  3
*U92
  1

  0
TEXT
  5
3570
  8
PINOUT
 10
9.1942313645298643
 20
15.974251467802301
 30
0.0
 40
0.125
  1
-V1 OUT
  0
ENDBLK
  5
3572
  8
0
  0
BLOCK
  8
0
  2
*U93
 70
     1
 10
0.0
 20
0.0
 30
0.0
  3
*U93
  1

  0
TEXT
  5
3574
  8
PINOUT
 10
9.2398526092540898
 20
16.324736987296461
 30
0.0
 40
0.125
  1
-V1 SENSE
  0
ENDBLK
  5
3576
  8
0
  0
BLOCK
  8
0
  2
*U94
 70
     1
 10
0.0
 20
0.0
 30
0.0
  3
*U94
  1

  0
TEXT
  5
3578
  8
PINOUT
 10
9.2667541954112629
 20
15.273280428813949
 30
0.0
 40
0.125
  1
+V SENSE
  0
ENDBLK
  5
357A
  8
0
  0
BLOCK
  8
0
  2
*U95
 70
     1
 10
0.0
 20
0.0
 30
0.0
  3
*U95
  1

  0
TEXT
  5
357C
  8
PINOUT
 10
9.3324084852454359
 20
14.92279490931975
 30
0.0
 40
0.125
  1
-V2 OUT
  0
ENDBLK
  5
357E
  8
0
  0
BLOCK
  8
0
  2
*U96
 70
     1
 10
0.0
 20
0.0
 30
0.0
  3
*U96
  1

  0
TEXT
  5
3580
  8
PINOUT
 10
9.2508926236736961
 20
14.57230938982558
 30
0.0
 40
0.125
  1
COM 2 & 3
  0
ENDBLK
  5
3582
  8
0
  0
BLOCK
  8
0
  2
*U97
 70
     1
 10
0.0
 20
0.0
 30
0.0
  3
*U97
  1

  0
TEXT
  5
3584
  8
PINOUT
 10
9.3131673172569727
 20
14.2218238703314
 30
0.0
 40
0.125
  1
+V3 OUT
  0
ENDBLK
  5
3586
  8
0
  0
BLOCK
  8
0
  2
*U98
 70
     1
 10
0.0
 20
0.0
 30
0.0
  3
*U98
  1

  0
SOLID
  5
359E
  8
DIMENSIONS
 10
24.296031942921388
 20
26.355814310893649
 30
0.0
 11
24.37343232924546
 21
26.456154771200868
 31
0.0
 12
24.33275859957909
 22
26.336135291561909
 32
0.0
 13
24.33275859957909
 23
26.336135291561909
 33
0.0
  0
POLYLINE
  5
359F
  8
DIMENSIONS
 66
     1
 10
0.0
 20
0.0
 30
0.0
  0
VERTEX
  5
35A0
  8
DIMENSIONS
 10
24.314395271250241
 20
26.345974801227779
 30
0.0
  0
VERTEX
  5
35A1
  8
DIMENSIONS
 10
23.74274194815894
 20
25.27910683537625
 30
0.0
  0
VERTEX
  5
35A2
  8
DIMENSIONS
 10
23.5034996921074
 20
25.279220268312091
 30
0.0
  0
SEQEND
  5
35A3
  8
DIMENSIONS
  0
ENDBLK
  5
35A5
  8
0
  0
BLOCK
  8
0
  2
*U99
 70
     1
 10
0.0
 20
0.0
 30
0.0
  3
*U99
  1

  0
TEXT
  5
35A7
  8
DIMENSIONS
 10
20.124834028741262
 20
25.232766249418361
 30
0.0
 40
0.125
  1
#4-40 Threaded Inserts on Bottom (4 places)
  0
ENDBLK
  5
35A9
  8
0
  0
BLOCK
  8
0
  2
*U100
 70
     1
 10
0.0
 20
0.0
 30
0.0
  3
*U100
  1

  0
SOLID
  5
35ED
  8
DIMENSIONS
 10
19.9858387515091
 20
29.17933498420426
 30
0.0
 11
19.867102842872391
 21
29.1350539298131
 31
0.0
 12
19.965059171239709
 22
29.215450357038272
 32
0.0
 13
19.965059171239709
 23
29.215450357038272
 33
0.0
  0
POLYLINE
  5
35EE
  8
DIMENSIONS
 66
     1
 10
0.0
 20
0.0
 30
0.0
  0
VERTEX
  5
35EF
  8
DIMENSIONS
 10
19.975448961374411
 20
29.197392670621259
 30
0.0
  0
VERTEX
  5
35F0
  8
DIMENSIONS
 10
21.694966894542802
 20
30.186745904800699
 30
0.0
  0
VERTEX
  5
35F1
  8
DIMENSIONS
 10
21.819966894542809
 20
30.186745904800699
 30
0.0
  0
SEQEND
  5
35F2
  8
DIMENSIONS
  0
ENDBLK
  5
35F4
  8
0
  0
BLOCK
  8
0
  2
*U101
 70
     1
 10
0.0
 20
0.0
 30
0.0
  3
*U101
  1

  0
TEXT
  5
35F6
  8
DIMENSIONS
 10
21.908975546309211
 20
30.121091614966531
 30
0.0
 40
0.125
  1
Unused Terminal
  0
ENDBLK
  5
35F8
  8
0
  0
BLOCK
  8
0
  2
*U102
 70
     1
 10
0.0
 20
0.0
 30
0.0
  3
*U102
  1

  0
TEXT
  5
35FA
  8
DIMENSIONS
 10
22.343374628788709
 20
23.676775689780751
 30
0.0
 40
0.125
  1
NONCONDUCTIVE BASE PLATE
  0
ENDBLK
  5
35FC
  8
0
  0
BLOCK
  8
0
  2
*U103
 70
     1
 10
0.0
 20
0.0
 30
0.0
  3
*U103
  1

  0
SOLID
  5
35FE
  8
DIMENSIONS
 10
21.511501348985359
 20
22.755053341963979
 30
0.0
 11
21.429739530226179
 21
22.65823375318687
 31
0.0
 12
21.475680843503088
 22
22.776337197303331
 32
0.0
 13
21.475680843503088
 23
22.776337197303331
 33
0.0
  0
POLYLINE
  5
35FF
  8
DIMENSIONS
 66
     1
 10
0.0
 20
0.0
 30
0.0
  0
VERTEX
  5
3600
  8
DIMENSIONS
 10
21.493591096244231
 20
22.76569526963366
 30
0.0
  0
VERTEX
  5
3601
  8
DIMENSIONS
 10
22.069910766660509
 20
23.73563523513964
 30
0.0
  0
VERTEX
  5
3602
  8
DIMENSIONS
 10
22.256739214230961
 20
23.73562075373551
 30
0.0
  0
SEQEND
  5
3603
  8
DIMENSIONS
  0
ENDBLK
  5
3605
  8
0
  0
BLOCK
  8
0
  2
*U104
 70
     1
 10
0.0
 20
0.0
 30
0.0
  3
*U104
  1

  0
TEXT
  5
3607
  8
DIMENSIONS
 10
3.6408588987668811
 20
20.799733037651311
 30
0.0
 40
0.125
  1
-HSB (Optional B Heat Sink)
  0
ENDBLK
  5
3609
  8
0
  0
BLOCK
  8
0
  2
*U105
 70
     1
 10
0.0
 20
0.0
 30
0.0
  3
*U105
  1

  0
SOLID
  5
360B
  8
DIMENSIONS
 10
6.3117252972596347
 20
21.17270057904576
 30
0.0
 11
6.3949865752722914
 21
21.26823375318688
 31
0.0
 12
6.3472096390358157
 22
21.150860876670912
 32
0.0
 13
6.3472096390358157
 23
21.150860876670912
 33
0.0
  0
POLYLINE
  5
360C
  8
DIMENSIONS
 66
     1
 10
0.0
 20
0.0
 30
0.0
  0
VERTEX
  5
360D
  8
DIMENSIONS
 10
6.3294674681477261
 20
21.161780727858329
 30
0.0
  0
VERTEX
  5
360E
  8
DIMENSIONS
 10
6.1420628711303769
 20
20.85729266035392
 30
0.0
  0
VERTEX
  5
360F
  8
DIMENSIONS
 10
5.862033875154963
 20
20.856964916880159
 30
0.0
  0
SEQEND
  5
3610
  8
DIMENSIONS
  0
ENDBLK
  5
3612
  8
0
  0
BLOCK
  8
0
  2
*U106
 70
     1
 10
0.0
 20
0.0
 30
0.0
  3
*U106
  1

  0
SOLID
  5
364B
  8
DIMENSIONS
 10
7.3192534039502171
 20
22.957106386656012
 30
0.0
 11
7.2399865752722903
 21
22.85823375318687
 31
0.0
 12
7.2829019104641226
 22
22.977470080634301
 32
0.0
 13
7.2829019104641226
 23
22.977470080634301
 33
0.0
  0
POLYLINE
  5
364C
  8
DIMENSIONS
 66
     1
 10
0.0
 20
0.0
 30
0.0
  0
VERTEX
  5
364D
  8
DIMENSIONS
 10
7.3010776572071698
 20
22.96728823364516
 30
0.0
  0
VERTEX
  5
364E
  8
DIMENSIONS
 10
7.9203960369147799
 20
24.0728414829602
 30
0.0
  0
VERTEX
  5
364F
  8
DIMENSIONS
 10
8.2023498560083965
 20
24.07259638220701
 30
0.0
  0
SEQEND
  5
3650
  8
DIMENSIONS
  0
ENDBLK
  5
3652
  8
0
  0
BLOCK
  8
0
  2
*U107
 70
     1
 10
0.0
 20
0.0
 30
0.0
  3
*U107
  1

  0
TEXT
  5
3654
  8
DIMENSIONS
 10
8.2976319352897097
 20
24.012368018469221
 30
0.0
 40
0.125
  1
PIN -  0.040 [1.02] Dia.
  0
ENDBLK
  5
3656
  8
0
  0
BLOCK
  8
0
  2
*U108
 70
     1
 10
0.0
 20
0.0
 30
0.0
  3
*U108
  1

  0
TEXT
  5
3658
  8
DIMENSIONS
 10
8.2801868767722588
 20
23.81842310575238
 30
0.0
 40
0.125
  1
TIN PLATED BRASS, MATTE FINISH
  0
ENDBLK
  5
365A
  8
0
  0
BLOCK
  8
0
  2
*U109
 70
     1
 10
0.0
 20
0.0
 30
0.0
  3
*U109
  1

  0
TEXT
  5
365C
  8
DIMENSIONS
 62
     0
 10
1.8572391364086189
 20
23.17417860620511
 30
0.0
 40
0.125
  1
0.200 [5.08]
  0
ENDBLK
  5
365E
  8
0
  0
BLOCK
  8
0
  2
*U110
 70
     1
 10
0.0
 20
0.0
 30
0.0
  3
*U110
  1

  0
TEXT
  5
3660
  8
DIMENSIONS
 62
     0
 10
18.968196160960112
 20
23.35853452961689
 30
0.0
 40
0.125
  1
0.310 [7.87]
  0
ENDBLK
  5
3662
  8
0
  0
BLOCK
  8
0
  2
*U111
 70
     1
 10
0.0
 20
0.0
 30
0.0
  3
*U111
  1

  0
TEXT
  5
3664
  8
DIMENSIONS
 62
     0
 10
18.696745455970781
 20
23.617760683776819
 30
0.0
 40
0.125
  1
0.475 [12.07]
  0
ENDBLK
  5
3666
  8
0
  0
BLOCK
  8
0
  2
*U112
 70
     1
 10
0.0
 20
0.0
 30
0.0
  3
*U112
  1

  0
TEXT
  5
3668
  8
DIMENSIONS
 62
     0
 10
15.766700367128481
 20
23.41516628846399
 30
0.0
 40
0.125
  1
3.300 [83.82]
  0
ENDBLK
  5
366A
  8
0
  0
BLOCK
  8
0
  2
*U113
 70
     1
 10
0.0
 20
0.0
 30
0.0
  3
*U113
  1

  0
TEXT
  5
366C
  8
DIMENSIONS
 62
     0
 10
22.669053273729951
 20
23.238349037781369
 30
0.0
 40
0.125
  1
0.875 [22.23]
  0
ENDBLK
  5
366E
  8
0
  0
BLOCK
  8
0
  2
*U114
 70
     1
 10
0.0
 20
0.0
 30
0.0
  3
*U114
  1

  0
TEXT
  5
3670
  8
DIMENSIONS
 62
     0
 10
3.128317505337177
 20
30.08158024548505
 30
0.0
 40
0.125
  1
0.600 [15.24]
  0
ENDBLK
  5
3672
  8
0
  0
BLOCK
  8
0
  2
*U115
 70
     1
 10
0.0
 20
0.0
 30
0.0
  3
*U115
  1

  0
TEXT
  5
3674
  8
DIMENSIONS
 62
     0
 10
4.2301073395116529
 20
30.506952012134011
 30
0.0
 40
0.125
  1
4.900 [124.46]
  0
ENDBLK
  5
3676
  8
0
  0
BLOCK
  8
0
  2
*U116
 70
     1
 10
0.0
 20
0.0
 30
0.0
  3
*U116
  1

  0
TEXT
  5
3678
  8
DIMENSIONS
 62
     0
 10
4.5271332948108611
 20
30.908692019663569
 30
0.0
 40
0.125
  1
5.500 [139.70]
  0
ENDBLK
  5
367A
  8
0
  0
BLOCK
  8
0
  2
*U117
 70
     1
 10
0.0
 20
0.0
 30
0.0
  3
*U117
  1

  0
TEXT
  5
367C
  8
DIMENSIONS
 62
     0
 10
20.281763259310349
 20
30.081239023358751
 30
0.0
 40
0.125
  1
0.600 [15.24]
  0
ENDBLK
  5
367E
  8
0
  0
BLOCK
  8
0
  2
*U118
 70
     1
 10
0.0
 20
0.0
 30
0.0
  3
*U118
  1

  0
TEXT
  5
3680
  8
DIMENSIONS
 62
     0
 10
0.8736057071630686
 20
27.498097712083389
 30
0.0
 40
0.125
  1
3.000 [76.20]
 50
90.0
  0
ENDBLK
  5
3682
  8
0
  0
BLOCK
  8
0
  2
*U119
 70
     1
 10
0.0
 20
0.0
 30
0.0
  3
*U119
  1

  0
TEXT
  5
3684
  8
DIMENSIONS
 62
     0
 10
0.4201211105996836
 20
27.496953136649029
 30
0.0
 40
0.125
  1
3.500 [88.90]
 50
90.0
  0
ENDBLK
  5
3686
  8
0
  0
BLOCK
  8
0
  2
*U120
 70
     1
 10
0.0
 20
0.0
 30
0.0
  3
*U120
  1

  0
TEXT
  5
3688
  8
DIMENSIONS
 62
     0
 10
17.965512510627121
 20
27.36920697439496
 30
0.0
 40
0.125
  1
3.000 [76.20]
 50
90.0
  0
ENDBLK
  5
368A
  8
0
  0
BLOCK
  8
0
  2
*U121
 70
     1
 10
0.0
 20
0.0
 30
0.0
  3
*U121
  1

  0
TEXT
  5
368C
  8
DIMENSIONS
 62
     0
 10
17.49476022047298
 20
27.36920697439496
 30
0.0
 40
0.125
  1
3.500 [88.90]
 50
90.0
  0
ENDBLK
  5
368E
  8
0
  0
BLOCK
  8
0
  2
*U122
 70
     1
 10
0.0
 20
0.0
 30
0.0
  3
*U122
  1

  0
TEXT
  5
3690
  8
DIMENSIONS
 62
     0
 10
25.232850623807661
 20
21.43706558224893
 30
0.0
 40
0.125
  1
0.500 [12.70]
  0
ENDBLK
  5
3692
  8
0
  0
BLOCK
  8
0
  2
*U123
 70
     1
 10
0.0
 20
0.0
 30
0.0
  3
*U123
  1

  0
TEXT
  5
3694
  8
DIMENSIONS
 62
     0
 10
15.62556926886894
 20
20.942779379266451
 30
0.0
 40
0.125
  1
3.250 [82.55]
  0
ENDBLK
  5
3696
  8
0
  0
BLOCK
  8
0
  2
*U124
 70
     1
 10
0.0
 20
0.0
 30
0.0
  3
*U124
  1

  0
TEXT
  5
3698
  8
DIMENSIONS
 62
     0
 10
-1.527876485104221
 20
20.942779379266451
 30
0.0
 40
0.125
  1
3.250 [82.55]
  0
ENDBLK
  5
369A
  8
0
  0
BLOCK
  8
0
  2
*U125
 70
     1
 10
0.0
 20
0.0
 30
0.0
  3
*U125
  1

  0
TEXT
  5
369C
  8
DIMENSIONS
 62
     0
 10
8.0794048698344891
 20
21.43706558224893
 30
0.0
 40
0.125
  1
0.500 [12.70]
  0
ENDBLK
  5
369E
  8
0
  0
BLOCK
  8
0
  2
*U126
 70
     1
 10
0.0
 20
0.0
 30
0.0
  3
*U126
  1

  0
TEXT
  5
36A0
  8
DIMENSIONS
 62
     0
 10
8.0794048698344891
 20
22.161943608055459
 30
0.0
 40
0.125
  1
0.890 [22.61]
  0
ENDBLK
  5
36A2
  8
0
  0
BLOCK
  8
0
  2
*U127
 70
     1
 10
0.0
 20
0.0
 30
0.0
  3
*U127
  1

  0
TEXT
  5
36A4
  8
DIMENSIONS
 62
     0
 10
25.232850623807661
 20
22.186059877604372
 30
0.0
 40
0.125
  1
0.890 [22.61]
  0
ENDBLK
  5
36A6
  8
0
  0
BLOCK
  8
0
  2
*U128
 70
     1
 10
0.0
 20
0.0
 30
0.0
  3
*U128
  1

  0
TEXT
  5
36A8
  8
DIMENSIONS
 62
     0
 10
21.400090477362021
 20
31.401797700166849
 30
0.0
 40
0.125
  1
5.500 [139.70]
  0
ENDBLK
  5
36AA
  8
0
  0
BLOCK
  8
0
  2
*U129
 70
     1
 10
0.0
 20
0.0
 30
0.0
  3
*U129
  1

  0
TEXT
  5
36AC
  8
DIMENSIONS
 62
     0
 10
21.463049067269079
 20
30.57020997705267
 30
0.0
 40
0.125
  1
4.300 [109.22]
  0
ENDBLK
  5
36AE
  8
0
  0
BLOCK
  8
0
  2
*U130
 70
     1
 10
0.0
 20
0.0
 30
0.0
  3
*U130
  1

  0
TEXT
  5
36B0
  8
DIMENSIONS
 62
     0
 10
21.43769050898155
 20
30.982111983796852
 30
0.0
 40
0.125
  1
4.900 [124.46]
  0
ENDBLK
  5
36B2
  8
0
  0
BLOCK
  8
0
  2
*U131
 70
     1
 10
0.0
 20
0.0
 30
0.0
  3
*U131
  1

  0
TEXT
  5
36B4
  8
DIMENSIONS
 62
     0
 10
18.24112879644084
 20
30.982111983796852
 30
0.0
 40
0.125
  1
0.300 [7.62]
  0
ENDBLK
  5
36B6
  8
0
  0
BLOCK
  8
0
  2
*U132
 70
     1
 10
0.0
 20
0.0
 30
0.0
  3
*U132
  1

  0
TEXT
  5
36B8
  8
DIMENSIONS
 10
20.85236305985935
 20
20.800157709902741
 30
0.0
 40
0.125
  1
HS-B (Optional B Heat Sink)
  0
ENDBLK
  5
36BA
  8
0
  0
BLOCK
  8
0
  2
*U133
 70
     1
 10
0.0
 20
0.0
 30
0.0
  3
*U133
  1

  0
SOLID
  5
36BC
  8
DIMENSIONS
 10
23.465171051232801
 20
21.17270057904576
 30
0.0
 11
23.548432329245461
 21
21.26823375318688
 31
0.0
 12
23.50065539300898
 22
21.150860876670912
 32
0.0
 13
23.50065539300898
 23
21.150860876670912
 33
0.0
  0
POLYLINE
  5
36BD
  8
DIMENSIONS
 66
     1
 10
0.0
 20
0.0
 30
0.0
  0
VERTEX
  5
36BE
  8
DIMENSIONS
 10
23.482913222120889
 20
21.161780727858329
 30
0.0
  0
VERTEX
  5
36BF
  8
DIMENSIONS
 10
23.29550862510354
 20
20.85729266035392
 30
0.0
  0
VERTEX
  5
36C0
  8
DIMENSIONS
 10
23.111774453510929
 20
20.857215945366558
 30
0.0
  0
SEQEND
  5
36C1
  8
DIMENSIONS
  0
ENDBLK
  5
36C3
  8
0
  0
BLOCK
  8
0
  2
*U134
 70
     1
 10
0.0
 20
0.0
 30
0.0
  3
*U134
  1

  0
TEXT
  5
36C5
  8
DIMENSIONS
 10
19.293234336721969
 20
20.327154353030618
 30
0.0
 40
0.125
  1
BLACK ANODIZED ALUMINUM CASE
  0
ENDBLK
  5
36C7
  8
0
  0
BLOCK
  8
0
  2
*U135
 70
     1
 10
0.0
 20
0.0
 30
0.0
  3
*U135
  1

  0
SOLID
  5
36C9
  8
DIMENSIONS
 10
17.979328633720769
 20
22.129854586524559
 30
0.0
 11
17.934102527563891
 21
22.24823375318687
 31
0.0
 12
18.01527722257574
 22
22.15092138671935
 32
0.0
 13
18.01527722257574
 23
22.15092138671935
 33
0.0
  0
POLYLINE
  5
36CA
  8
DIMENSIONS
 66
     1
 10
0.0
 20
0.0
 30
0.0
  0
VERTEX
  5
36CB
  8
DIMENSIONS
 10
17.997302928148262
 20
22.140387986621949
 30
0.0
  0
VERTEX
  5
36CC
  8
DIMENSIONS
 10
19.022834641861259
 20
20.390410885537619
 30
0.0
  0
VERTEX
  5
36CD
  8
DIMENSIONS
 10
19.209663089431711
 20
20.390425366941749
 30
0.0
  0
SEQEND
  5
36CE
  8
DIMENSIONS
  0
ENDBLK
  5
36D0
  8
0
  0
BLOCK
  8
0
  2
*U136
 70
     1
 10
0.0
 20
0.0
 30
0.0
  3
*U136
  1

  0
TEXT
  5
36D2
  8
DIMENSIONS
 10
2.1397885827488081
 20
20.327154353030618
 30
0.0
 40
0.125
  1
BLACK ANODIZED ALUMINUM CASE
  0
ENDBLK
  5
36D4
  8
0
  0
BLOCK
  8
0
  2
*U137
 70
     1
 10
0.0
 20
0.0
 30
0.0
  3
*U137
  1

  0
SOLID
  5
36D6
  8
DIMENSIONS
 10
0.8258828797476091
 20
22.129854586524559
 30
0.0
 11
0.7806567735907209
 21
22.24823375318687
 31
0.0
 12
0.8618314686025815
 22
22.15092138671935
 32
0.0
 13
0.8618314686025815
 23
22.15092138671935
 33
0.0
  0
POLYLINE
  5
36D7
  8
DIMENSIONS
 66
     1
 10
0.0
 20
0.0
 30
0.0
  0
VERTEX
  5
36D8
  8
DIMENSIONS
 10
0.8438571741750953
 20
22.140387986621949
 30
0.0
  0
VERTEX
  5
36D9
  8
DIMENSIONS
 10
1.8693888878880991
 20
20.390410885537619
 30
0.0
  0
VERTEX
  5
36DA
  8
DIMENSIONS
 10
2.0562173354585478
 20
20.390425366941749
 30
0.0
  0
SEQEND
  5
36DB
  8
DIMENSIONS
  0
ENDBLK
  5
36DD
  8
0
  0
BLOCK
  8
0
  2
*U138
 70
     1
 10
0.0
 20
0.0
 30
0.0
  3
*U138
  1

  0
SOLID
  5
36DF
  8
DIMENSIONS
 10
19.900426282912509
 20
26.630095893308599
 30
0.0
 11
19.842178182592221
 21
26.742640047252081
 31
0.0
 12
19.933778543633629
 22
26.655070636868881
 32
0.0
 13
19.933778543633629
 23
26.655070636868881
 33
0.0
  0
POLYLINE
  5
36E0
  8
DIMENSIONS
 66
     1
 10
0.0
 20
0.0
 30
0.0
  0
VERTEX
  5
36E1
  8
DIMENSIONS
 10
19.917102413273071
 20
26.642583265088739
 30
0.0
  0
VERTEX
  5
36E2
  8
DIMENSIONS
 10
20.551270200467311
 20
25.795690510078909
 30
0.0
  0
VERTEX
  5
36E3
  8
DIMENSIONS
 10
20.806327521697529
 20
25.795002511439201
 30
0.0
  0
SEQEND
  5
36E4
  8
DIMENSIONS
  0
ENDBLK
  5
36E6
  8
0
  0
BLOCK
  8
0
  2
*U139
 70
     1
 10
0.0
 20
0.0
 30
0.0
  3
*U139
  1

  0
TEXT
  5
36E8
  8
DIMENSIONS
 10
20.892992986729968
 20
25.749373455923688
 30
0.0
 40
0.125
  1
#5-40 Button Head Screw TYP
  0
ENDBLK
  5
36EA
  8
0
  0
ENDSEC
  0
SECTION
  2
ENTITIES
  0
TEXT
  5
C4
  8
FRAME_TEXT
 10
28.697352482513882
 20
13.94952683626645
 30
0.0
 40
0.125
  1
American Power Design
 72
     1
 11
29.6045713001058
 21
14.01202683626645
 31
0.0
 73
     2
  0
LINE
  5
C5
  8
FRAME
 10
26.454538981841409
 20
14.218683127061681
 30
0.0
 11
26.454538981841409
 21
12.6835221097257
 31
0.0
  0
LINE
  5
C6
  8
FRAME
 10
27.61771867574598
 20
14.218683127061681
 30
0.0
 11
27.617718675745969
 21
13.39205796388077
 31
0.0
  0
LINE
  5
C7
  8
FRAME
 10
28.562433147952731
 20
14.218683127061681
 30
0.0
 11
28.562433147952731
 21
12.6835221097257
 31
0.0
  0
TEXT
  5
C8
  8
FRAME
 10
26.887472363127781
 20
14.088972929133609
 30
0.0
 40
0.0354267927077533
  1
SPECIFIED
 72
     1
 11
27.016817192451551
 21
14.088972929133609
 31
0.0
  0
TEXT
  5
C9
  8
FRAME_TEXT
 10
28.630759191880859
 20
12.888763681425139
 30
0.0
 40
0.09
  1
1:1
  0
LINE
  5
CA
  8
FRAME
 10
28.562433147952731
 20
13.80537054547122
 30
0.0
 11
30.646709452258879
 21
13.80537054547122
 31
0.0
  0
LINE
  5
CB
  8
FRAME
 10
28.562433147952731
 20
13.114548087670039
 30
0.0
 11
30.646709452258879
 21
13.114548087670039
 31
0.0
  0
LINE
  5
CC
  8
FRAME
 10
28.562433147952731
 20
12.82231545483428
 30
0.0
 11
30.646709452258879
 21
12.82231545483428
 31
0.0
  0
TEXT
  5
CD
  8
FRAME
 10
28.6032962195887
 20
13.739427536150689
 30
0.0
 40
0.0354267927077533
  1
TITLE
  0
TEXT
  5
CE
  8
FRAME
 10
28.594450260706221
 20
13.0499966485282
 30
0.0
 40
0.0354267927077533
  1
SCALE
  0
TEXT
  5
CF
  8
FRAME
 10
28.629053570452399
 20
12.733227845812889
 30
0.0
 40
0.0354267927077533
  1
SHEET       OF       
  0
LINE
  5
D0
  8
FRAME
 10
26.454538981841409
 20
13.39205796388077
 30
0.0
 11
28.562433147952731
 21
13.39205796388077
 31
0.0
  0
LINE
  5
D1
  8
FRAME
 10
26.454538981841409
 20
13.037790036803241
 30
0.0
 11
28.562433147952731
 21
13.037790036803241
 31
0.0
  0
TEXT
  5
D4
  8
FRAME
 10
26.568275042057319
 20
13.98802240839653
 30
0.0
 40
0.0354267927077533
  1
DIMENSIONS IN INCHES [MM]
  0
TEXT
  5
D5
  8
FRAME
 10
26.568275042057319
 20
13.806041506803011
 30
0.0
 40
0.0354267927077533
  1
TOLERANCES
  0
TEXT
  5
D6
  8
FRAME
 10
26.537574361229868
 20
13.67086645534965
 30
0.0
 40
0.0354267927077533
  1
FRAC =                          .XX =
  0
TEXT
  5
D7
  8
FRAME
 10
26.539395588058621
 20
13.514870802896819
 30
0.0
 40
0.0354267927077533
  1
.XXX =                         ANGLE =
  0
TEXT
  5
D8
  8
FRAME
 10
26.48890724986861
 20
13.325860394772301
 30
0.0
 40
0.0354267927077533
  1
MATERIAL
  0
TEXT
  5
D9
  8
FRAME
 10
26.48890724986861
 20
12.97660820187318
 30
0.0
 40
0.0354267927077533
  1
FINISH
  0
LINE
  5
DA
  8
FRAME
 10
27.617718675745969
 20
13.52490843653484
 30
0.0
 11
28.562433147952731
 21
13.52490843653484
 31
0.0
  0
LINE
  5
DB
  8
FRAME
 10
27.617718675745969
 20
13.657758909188921
 30
0.0
 11
28.562433147952731
 21
13.657758909188921
 31
0.0
  0
LINE
  5
DC
  8
FRAME
 10
27.617718675745969
 20
13.790609381842989
 30
0.0
 11
28.562433147952731
 21
13.790609381842989
 31
0.0
  0
LINE
  5
DD
  8
FRAME
 10
27.61771867574598
 20
13.92345985449707
 30
0.0
 11
28.562433147952731
 21
13.92345985449707
 31
0.0
  0
LINE
  5
DE
  8
FRAME
 10
27.61771867574598
 20
14.05631032715114
 30
0.0
 11
28.562433147952731
 21
14.05631032715114
 31
0.0
  0
TEXT
  5
DF
  8
FRAME
 10
27.638586979149011
 20
13.835291201321199
 30
0.0
 40
0.0354267927077533
  1
DWN
  0
TEXT
  5
E0
  8
FRAME
 10
27.642702163862321
 20
13.70275125041884
 30
0.0
 40
0.0354267927077533
  1
CHK
  0
TEXT
  5
E1
  8
FRAME
 10
27.642702163862321
 20
13.57460835949901
 30
0.0
 40
0.0354267927077533
  1
CH DR
  0
TEXT
  5
E2
  8
FRAME
 10
27.64733174666479
 20
13.469707071344059
 30
0.0
 40
0.0354267927077533
  1
COG
  0
TEXT
  5
E3
  8
FRAME
 10
27.64733174666479
 20
13.410662416831141
 30
0.0
 40
0.0354267927077533
  1
ENG
  0
TEXT
  5
E4
  8
FRAME
 10
27.856691768954331
 20
13.96280594081494
 30
0.0
 40
0.0531401890616299
  1
APPROVAL
  0
TEXT
  5
E5
  8
FRAME
 10
28.410184112894239
 20
13.44239314619367
 30
0.0
 40
0.0354267927077533
  1
DATE
  0
TEXT
  5
E6
  8
FRAME
 10
28.410184112894239
 20
13.70809409150182
 30
0.0
 40
0.0354267927077533
  1
DATE
  0
TEXT
  5
E7
  8
FRAME
 10
28.410184112894239
 20
13.57524361884775
 30
0.0
 40
0.0354267927077533
  1
DATE
  0
TEXT
  5
E8
  8
FRAME
 10
28.410184112894239
 20
13.840944564155899
 30
0.0
 40
0.0354267927077533
  1
DATE
  0
TEXT
  5
EA
  8
FRAME_TEXT
 10
28.822273440932129
 20
12.703778282222819
 30
0.0
 40
0.1
  1
1  1
  0
LINE
  5
EB
  8
FRAME
 10
28.857656420517351
 20
13.114548087670039
 30
0.0
 11
28.857656420517351
 21
12.82231545483428
 31
0.0
  0
TEXT
  5
EC
  8
FRAME_TEXT
 10
28.93293827559188
 20
12.84907746336148
 30
0.0
 40
0.1476116362823053
  1
D
  0
TEXT
  5
ED
  8
FRAME
 10
29.158510227095238
 20
13.05031435861466
 30
0.0
 40
0.0354267927077533
  1
FILE
  0
LINE
  5
EE
  8
FRAME
 10
29.123357365825498
 20
13.114548087670039
 30
0.0
 11
29.123357365825491
 21
12.82231545483428
 31
0.0
  0
LINE
  5
EF
  8
FRAME
 10
29.701994980052131
 20
12.82231545483428
 30
0.0
 11
29.701994980052131
 21
12.6835221097257
 31
0.0
  0
TEXT
  5
F0
  8
FRAME
 10
29.86202413351403
 20
12.733227845812889
 30
0.0
 40
0.0354267927077533
  1
DO NOT SCALE PRINT
  0
TEXT
  5
F1
  8
FRAME
 10
30.39096043963437
 20
13.0499966485282
 30
0.0
 40
0.0354267927077533
  1
REV.
  0
LINE
  5
F2
  8
FRAME
 10
30.35148617969428
 20
13.114548087670039
 30
0.0
 11
30.35148617969428
 21
12.82231545483428
 31
0.0
  0
LINE
  5
F3
  8
FRAME
 10
26.45453898184142
 20
14.218683127061681
 30
0.0
 11
30.646709452258879
 21
14.218683127061681
 31
0.0
  0
TEXT
  5
F4
  8
FRAME
 10
27.642702163862321
 20
14.13491943156019
 30
0.0
 40
0.0531401890616299
  1
STANDARD
  0
TEXT
  5
F5
  8
FRAME
 10
26.782217183190891
 20
14.15092639599369
 30
0.0
 40
0.0354267927077533
  1
UNLESS OTHERWISE
 72
     1
 11
27.03867191439651
 21
14.15092639599369
 31
0.0
  0
TEXT
  5
F6
  8
FRAME_TEXT
 10
26.757202096569451
 20
13.50446367242704
 30
0.0
 40
0.05
  1
%%p.005
  0
TEXT
  5
F7
  8
FRAME_TEXT
 10
30.459840987620218
 20
12.887976862917579
 30
0.0
 40
0.12
  1
-
  0
TEXT
  5
126
  8
FRAME_TEXT
 10
28.92424717328614
 20
13.39372917370993
 30
0.0
 40
0.125
  1
D100 Dimensions
 72
     1
 11
29.593317108397891
 21
13.45622917370993
 31
0.0
 73
     2
  0
TEXT
  5
4C9
  8
FRAME_TEXT
 10
27.290374541847552
 20
13.665881946633879
 30
0.0
 40
0.05
  1
%%p.05
  0
TEXT
  5
4D0
  8
FRAME_TEXT
 10
26.771739143223179
 20
13.66141386644885
 30
0.0
 40
0.05
  1
%%p1/64
  0
TEXT
  5
4D9
  8
FRAME_TEXT
 10
27.359125217827842
 20
13.505978030148629
 30
0.0
 40
0.05
  1
%%p1°0
  0
TEXT
  5
4DB
  8
FRAME
 10
28.887688288179579
 20
13.0499966485282
 30
0.0
 40
0.0354267927077533
  1
SIZE
  0
TEXT
  5
5DF
  8
FRAME_TEXT
 10
29.389426745133559
 20
12.90798911704344
 30
0.0
 40
0.1
  1
d100_cadd
  0
TEXT
  5
5E6
  8
FRAME_TEXT
 10
27.810685378734579
 20
13.833699792690499
 30
0.0
 40
0.05
  1
CDL    07/99
  0
TEXT
  5
5EC
  8
FRAME_TEXT
 10
27.810685378734579
 20
13.69941576351696
 30
0.0
 40
0.05
  1
NJN    07/99
  0
DIMENSION
  5
FE7
  8
DIMENSIONS
  2
*D4
 10
8.6659673267331012
 20
26.831154771200861
 30
0.0
 11
8.9721371438999
 21
25.99551824142107
 31
0.0
 70
   128
 13
7.8199865752722877
 23
26.206154771200861
 33
0.0
 14
7.2199865752722872
 24
26.831154771200861
 34
0.0
 50
90.0
1001
ACAD
1000
DSTYLE
1002
{
1070
   287
1070
     4
1070
   279
1070
     1
1002
}
  0
DIMENSION
  5
FE8
  8
DIMENSIONS
  2
*D5
 10
8.1457949262640668
 20
26.456154771200861
 30
0.0
 11
8.4164992299932901
 21
25.647250791825261
 31
0.0
 70
   128
 13
7.5399865752722883
 23
26.206154771200868
 33
0.0
 14
7.2199865752722872
 24
26.456154771200868
 34
0.0
 50
90.0
1001
ACAD
1000
DSTYLE
1002
{
1070
   287
1070
     4
1070
   279
1070
     1
1002
}
  0
DIMENSION
  5
FE9
  8
DIMENSIONS
  2
*D6
 10
8.1210999507914607
 20
29.456154771200861
 30
0.0
 11
8.4259168184138034
 21
30.38180570876839
 31
0.0
 70
   128
 13
7.8199865752722877
 23
29.706154771200868
 33
0.0
 14
7.2199865752722872
 24
29.456154771200868
 34
0.0
 50
90.0
1001
ACAD
1000
DSTYLE
1002
{
1070
   287
1070
     4
1070
   279
1070
     1
1002
}
  0
DIMENSION
  5
FEA
  8
DIMENSIONS
  2
*D7
 10
8.6617414190655762
 20
29.081154771200861
 30
0.0
 11
8.8402908665934561
 21
30.075624212399269
 31
0.0
 70
   128
 13
7.5399865752722883
 23
29.706154771200868
 33
0.0
 14
7.2199865752722872
 24
29.081154771200868
 34
0.0
 50
90.0
1001
ACAD
1000
DSTYLE
1002
{
1070
   287
1070
     4
1070
   279
1070
     1
1002
}
  0
DIMENSION
  5
FEB
  8
DIMENSIONS
  2
*D8
 10
8.6617414190655762
 20
26.831154771200861
 30
0.0
 11
8.6617414190655762
 21
27.990996671383058
 31
0.0
 70
   128
  1
6 plc. 0.375" [9.53]
 53
90.0
 13
7.2199865752722872
 23
29.081154771200868
 33
0.0
 14
7.2199865752722872
 24
26.831154771200861
 34
0.0
 50
90.0
1001
ACAD
1000
DSTYLE
1002
{
1070
   287
1070
     5
1070
   279
1070
     2
1002
}
  0
DIMENSION
  5
FEC
  8
DIMENSIONS
  2
*D9
 10
1.6125529461978509
 20
28.706154771200861
 30
0.0
 11
1.411821993030514
 21
29.199609419070921
 31
0.0
 70
   128
 13
2.3199865752722881
 23
29.706154771200868
 33
0.0
 14
2.619986575272292
 24
28.706154771200861
 34
0.0
 50
90.0
1001
ACAD
1000
DSTYLE
1002
{
1070
   287
1070
     4
1070
   279
1070
     1
1002
}
  0
INSERT
  5
FED
  8
DIMENSIONS
  2
*U45
 10
0.0
 20
0.0
 30
0.0
  0
INSERT
  5
FEE
  8
DIMENSIONS
  2
*U46
 10
0.0
 20
0.0
 30
0.0
1001
ACAD
1000
DSTYLE
1002
{
1070
   147
1040
0.09
1070
    77
1070
     0
1002
}
  0
TEXT
  5
FEF
  8
CONVERTER
 10
6.7591891783412867
 20
26.72023719426543
 30
0.0
 40
0.2
  1
14
  0
TEXT
  5
FF0
  8
CONVERTER
 10
6.7591891783412867
 20
27.093939161356278
 30
0.0
 40
0.2
  1
13
  0
TEXT
  5
FF1
  8
CONVERTER
 10
6.7591891783412867
 20
27.49186231831013
 30
0.0
 40
0.2
  1
12
  0
TEXT
  5
FF2
  8
CONVERTER
 10
6.7591891783412867
 20
27.873638031369399
 30
0.0
 40
0.2
  1
11
  0
TEXT
  5
FF3
  8
CONVERTER
 10
6.7591891783412867
 20
28.231192530544568
 30
0.0
 40
0.2
  1
10
  0
TEXT
  5
FF4
  8
CONVERTER
 10
6.7591891783412867
 20
28.596820775688158
 30
0.0
 40
0.2
  1
9
  0
TEXT
  5
FF5
  8
CONVERTER
 10
6.7591891783412867
 20
28.970522766800169
 30
0.0
 40
0.2
  1
8
  0
TEXT
  5
FF6
  8
CONVERTER
 10
3.1268200613218999
 20
26.729008703701481
 30
0.0
 40
0.2
  1
7
  0
TEXT
  5
FF7
  8
CONVERTER
 10
3.1268200613218999
 20
27.094636948845071
 30
0.0
 40
0.2
  1
6
  0
TEXT
  5
FF8
  8
CONVERTER
 10
3.1268200613218999
 20
27.460265193988661
 30
0.0
 40
0.2
  1
5
  0
TEXT
  5
FF9
  8
CONVERTER
 10
3.1268200613218999
 20
27.833967161079521
 30
0.0
 40
0.2
  1
4
  0
TEXT
  5
FFA
  8
CONVERTER
 10
3.1268200613218999
 20
28.215742874138801
 30
0.0
 40
0.2
  1
3
  0
TEXT
  5
FFB
  8
CONVERTER
 10
3.1268200613218999
 20
28.613666031092642
 30
0.0
 40
0.2
  1
2
  0
DIMENSION
  5
FFF
  8
DIMENSIONS
  2
*D10
 10
1.615245955172532
 20
28.706154771200861
 30
0.0
 11
1.615245955172532
 21
27.768654771200861
 31
0.0
 70
   128
  1
5 plc. 0.375" [9.53]
 53
90.0
 13
2.619986575272292
 23
26.831154771200861
 33
0.0
 14
2.619986575272292
 24
28.706154771200861
 34
0.0
 50
90.0
1001
ACAD
1000
DSTYLE
1002
{
1070
   287
1070
     5
1070
   279
1070
     2
1002
}
  0
LINE
  5
1019
  8
CONVERTER
 10
2.5999865752722879
 20
29.706154771200868
 30
0.0
 11
7.5399865752722874
 21
29.706154771200868
 31
0.0
  0
LINE
  5
101A
  8
CONVERTER
 10
7.8199865752722877
 20
29.426154771200871
 30
0.0
 11
7.8199865752722877
 21
26.486154771200869
 31
0.0
  0
LINE
  5
101B
  8
CONVERTER
 10
7.5399865752722883
 20
26.206154771200861
 30
0.0
 11
2.5999865752722879
 21
26.206154771200861
 31
0.0
  0
LINE
  5
101C
  8
CONVERTER
 10
2.3199865752722881
 20
26.486154771200869
 30
0.0
 11
2.3199865752722881
 21
29.426154771200871
 31
0.0
  0
CIRCLE
  5
103E
  8
CONVERTER
 10
2.9199865752722891
 20
26.831154771200861
 30
0.0
 40
0.02
  0
CIRCLE
  5
1057
  8
CONVERTER
 10
2.9199865752722891
 20
27.581154771200868
 30
0.0
 40
0.02
  0
CIRCLE
  5
1058
  8
CONVERTER
 10
2.9199865752722891
 20
27.206154771200868
 30
0.0
 40
0.02
  0
CIRCLE
  5
1067
  8
CONVERTER
 10
2.9199865752722891
 20
27.956154771200868
 30
0.0
 40
0.02
  0
CIRCLE
  5
1079
  8
CONVERTER
 10
2.9199865752722891
 20
28.331154771200868
 30
0.0
 40
0.02
  0
CIRCLE
  5
108E
  8
CONVERTER
 10
2.9199865752722891
 20
28.706154771200861
 30
0.0
 40
0.02
  0
CIRCLE
  5
1093
  8
CONVERTER
 10
7.2199865752722872
 20
26.456154771200868
 30
0.0
 40
0.056
  0
CIRCLE
  5
1094
  8
CONVERTER
 10
7.2199865752722872
 20
26.831154771200861
 30
0.0
 40
0.02
  0
CIRCLE
  5
1095
  8
CONVERTER
 10
7.2199865752722872
 20
27.206154771200868
 30
0.0
 40
0.02
  0
CIRCLE
  5
1096
  8
CONVERTER
 10
7.2199865752722872
 20
27.581154771200868
 30
0.0
 40
0.02
  0
CIRCLE
  5
1097
  8
CONVERTER
 10
7.2199865752722872
 20
27.956154771200868
 30
0.0
 40
0.02
  0
CIRCLE
  5
1098
  8
CONVERTER
 10
7.2199865752722872
 20
28.331154771200868
 30
0.0
 40
0.02
  0
CIRCLE
  5
1099
  8
CONVERTER
 10
7.2199865752722872
 20
28.706154771200861
 30
0.0
 40
0.02
  0
CIRCLE
  5
109A
  8
CONVERTER
 10
7.2199865752722872
 20
29.456154771200868
 30
0.0
 40
0.056
  0
CIRCLE
  5
109B
  8
CONVERTER
 10
7.2199865752722872
 20
29.081154771200868
 30
0.0
 40
0.02
  0
LINE
  5
109C
  8
CONVERTER
 10
2.3199865752722881
 20
22.65823375318687
 30
0.0
 11
7.8199865752722877
 21
22.65823375318687
 31
0.0
  0
LINE
  5
109D
  8
CONVERTER
 10
2.3199865752722881
 20
22.65823375318687
 30
0.0
 11
2.3199865752722881
 21
21.838233753186881
 31
0.0
  0
LINE
  5
109E
  8
CONVERTER
 10
7.8199865752722877
 20
22.65823375318687
 30
0.0
 11
7.8199865752722877
 21
21.838233753186859
 31
0.0
  0
DIMENSION
  5
10F7
  8
DIMENSIONS
  2
*D11
 10
2.9199865752722891
 20
30.1257403031635
 30
0.0
 11
3.6239465608526791
 21
30.1257403031635
 31
0.0
 70
   128
 13
2.3199865752722881
 23
29.706154771200868
 33
0.0
 14
2.9199865752722891
 24
29.456154771200868
 34
0.0
  0
DIMENSION
  5
10F8
  8
DIMENSIONS
  2
*D12
 10
7.2199865752722872
 20
30.551112069812451
 30
0.0
 11
4.769986575272287
 21
30.551112069812451
 31
0.0
 70
   128
 13
2.3199865752722881
 23
29.706154771200868
 33
0.0
 14
7.2199865752722872
 24
29.456154771200868
 34
0.0
  0
DIMENSION
  5
10F9
  8
DIMENSIONS
  2
*D13
 10
7.8199865752722877
 20
30.952852077342008
 30
0.0
 11
5.0699865752722877
 21
30.952852077342008
 31
0.0
 70
   128
 13
2.3199865752722881
 23
29.426154771200871
 33
0.0
 14
7.8199865752722877
 24
29.426154771200871
 34
0.0
  0
DIMENSION
  5
10FA
  8
DIMENSIONS
  2
*D14
 10
1.992619007613907
 20
29.456154771200868
 30
0.0
 11
1.740608192372761
 21
30.124031809511902
 31
0.0
 70
   128
 13
2.3199865752722881
 23
29.706154771200868
 33
0.0
 14
2.9199865752722891
 24
29.456154771200868
 34
0.0
 50
90.0
1001
ACAD
1000
DSTYLE
1002
{
1070
   287
1070
     4
1070
   279
1070
     1
1002
}
  0
CIRCLE
  5
12D1
  8
CONVERTER
 10
2.9199865752722891
 20
29.456154771200868
 30
0.0
 40
0.056
  0
CIRCLE
  5
12D2
  8
CONVERTER
 10
2.9199865752722891
 20
26.456154771200868
 30
0.0
 40
0.056
  0
LINE
  5
12D4
  8
CONVERTER
 10
2.4199865752722891
 20
21.76823375318688
 30
0.0
 11
7.7199865752722872
 21
21.76823375318687
 31
0.0
  0
LINE
  5
12D5
  8
CONVERTER
 10
7.1999865752722911
 20
22.85823375318687
 30
0.0
 11
7.1999865752722911
 21
22.65823375318687
 31
0.0
  0
LINE
  5
12D6
  8
CONVERTER
 10
7.2399865752722903
 20
22.85823375318687
 30
0.0
 11
7.2399865752722903
 21
22.65823375318687
 31
0.0
  0
LINE
  5
12D7
  8
CONVERTER
 10
2.8999865752722931
 20
22.85823375318687
 30
0.0
 11
2.8999865752722931
 21
22.65823375318687
 31
0.0
  0
LINE
  5
12D8
  8
CONVERTER
 10
2.9399865752722931
 20
22.85823375318687
 30
0.0
 11
2.9399865752722931
 21
22.65823375318687
 31
0.0
  0
LINE
  5
12DF
  8
FRAME
 10
30.646709452258872
 20
34.683522109725708
 30
0.0
 11
30.646709452258879
 21
12.6835221097257
 31
0.0
  0
ARC
  5
1377
  8
CONVERTER
 10
2.4199865752722891
 20
21.868233753186878
 30
0.0
 40
0.1
 50
180.0
 51
270.0
  0
ARC
  5
1378
  8
CONVERTER
 10
7.7199865752722872
 20
21.868233753186871
 30
0.0
 40
0.1
 50
269.99999999999989
 51
0.0
  0
LINE
  5
137A
  8
CONVERTER
 10
0.7806567735907209
 20
22.65823375318687
 30
0.0
 11
-2.7193432264092792
 21
22.65823375318687
 31
0.0
  0
LINE
  5
1396
  8
CONVERTER
 10
-2.7193432264092792
 20
22.65823375318687
 30
0.0
 11
-2.7193432264092792
 21
21.83823375318687
 31
0.0
  0
LINE
  5
1397
  8
CONVERTER
 10
-2.6193432264092769
 20
21.76823375318688
 30
0.0
 11
0.6806567735907194
 21
21.76823375318687
 31
0.0
  0
LINE
  5
1398
  8
CONVERTER
 10
0.7806567735907209
 20
21.838233753186859
 30
0.0
 11
0.7806567735907209
 21
22.65823375318687
 31
0.0
  0
ARC
  5
1399
  8
CONVERTER
 10
-2.6193432264092769
 20
21.868233753186878
 30
0.0
 40
0.1
 50
180.0
 51
270.0
  0
ARC
  5
139A
  8
CONVERTER
 10
0.6806567735907194
 20
21.868233753186871
 30
0.0
 40
0.1
 50
270.0
 51
0.0
  0
LINE
  5
13A0
  8
CONVERTER
 10
-2.1143432264092779
 20
22.90823375318687
 30
0.0
 11
-2.0743432264092792
 21
22.90823375318687
 31
0.0
  0
LINE
  5
13A1
  8
CONVERTER
 10
-2.0743432264092792
 20
22.90823375318687
 30
0.0
 11
-2.0743432264092792
 21
22.65823375318687
 31
0.0
  0
LINE
  5
13A2
  8
CONVERTER
 10
-2.1143432264092779
 20
22.90823375318687
 30
0.0
 11
-2.1143432264092779
 21
22.65823375318687
 31
0.0
  0
LINE
  5
13A3
  8
CONVERTER
 10
-1.7393432264092781
 20
22.90823375318687
 30
0.0
 11
-1.7393432264092781
 21
22.65823375318687
 31
0.0
  0
LINE
  5
13A4
  8
CONVERTER
 10
-1.6993432264092789
 20
22.90823375318687
 30
0.0
 11
-1.6993432264092789
 21
22.65823375318687
 31
0.0
  0
LINE
  5
13A5
  8
CONVERTER
 10
-1.7393432264092781
 20
22.90823375318687
 30
0.0
 11
-1.6993432264092789
 21
22.90823375318687
 31
0.0
  0
LINE
  5
13A6
  8
CONVERTER
 10
-1.3643432264092781
 20
22.90823375318687
 30
0.0
 11
-1.3643432264092781
 21
22.65823375318687
 31
0.0
  0
LINE
  5
13A7
  8
CONVERTER
 10
-1.3243432264092789
 20
22.90823375318687
 30
0.0
 11
-1.3243432264092789
 21
22.65823375318687
 31
0.0
  0
LINE
  5
13A8
  8
CONVERTER
 10
-1.3643432264092781
 20
22.90823375318687
 30
0.0
 11
-1.3243432264092789
 21
22.90823375318687
 31
0.0
  0
LINE
  5
13A9
  8
CONVERTER
 10
-0.9893432264092787
 20
22.90823375318687
 30
0.0
 11
-0.9893432264092787
 21
22.65823375318687
 31
0.0
  0
LINE
  5
13AA
  8
CONVERTER
 10
-0.9493432264092795
 20
22.90823375318687
 30
0.0
 11
-0.9493432264092795
 21
22.65823375318687
 31
0.0
  0
LINE
  5
13AB
  8
CONVERTER
 10
-0.9893432264092787
 20
22.90823375318687
 30
0.0
 11
-0.9493432264092795
 21
22.90823375318687
 31
0.0
  0
LINE
  5
13AC
  8
CONVERTER
 10
-0.6143432264092789
 20
22.90823375318687
 30
0.0
 11
-0.6143432264092789
 21
22.65823375318687
 31
0.0
  0
LINE
  5
13AD
  8
CONVERTER
 10
-0.5743432264092796
 20
22.90823375318687
 30
0.0
 11
-0.5743432264092796
 21
22.65823375318687
 31
0.0
  0
LINE
  5
13AE
  8
CONVERTER
 10
-0.6143432264092789
 20
22.90823375318687
 30
0.0
 11
-0.5743432264092796
 21
22.90823375318687
 31
0.0
  0
LINE
  5
13AF
  8
CONVERTER
 10
-0.2393432264092787
 20
22.90823375318687
 30
0.0
 11
-0.2393432264092787
 21
22.65823375318687
 31
0.0
  0
LINE
  5
13B0
  8
CONVERTER
 10
-0.1993432264092796
 20
22.90823375318687
 30
0.0
 11
-0.1993432264092796
 21
22.65823375318687
 31
0.0
  0
LINE
  5
13B1
  8
CONVERTER
 10
-0.2393432264092787
 20
22.90823375318687
 30
0.0
 11
-0.1993432264092796
 21
22.90823375318687
 31
0.0
  0
LINE
  5
13B2
  8
CONVERTER
 10
0.1356567735907213
 20
22.90823375318687
 30
0.0
 11
0.1356567735907213
 21
22.65823375318687
 31
0.0
  0
LINE
  5
13B3
  8
CONVERTER
 10
0.1756567735907204
 20
22.90823375318687
 30
0.0
 11
0.1756567735907204
 21
22.65823375318687
 31
0.0
  0
LINE
  5
13B4
  8
CONVERTER
 10
0.1356567735907213
 20
22.90823375318687
 30
0.0
 11
0.1756567735907204
 21
22.90823375318687
 31
0.0
  0
LINE
  5
13D0
  8
CONVERTER
 10
2.8999865752722931
 20
22.85823375318687
 30
0.0
 11
2.9399865752722931
 21
22.85823375318687
 31
0.0
  0
LINE
  5
13D1
  8
CONVERTER
 10
7.1999865752722911
 20
22.85823375318687
 30
0.0
 11
7.2399865752722903
 21
22.85823375318687
 31
0.0
  0
INSERT
  5
13D2
  8
DIMENSIONS
  2
*U47
 10
0.0
 20
0.0
 30
0.0
1001
ACAD
1000
DSTYLE
1002
{
1070
   147
1040
0.09
1070
    77
1070
     0
1002
}
  0
INSERT
  5
13D3
  8
DIMENSIONS
  2
*U48
 10
0.0
 20
0.0
 30
0.0
  0
DIMENSION
  5
13F0
  8
DIMENSIONS
  2
*D15
 10
1.6489082063437339
 20
22.85823375318687
 30
0.0
 11
2.306725437778482
 21
23.21833866388355
 31
0.0
 70
   128
 13
2.3199865752722881
 23
22.65823375318687
 33
0.0
 14
2.8999865752722931
 24
22.85823375318687
 34
0.0
 50
90.0
  0
INSERT
  5
1412
  8
DIMENSIONS
  2
*U49
 10
0.0
 20
0.0
 30
0.0
  0
LINE
  5
1413
  8
FRAME
 10
30.646709452258879
 20
12.6835221097257
 30
0.0
 11
-3.3532905477411239
 21
12.683522109725709
 31
0.0
  0
LINE
  5
1414
  8
FRAME
 10
-3.3532905477411239
 20
12.683522109725709
 30
0.0
 11
-3.353290547741123
 21
34.683522109725708
 31
0.0
  0
LINE
  5
1415
  8
FRAME
 10
-3.353290547741123
 20
34.683522109725708
 30
0.0
 11
30.646709452258879
 21
34.683522109725708
 31
0.0
  0
LINE
  5
1418
  8
CONVERTER
 10
10.004316376953851
 20
22.90823375318687
 30
0.0
 11
9.9643163769538567
 21
22.90823375318687
 31
0.0
  0
LINE
  5
1419
  8
CONVERTER
 10
9.9643163769538567
 20
22.90823375318687
 30
0.0
 11
9.9643163769538567
 21
22.65823375318687
 31
0.0
  0
LINE
  5
141A
  8
CONVERTER
 10
10.004316376953851
 20
22.90823375318687
 30
0.0
 11
10.004316376953851
 21
22.65823375318687
 31
0.0
  0
LINE
  5
141B
  8
CONVERTER
 10
10.379316376953851
 20
22.90823375318687
 30
0.0
 11
10.33931637695385
 21
22.90823375318687
 31
0.0
  0
LINE
  5
141C
  8
CONVERTER
 10
10.33931637695385
 20
22.90823375318687
 30
0.0
 11
10.33931637695385
 21
22.65823375318687
 31
0.0
  0
LINE
  5
141D
  8
CONVERTER
 10
10.379316376953851
 20
22.90823375318687
 30
0.0
 11
10.379316376953851
 21
22.65823375318687
 31
0.0
  0
LINE
  5
141E
  8
CONVERTER
 10
10.754316376953851
 20
22.90823375318687
 30
0.0
 11
10.71431637695385
 21
22.90823375318687
 31
0.0
  0
LINE
  5
141F
  8
CONVERTER
 10
10.71431637695385
 20
22.90823375318687
 30
0.0
 11
10.71431637695385
 21
22.65823375318687
 31
0.0
  0
LINE
  5
1420
  8
CONVERTER
 10
10.754316376953851
 20
22.90823375318687
 30
0.0
 11
10.754316376953851
 21
22.65823375318687
 31
0.0
  0
LINE
  5
1421
  8
CONVERTER
 10
11.129316376953851
 20
22.90823375318687
 30
0.0
 11
11.08931637695385
 21
22.90823375318687
 31
0.0
  0
LINE
  5
1422
  8
CONVERTER
 10
11.08931637695385
 20
22.90823375318687
 30
0.0
 11
11.08931637695385
 21
22.65823375318687
 31
0.0
  0
LINE
  5
1423
  8
CONVERTER
 10
11.129316376953851
 20
22.90823375318687
 30
0.0
 11
11.129316376953851
 21
22.65823375318687
 31
0.0
  0
LINE
  5
1424
  8
CONVERTER
 10
11.504316376953851
 20
22.90823375318687
 30
0.0
 11
11.46431637695386
 21
22.90823375318687
 31
0.0
  0
LINE
  5
1425
  8
CONVERTER
 10
11.46431637695386
 20
22.90823375318687
 30
0.0
 11
11.46431637695386
 21
22.65823375318687
 31
0.0
  0
LINE
  5
1426
  8
CONVERTER
 10
11.504316376953851
 20
22.90823375318687
 30
0.0
 11
11.504316376953851
 21
22.65823375318687
 31
0.0
  0
LINE
  5
1427
  8
CONVERTER
 10
11.879316376953851
 20
22.90823375318687
 30
0.0
 11
11.83931637695385
 21
22.90823375318687
 31
0.0
  0
LINE
  5
1428
  8
CONVERTER
 10
11.83931637695385
 20
22.90823375318687
 30
0.0
 11
11.83931637695385
 21
22.65823375318687
 31
0.0
  0
LINE
  5
1429
  8
CONVERTER
 10
11.879316376953851
 20
22.90823375318687
 30
0.0
 11
11.879316376953851
 21
22.65823375318687
 31
0.0
  0
LINE
  5
142A
  8
CONVERTER
 10
12.254316376953851
 20
22.90823375318687
 30
0.0
 11
12.254316376953851
 21
22.65823375318687
 31
0.0
  0
LINE
  5
142B
  8
CONVERTER
 10
12.21431637695385
 20
22.90823375318687
 30
0.0
 11
12.21431637695385
 21
22.65823375318687
 31
0.0
  0
LINE
  5
142C
  8
CONVERTER
 10
12.254316376953851
 20
22.90823375318687
 30
0.0
 11
12.21431637695385
 21
22.90823375318687
 31
0.0
  0
ARC
  5
142D
  8
CONVERTER
 10
9.4593163769538577
 20
21.868233753186871
 30
0.0
 40
0.1
 50
180.0
 51
270.0
  0
ARC
  5
142E
  8
CONVERTER
 10
12.75931637695385
 20
21.868233753186878
 30
0.0
 40
0.1
 50
270.0
 51
0.000000000000007
  0
LINE
  5
142F
  8
CONVERTER
 10
9.3593163769538563
 20
21.838233753186859
 30
0.0
 11
9.3593163769538563
 21
22.65823375318687
 31
0.0
  0
LINE
  5
1430
  8
CONVERTER
 10
12.75931637695385
 20
21.76823375318688
 30
0.0
 11
9.4593163769538577
 21
21.76823375318687
 31
0.0
  0
LINE
  5
1431
  8
CONVERTER
 10
12.859316376953849
 20
22.65823375318687
 30
0.0
 11
12.859316376953849
 21
21.83823375318687
 31
0.0
  0
LINE
  5
1432
  8
CONVERTER
 10
9.3593163769538563
 20
22.65823375318687
 30
0.0
 11
12.859316376953849
 21
22.65823375318687
 31
0.0
  0
INSERT
  5
1506
  8
DIMENSIONS
  2
*U50
 10
0.0
 20
0.0
 30
0.0
  0
INSERT
  5
1507
  8
DIMENSIONS
  2
*U51
 10
0.0
 20
0.0
 30
0.0
  0
INSERT
  5
150A
  8
DIMENSIONS
  2
*U52
 10
0.0
 20
0.0
 30
0.0
  0
INSERT
  5
150B
  8
DIMENSIONS
  2
*U53
 10
0.0
 20
0.0
 30
0.0
  0
LINE
  5
150C
  8
GRID
 10
10.433260069935081
 20
15.85563047964796
 30
0.0
 11
5.2171307184087041
 21
15.85563047964796
 31
0.0
  0
LINE
  5
150D
  8
GRID
 10
10.433260069935081
 20
15.50514496015378
 30
0.0
 11
5.2171307184087041
 21
15.50514496015378
 31
0.0
  0
LINE
  5
150E
  8
GRID
 10
5.2171307184087041
 20
18.309029116107212
 30
0.0
 11
10.433260069935081
 21
18.309029116107201
 31
0.0
  0
LINE
  5
150F
  8
GRID
 10
7.460639599958049
 20
18.309029116107212
 30
0.0
 11
7.460639599958057
 21
14.103202882177071
 31
0.0
  0
LINE
  5
1510
  8
GRID
 10
5.2171307184087041
 20
18.309029116107212
 30
0.0
 11
5.2171307184087041
 21
14.103202882177071
 31
0.0
  0
INSERT
  5
1511
  8
DIMENSIONS
  2
*U54
 10
0.0
 20
0.0
 30
0.0
  0
LINE
  5
1512
  8
GRID
 10
10.433260069935081
 20
17.958543596613019
 30
0.0
 11
5.2171307184087041
 21
17.95854359661303
 31
0.0
  0
LINE
  5
1513
  8
GRID
 10
5.9743293649695337
 20
18.309029116107212
 30
0.0
 11
5.9743293649695337
 21
14.103202882177071
 31
0.0
  0
INSERT
  5
1514
  8
DIMENSIONS
  2
*U55
 10
0.0
 20
0.0
 30
0.0
  0
LINE
  5
1515
  8
GRID
 10
10.433260069935081
 20
17.608058077118841
 30
0.0
 11
5.2171307184087041
 21
17.608058077118852
 31
0.0
  0
LINE
  5
1516
  8
GRID
 10
10.433260069935081
 20
17.25757255762467
 30
0.0
 11
5.2171307184087041
 21
17.25757255762467
 31
0.0
  0
LINE
  5
1517
  8
GRID
 10
10.433260069935081
 20
16.907087038130491
 30
0.0
 11
5.2171307184087041
 21
16.907087038130491
 31
0.0
  0
LINE
  5
1518
  8
GRID
 10
10.433260069935081
 20
16.55660151863631
 30
0.0
 11
5.2171307184087041
 21
16.55660151863632
 31
0.0
  0
INSERT
  5
1519
  8
DIMENSIONS
  2
*U56
 10
0.0
 20
0.0
 30
0.0
  0
INSERT
  5
151A
  8
DIMENSIONS
  2
*U57
 10
0.0
 20
0.0
 30
0.0
  0
INSERT
  5
151B
  8
DIMENSIONS
  2
*U58
 10
0.0
 20
0.0
 30
0.0
  0
INSERT
  5
151C
  8
DIMENSIONS
  2
*U59
 10
0.0
 20
0.0
 30
0.0
  0
INSERT
  5
151D
  8
DIMENSIONS
  2
*U60
 10
0.0
 20
0.0
 30
0.0
  0
INSERT
  5
151E
  8
DIMENSIONS
  2
*U61
 10
0.0
 20
0.0
 30
0.0
  0
INSERT
  5
151F
  8
DIMENSIONS
  2
*U62
 10
0.0
 20
0.0
 30
0.0
  0
INSERT
  5
1520
  8
DIMENSIONS
  2
*U63
 10
0.0
 20
0.0
 30
0.0
  0
LINE
  5
1521
  8
GRID
 10
10.433260069935081
 20
16.206115999142138
 30
0.0
 11
5.2171307184087041
 21
16.206115999142138
 31
0.0
  0
INSERT
  5
1522
  8
DIMENSIONS
  2
*U64
 10
0.0
 20
0.0
 30
0.0
  0
INSERT
  5
1523
  8
DIMENSIONS
  2
*U65
 10
0.0
 20
0.0
 30
0.0
  0
LINE
  5
1524
  8
GRID
 10
8.9469498349465653
 20
18.309029116107212
 30
0.0
 11
8.9469498349465653
 21
14.103202882177071
 31
0.0
  0
INSERT
  5
1526
  8
DIMENSIONS
  2
*U66
 10
0.0
 20
0.0
 30
0.0
  0
INSERT
  5
152A
  8
DIMENSIONS
  2
*U67
 10
0.0
 20
0.0
 30
0.0
  0
INSERT
  5
152C
  8
DIMENSIONS
  2
*U68
 10
0.0
 20
0.0
 30
0.0
  0
INSERT
  5
152F
  8
DIMENSIONS
  2
*U69
 10
0.0
 20
0.0
 30
0.0
  0
LINE
  5
1530
  8
GRID
 10
10.433260069935081
 20
18.309029116107212
 30
0.0
 11
10.433260069935089
 21
14.103202882177071
 31
0.0
  0
INSERT
  5
1539
  8
DIMENSIONS
  2
*U70
 10
0.0
 20
0.0
 30
0.0
  0
INSERT
  5
153A
  8
DIMENSIONS
  2
*U71
 10
0.0
 20
0.0
 30
0.0
  0
INSERT
  5
153B
  8
DIMENSIONS
  2
*U72
 10
0.0
 20
0.0
 30
0.0
  0
INSERT
  5
153C
  8
DIMENSIONS
  2
*U73
 10
0.0
 20
0.0
 30
0.0
  0
INSERT
  5
153F
  8
DIMENSIONS
  2
*U74
 10
0.0
 20
0.0
 30
0.0
  0
INSERT
  5
1540
  8
DIMENSIONS
  2
*U75
 10
0.0
 20
0.0
 30
0.0
  0
LINE
  5
1541
  8
GRID
 10
10.433260069935081
 20
14.45368840167124
 30
0.0
 11
5.2171307184087041
 21
14.45368840167124
 31
0.0
  0
LINE
  5
1542
  8
GRID
 10
10.433260069935081
 20
15.1546594406596
 30
0.0
 11
5.2171307184087041
 21
15.1546594406596
 31
0.0
  0
LINE
  5
1543
  8
GRID
 10
10.433260069935081
 20
14.80417392116542
 30
0.0
 11
5.2171307184087112
 21
14.80417392116542
 31
0.0
  0
LINE
  5
1544
  8
GRID
 10
10.433260069935081
 20
14.103202882177071
 30
0.0
 11
5.2171307184087112
 21
14.103202882177071
 31
0.0
  0
INSERT
  5
1545
  8
DIMENSIONS
  2
*U76
 10
0.0
 20
0.0
 30
0.0
  0
INSERT
  5
1547
  8
DIMENSIONS
  2
*U77
 10
0.0
 20
0.0
 30
0.0
  0
INSERT
  5
1549
  8
DIMENSIONS
  2
*U78
 10
0.0
 20
0.0
 30
0.0
  0
INSERT
  5
154A
  8
DIMENSIONS
  2
*U79
 10
0.0
 20
0.0
 30
0.0
  0
INSERT
  5
154B
  8
DIMENSIONS
  2
*U80
 10
0.0
 20
0.0
 30
0.0
  0
INSERT
  5
154C
  8
DIMENSIONS
  2
*U81
 10
0.0
 20
0.0
 30
0.0
  0
INSERT
  5
154D
  8
DIMENSIONS
  2
*U82
 10
0.0
 20
0.0
 30
0.0
  0
INSERT
  5
154E
  8
DIMENSIONS
  2
*U83
 10
0.0
 20
0.0
 30
0.0
  0
INSERT
  5
154F
  8
DIMENSIONS
  2
*U84
 10
0.0
 20
0.0
 30
0.0
  0
INSERT
  5
1550
  8
DIMENSIONS
  2
*U85
 10
0.0
 20
0.0
 30
0.0
  0
INSERT
  5
1551
  8
DIMENSIONS
  2
*U86
 10
0.0
 20
0.0
 30
0.0
  0
INSERT
  5
1552
  8
DIMENSIONS
  2
*U87
 10
0.0
 20
0.0
 30
0.0
  0
INSERT
  5
1553
  8
DIMENSIONS
  2
*U88
 10
0.0
 20
0.0
 30
0.0
  0
INSERT
  5
1554
  8
DIMENSIONS
  2
*U89
 10
0.0
 20
0.0
 30
0.0
  0
INSERT
  5
1555
  8
DIMENSIONS
  2
*U90
 10
0.0
 20
0.0
 30
0.0
  0
INSERT
  5
1556
  8
DIMENSIONS
  2
*U91
 10
0.0
 20
0.0
 30
0.0
  0
INSERT
  5
1557
  8
DIMENSIONS
  2
*U92
 10
0.0
 20
0.0
 30
0.0
  0
INSERT
  5
1558
  8
DIMENSIONS
  2
*U93
 10
0.0
 20
0.0
 30
0.0
  0
INSERT
  5
1559
  8
DIMENSIONS
  2
*U94
 10
0.0
 20
0.0
 30
0.0
  0
INSERT
  5
155A
  8
DIMENSIONS
  2
*U95
 10
0.0
 20
0.0
 30
0.0
  0
INSERT
  5
155B
  8
DIMENSIONS
  2
*U96
 10
0.0
 20
0.0
 30
0.0
  0
INSERT
  5
155C
  8
DIMENSIONS
  2
*U97
 10
0.0
 20
0.0
 30
0.0
  0
LINE
  5
157C
  8
CONVERTER
 10
26.512762130927019
 20
22.65823375318687
 30
0.0
 11
30.012762130927019
 21
22.65823375318687
 31
0.0
  0
LINE
  5
157D
  8
CONVERTER
 10
30.012762130927019
 20
22.65823375318687
 30
0.0
 11
30.012762130927019
 21
21.83823375318687
 31
0.0
  0
LINE
  5
157E
  8
CONVERTER
 10
29.912762130927021
 20
21.76823375318688
 30
0.0
 11
26.612762130927031
 21
21.76823375318687
 31
0.0
  0
LINE
  5
157F
  8
CONVERTER
 10
26.512762130927019
 20
21.838233753186859
 30
0.0
 11
26.512762130927019
 21
22.65823375318687
 31
0.0
  0
ARC
  5
1580
  8
CONVERTER
 10
29.912762130927021
 20
21.868233753186878
 30
0.0
 40
0.1
 50
270.0
 51
0.000000000000007
  0
ARC
  5
1581
  8
CONVERTER
 10
26.612762130927031
 20
21.868233753186871
 30
0.0
 40
0.1
 50
180.0
 51
270.0
  0
ARC
  5
15B7
  8
CONVERTER
 10
17.834102527563878
 20
21.868233753186871
 30
0.0
 40
0.1
 50
270.0
 51
0.0
  0
ARC
  5
15B8
  8
CONVERTER
 10
14.53410252756389
 20
21.868233753186878
 30
0.0
 40
0.1
 50
180.0
 51
270.0
  0
LINE
  5
15B9
  8
CONVERTER
 10
17.934102527563891
 20
21.838233753186859
 30
0.0
 11
17.934102527563891
 21
22.65823375318687
 31
0.0
  0
LINE
  5
15BA
  8
CONVERTER
 10
14.53410252756389
 20
21.76823375318688
 30
0.0
 11
17.834102527563878
 21
21.76823375318687
 31
0.0
  0
LINE
  5
15BB
  8
CONVERTER
 10
14.434102527563891
 20
22.65823375318687
 30
0.0
 11
14.434102527563891
 21
21.83823375318687
 31
0.0
  0
LINE
  5
15BC
  8
CONVERTER
 10
17.934102527563891
 20
22.65823375318687
 30
0.0
 11
14.434102527563891
 21
22.65823375318687
 31
0.0
  0
ARC
  5
15BD
  8
CONVERTER
 10
24.87343232924545
 20
21.868233753186871
 30
0.0
 40
0.1
 50
269.99999999999989
 51
0.0
  0
ARC
  5
15BE
  8
CONVERTER
 10
19.573432329245449
 20
21.868233753186878
 30
0.0
 40
0.1
 50
180.0
 51
270.0
  0
LINE
  5
15C3
  8
CONVERTER
 10
19.573432329245449
 20
21.76823375318688
 30
0.0
 11
24.87343232924545
 21
21.76823375318687
 31
0.0
  0
DIMENSION
  5
15C8
  8
DIMENSIONS
  2
*D24
 10
19.05606476158707
 20
29.456154771200868
 30
0.0
 11
18.749621934127131
 21
30.124031809511902
 31
0.0
 70
   128
 13
19.473432329245451
 23
29.706154771200868
 33
0.0
 14
20.073432329245449
 24
29.456154771200868
 34
0.0
 50
90.0
1001
ACAD
1000
DSTYLE
1002
{
1070
   287
1070
     4
1070
   279
1070
     1
1002
}
  0
DIMENSION
  5
15CB
  8
DIMENSIONS
  2
*D23
 10
20.073432329245449
 20
30.125399081037191
 30
0.0
 11
20.77739231482585
 21
30.125399081037191
 31
0.0
 70
   128
 13
19.473432329245451
 23
29.426154771200871
 33
0.0
 14
20.073432329245449
 24
29.456154771200868
 34
0.0
  0
LINE
  5
15CC
  8
CONVERTER
 10
24.973432329245458
 20
22.65823375318687
 30
0.0
 11
24.973432329245458
 21
21.838233753186859
 31
0.0
  0
LINE
  5
15CD
  8
CONVERTER
 10
19.473432329245451
 20
22.65823375318687
 30
0.0
 11
19.473432329245451
 21
21.838233753186881
 31
0.0
  0
LINE
  5
15CE
  8
CONVERTER
 10
19.473432329245451
 20
22.65823375318687
 30
0.0
 11
24.973432329245458
 21
22.65823375318687
 31
0.0
  0
LINE
  5
15DE
  8
CONVERTER
 10
19.473432329245451
 20
26.486154771200869
 30
0.0
 11
19.473432329245451
 21
29.426154771200871
 31
0.0
  0
LINE
  5
15DF
  8
CONVERTER
 10
24.693432329245461
 20
26.206154771200861
 30
0.0
 11
19.753432329245449
 21
26.206154771200861
 31
0.0
  0
LINE
  5
15E0
  8
CONVERTER
 10
24.973432329245458
 20
29.426154771200871
 30
0.0
 11
24.973432329245458
 21
26.486154771200869
 31
0.0
  0
LINE
  5
15E1
  8
CONVERTER
 10
19.753432329245449
 20
29.706154771200868
 30
0.0
 11
24.693432329245461
 21
29.706154771200868
 31
0.0
  0
DIMENSION
  5
15E2
  8
DIMENSIONS
  2
*D22
 10
18.53022093736357
 20
28.706154771200861
 30
0.0
 11
18.538782078963521
 21
27.76920402645278
 31
0.0
 70
   128
  1
5 plc. 0.375" [9.53]
 53
90.0
 13
19.773432329245459
 23
26.831154771200861
 33
0.0
 14
19.773432329245459
 24
28.706154771200861
 34
0.0
 50
90.0
1001
ACAD
1000
DSTYLE
1002
{
1070
   287
1070
     5
1070
   279
1070
     2
1002
}
  0
TEXT
  5
15E3
  8
CONVERTER
 10
20.542969870484729
 20
28.613666031092642
 30
0.0
 40
0.2
  1
2
  0
TEXT
  5
15E4
  8
CONVERTER
 10
20.542969870484729
 20
28.215742874138801
 30
0.0
 40
0.2
  1
3
  0
TEXT
  5
15E5
  8
CONVERTER
 10
20.542969870484729
 20
27.833967161079521
 30
0.0
 40
0.2
  1
4
  0
TEXT
  5
15E6
  8
CONVERTER
 10
20.542969870484729
 20
27.460265193988661
 30
0.0
 40
0.2
  1
5
  0
TEXT
  5
15E7
  8
CONVERTER
 10
20.542969870484729
 20
27.094636948845071
 30
0.0
 40
0.2
  1
6
  0
TEXT
  5
15E8
  8
CONVERTER
 10
20.542969870484729
 20
26.729008703701481
 30
0.0
 40
0.2
  1
7
  0
TEXT
  5
15E9
  8
CONVERTER
 10
23.706444419156441
 20
28.970522766800169
 30
0.0
 40
0.2
  1
8
  0
TEXT
  5
15EA
  8
CONVERTER
 10
23.706444419156441
 20
28.596820775688158
 30
0.0
 40
0.2
  1
9
  0
TEXT
  5
15EB
  8
CONVERTER
 10
23.706444419156441
 20
28.231192530544568
 30
0.0
 40
0.2
  1
10
  0
TEXT
  5
15EC
  8
CONVERTER
 10
23.706444419156441
 20
27.873638031369399
 30
0.0
 40
0.2
  1
11
  0
TEXT
  5
15ED
  8
CONVERTER
 10
23.706444419156441
 20
27.49186231831013
 30
0.0
 40
0.2
  1
12
  0
TEXT
  5
15EE
  8
CONVERTER
 10
23.706444419156441
 20
27.093939161356278
 30
0.0
 40
0.2
  1
13
  0
TEXT
  5
15EF
  8
CONVERTER
 10
23.706444419156441
 20
26.72023719426543
 30
0.0
 40
0.2
  1
14
  0
INSERT
  5
15F0
  8
DIMENSIONS
  2
*U98
 10
0.0
 20
0.0
 30
0.0
1001
ACAD
1000
DSTYLE
1002
{
1070
   147
1040
0.09
1070
    77
1070
     0
1002
}
  0
INSERT
  5
15F1
  8
DIMENSIONS
  2
*U99
 10
0.0
 20
0.0
 30
0.0
  0
DIMENSION
  5
15F2
  8
DIMENSIONS
  2
*D21
 10
18.53022093736357
 20
28.706154771200861
 30
0.0
 11
18.49926664085196
 21
29.199609419070921
 31
0.0
 70
   128
 13
19.753432329245449
 23
29.706154771200868
 33
0.0
 14
19.773432329245459
 24
28.706154771200861
 34
0.0
 50
90.0
1001
ACAD
1000
DSTYLE
1002
{
1070
   287
1070
     4
1070
   279
1070
     1
1002
}
  0
DIMENSION
  5
15F3
  8
DIMENSIONS
  2
*D20
 10
25.815187173038741
 20
26.831154771200861
 30
0.0
 11
25.815187173038741
 21
27.990996671383041
 31
0.0
 70
   128
  1
6 plc. 0.375" [9.53]
 53
90.0
 13
24.37343232924546
 23
29.081154771200868
 33
0.0
 14
24.67343232924545
 24
26.831154771200861
 34
0.0
 50
90.0
1001
ACAD
1000
DSTYLE
1002
{
1070
   287
1070
     5
1070
   279
1070
     2
1002
}
  0
DIMENSION
  5
15F4
  8
DIMENSIONS
  2
*D19
 10
25.815187173038741
 20
29.081154771200868
 30
0.0
 11
25.993736620566619
 21
30.075624212399269
 31
0.0
 70
   128
 13
24.973432329245458
 23
29.706154771200868
 33
0.0
 14
24.67343232924545
 24
29.081154771200868
 34
0.0
 50
90.0
1001
ACAD
1000
DSTYLE
1002
{
1070
   287
1070
     4
1070
   279
1070
     1
1002
}
  0
DIMENSION
  5
15F5
  8
DIMENSIONS
  2
*D18
 10
25.27454570476463
 20
29.456154771200868
 30
0.0
 11
25.57936257238697
 21
30.38180570876839
 31
0.0
 70
   128
 13
24.693432329245461
 23
29.706154771200868
 33
0.0
 14
24.37343232924546
 24
29.456154771200868
 34
0.0
 50
90.0
1001
ACAD
1000
DSTYLE
1002
{
1070
   287
1070
     4
1070
   279
1070
     1
1002
}
  0
DIMENSION
  5
15F6
  8
DIMENSIONS
  2
*D17
 10
25.299240680237229
 20
26.456154771200868
 30
0.0
 11
25.569944983966462
 21
25.647250791825261
 31
0.0
 70
   128
 13
24.973432329245458
 23
26.206154771200861
 33
0.0
 14
24.67343232924545
 24
26.456154771200868
 34
0.0
 50
90.0
1001
ACAD
1000
DSTYLE
1002
{
1070
   287
1070
     4
1070
   279
1070
     1
1002
}
  0
DIMENSION
  5
15F7
  8
DIMENSIONS
  2
*D16
 10
25.819413080706269
 20
26.831154771200861
 30
0.0
 11
26.12558289787307
 21
25.99551824142107
 31
0.0
 70
   128
 13
24.693432329245461
 23
26.206154771200861
 33
0.0
 14
24.67343232924545
 24
26.831154771200861
 34
0.0
 50
90.0
1001
ACAD
1000
DSTYLE
1002
{
1070
   287
1070
     4
1070
   279
1070
     1
1002
}
  0
CIRCLE
  5
183B
  8
TERMINAL_BLOCKS
 10
20.073432329245449
 20
26.456154771200868
 30
0.0
 40
0.014
  0
LINE
  5
183C
  8
TERMINAL_BLOCKS
 10
20.053432329245449
 20
26.426154771200871
 30
0.0
 11
20.053432329245449
 21
26.38847380456334
 31
0.0
  0
LINE
  5
183D
  8
TERMINAL_BLOCKS
 10
20.093432329245459
 20
26.426154771200871
 30
0.0
 11
20.093432329245459
 21
26.38847380456334
 31
0.0
  0
CIRCLE
  5
183E
  8
TERMINAL_BLOCKS
 10
20.073432329245449
 20
26.456154771200868
 30
0.0
 40
0.1120751922064098
  0
LINE
  5
183F
  8
TERMINAL_BLOCKS
 10
20.053432329245449
 20
26.38847380456334
 30
0.0
 11
20.093432329245459
 21
26.38847380456334
 31
0.0
  0
LINE
  5
1840
  8
TERMINAL_BLOCKS
 10
20.181417738945591
 20
26.426154771200871
 30
0.0
 11
20.093432329245459
 21
26.426154771200871
 31
0.0
  0
LINE
  5
1841
  8
TERMINAL_BLOCKS
 10
20.181417738945591
 20
26.486154771200869
 30
0.0
 11
20.093432329245459
 21
26.486154771200869
 31
0.0
  0
LINE
  5
1842
  8
TERMINAL_BLOCKS
 10
20.053432329245449
 20
26.486154771200869
 30
0.0
 11
20.053432329245449
 21
26.52383573783839
 31
0.0
  0
LINE
  5
1843
  8
TERMINAL_BLOCKS
 10
20.093432329245459
 20
26.486154771200869
 30
0.0
 11
20.093432329245459
 21
26.52383573783839
 31
0.0
  0
LINE
  5
1844
  8
TERMINAL_BLOCKS
 10
20.053432329245449
 20
26.426154771200871
 30
0.0
 11
19.965446919545329
 21
26.426154771200871
 31
0.0
  0
LINE
  5
1845
  8
TERMINAL_BLOCKS
 10
20.053432329245449
 20
26.486154771200869
 30
0.0
 11
19.965446919545329
 21
26.486154771200869
 31
0.0
  0
LINE
  5
1846
  8
TERMINAL_BLOCKS
 10
20.053432329245449
 20
26.52383573783839
 30
0.0
 11
20.093432329245459
 21
26.52383573783839
 31
0.0
  0
CIRCLE
  5
1847
  8
TERMINAL_BLOCKS
 10
20.073432329245449
 20
26.456154771200868
 30
0.0
 40
0.014
  0
CIRCLE
  5
1848
  8
TERMINAL_BLOCKS
 10
20.073432329245449
 20
29.456154771200868
 30
0.0
 40
0.014
  0
LINE
  5
1849
  8
TERMINAL_BLOCKS
 10
20.181417738945591
 20
29.486154771200869
 30
0.0
 11
20.093432329245459
 21
29.486154771200869
 31
0.0
  0
LINE
  5
184A
  8
TERMINAL_BLOCKS
 10
20.181417738945591
 20
29.426154771200871
 30
0.0
 11
20.093432329245459
 21
29.426154771200871
 31
0.0
  0
LINE
  5
184B
  8
TERMINAL_BLOCKS
 10
20.053432329245449
 20
29.486154771200869
 30
0.0
 11
20.053432329245449
 21
29.52383573783839
 31
0.0
  0
LINE
  5
184C
  8
TERMINAL_BLOCKS
 10
20.093432329245459
 20
29.486154771200869
 30
0.0
 11
20.093432329245459
 21
29.52383573783839
 31
0.0
  0
LINE
  5
184D
  8
TERMINAL_BLOCKS
 10
20.053432329245449
 20
29.52383573783839
 30
0.0
 11
20.093432329245459
 21
29.52383573783839
 31
0.0
  0
LINE
  5
184E
  8
TERMINAL_BLOCKS
 10
20.053432329245449
 20
29.38847380456334
 30
0.0
 11
20.093432329245459
 21
29.38847380456334
 31
0.0
  0
LINE
  5
184F
  8
TERMINAL_BLOCKS
 10
20.093432329245459
 20
29.426154771200871
 30
0.0
 11
20.093432329245459
 21
29.38847380456334
 31
0.0
  0
LINE
  5
1850
  8
TERMINAL_BLOCKS
 10
20.053432329245449
 20
29.426154771200871
 30
0.0
 11
20.053432329245449
 21
29.38847380456334
 31
0.0
  0
LINE
  5
1851
  8
TERMINAL_BLOCKS
 10
20.053432329245449
 20
29.486154771200869
 30
0.0
 11
19.965446919545329
 21
29.486154771200869
 31
0.0
  0
LINE
  5
1852
  8
TERMINAL_BLOCKS
 10
20.053432329245449
 20
29.426154771200871
 30
0.0
 11
19.965446919545329
 21
29.426154771200871
 31
0.0
  0
CIRCLE
  5
1853
  8
TERMINAL_BLOCKS
 10
20.073432329245449
 20
29.456154771200868
 30
0.0
 40
0.1120751922064098
  0
CIRCLE
  5
1854
  8
TERMINAL_BLOCKS
 10
19.773432329245459
 20
29.081154771200868
 30
0.0
 40
0.1120751922064098
  0
CIRCLE
  5
1866
  8
TERMINAL_BLOCKS
 10
19.773432329245459
 20
27.206154771200868
 30
0.0
 40
0.1120751922064098
  0
CIRCLE
  5
1867
  8
TERMINAL_BLOCKS
 10
19.773432329245459
 20
26.456154771200868
 30
0.0
 40
0.056
  0
CIRCLE
  5
1868
  8
TERMINAL_BLOCKS
 10
19.773432329245459
 20
26.831154771200861
 30
0.0
 40
0.014
  0
LINE
  5
1869
  8
TERMINAL_BLOCKS
 10
19.753432329245449
 20
26.89883573783839
 30
0.0
 11
19.793432329245451
 21
26.89883573783839
 31
0.0
  0
LINE
  5
186A
  8
TERMINAL_BLOCKS
 10
19.753432329245449
 20
26.861154771200869
 30
0.0
 11
19.665446919545332
 21
26.861154771200869
 31
0.0
  0
LINE
  5
186B
  8
TERMINAL_BLOCKS
 10
19.753432329245449
 20
26.80115477120086
 30
0.0
 11
19.665446919545332
 21
26.80115477120086
 31
0.0
  0
LINE
  5
186C
  8
TERMINAL_BLOCKS
 10
19.793432329245451
 20
26.861154771200869
 30
0.0
 11
19.793432329245451
 21
26.89883573783839
 31
0.0
  0
LINE
  5
186D
  8
TERMINAL_BLOCKS
 10
19.753432329245449
 20
26.861154771200869
 30
0.0
 11
19.753432329245449
 21
26.89883573783839
 31
0.0
  0
LINE
  5
186E
  8
TERMINAL_BLOCKS
 10
19.881417738945579
 20
26.861154771200869
 30
0.0
 11
19.793432329245451
 21
26.861154771200869
 31
0.0
  0
LINE
  5
186F
  8
TERMINAL_BLOCKS
 10
19.881417738945579
 20
26.80115477120086
 30
0.0
 11
19.793432329245451
 21
26.80115477120086
 31
0.0
  0
LINE
  5
1870
  8
TERMINAL_BLOCKS
 10
19.753432329245449
 20
26.76347380456334
 30
0.0
 11
19.793432329245451
 21
26.76347380456334
 31
0.0
  0
CIRCLE
  5
1871
  8
TERMINAL_BLOCKS
 10
19.773432329245459
 20
26.831154771200861
 30
0.0
 40
0.1120751922064098
  0
LINE
  5
1872
  8
TERMINAL_BLOCKS
 10
19.793432329245451
 20
26.80115477120086
 30
0.0
 11
19.793432329245451
 21
26.76347380456334
 31
0.0
  0
LINE
  5
1873
  8
TERMINAL_BLOCKS
 10
19.753432329245449
 20
26.80115477120086
 30
0.0
 11
19.753432329245449
 21
26.76347380456334
 31
0.0
  0
CIRCLE
  5
1874
  8
TERMINAL_BLOCKS
 10
19.773432329245459
 20
26.831154771200861
 30
0.0
 40
0.014
  0
CIRCLE
  5
1875
  8
TERMINAL_BLOCKS
 10
20.073432329245449
 20
26.831154771200861
 30
0.0
 40
0.014
  0
LINE
  5
1876
  8
TERMINAL_BLOCKS
 10
19.793432329245451
 20
27.611154771200869
 30
0.0
 11
19.793432329245451
 21
27.64883573783839
 31
0.0
  0
LINE
  5
1877
  8
TERMINAL_BLOCKS
 10
19.753432329245449
 20
27.611154771200869
 30
0.0
 11
19.753432329245449
 21
27.64883573783839
 31
0.0
  0
CIRCLE
  5
1878
  8
TERMINAL_BLOCKS
 10
19.773432329245459
 20
27.581154771200868
 30
0.0
 40
0.1120751922064098
  0
CIRCLE
  5
1879
  8
TERMINAL_BLOCKS
 10
19.773432329245459
 20
27.206154771200868
 30
0.0
 40
0.014
  0
LINE
  5
187A
  8
TERMINAL_BLOCKS
 10
19.753432329245449
 20
27.27383573783839
 30
0.0
 11
19.793432329245451
 21
27.27383573783839
 31
0.0
  0
LINE
  5
187B
  8
TERMINAL_BLOCKS
 10
19.753432329245449
 20
27.236154771200869
 30
0.0
 11
19.665446919545332
 21
27.236154771200869
 31
0.0
  0
LINE
  5
187C
  8
TERMINAL_BLOCKS
 10
19.753432329245449
 20
27.17615477120086
 30
0.0
 11
19.665446919545332
 21
27.17615477120086
 31
0.0
  0
LINE
  5
187D
  8
TERMINAL_BLOCKS
 10
19.793432329245451
 20
27.236154771200869
 30
0.0
 11
19.793432329245451
 21
27.27383573783839
 31
0.0
  0
LINE
  5
187E
  8
TERMINAL_BLOCKS
 10
19.753432329245449
 20
27.236154771200869
 30
0.0
 11
19.753432329245449
 21
27.27383573783839
 31
0.0
  0
LINE
  5
187F
  8
TERMINAL_BLOCKS
 10
19.881417738945579
 20
27.236154771200869
 30
0.0
 11
19.793432329245451
 21
27.236154771200869
 31
0.0
  0
LINE
  5
1880
  8
TERMINAL_BLOCKS
 10
19.881417738945579
 20
27.17615477120086
 30
0.0
 11
19.793432329245451
 21
27.17615477120086
 31
0.0
  0
LINE
  5
1881
  8
TERMINAL_BLOCKS
 10
19.753432329245449
 20
27.13847380456334
 30
0.0
 11
19.793432329245451
 21
27.13847380456334
 31
0.0
  0
LINE
  5
1882
  8
TERMINAL_BLOCKS
 10
19.793432329245451
 20
27.17615477120086
 30
0.0
 11
19.793432329245451
 21
27.13847380456334
 31
0.0
  0
LINE
  5
1883
  8
TERMINAL_BLOCKS
 10
19.753432329245449
 20
27.17615477120086
 30
0.0
 11
19.753432329245449
 21
27.13847380456334
 31
0.0
  0
CIRCLE
  5
1884
  8
TERMINAL_BLOCKS
 10
19.773432329245459
 20
27.581154771200868
 30
0.0
 40
0.014
  0
LINE
  5
1885
  8
TERMINAL_BLOCKS
 10
19.753432329245449
 20
27.611154771200869
 30
0.0
 11
19.665446919545332
 21
27.611154771200869
 31
0.0
  0
LINE
  5
1886
  8
TERMINAL_BLOCKS
 10
19.753432329245449
 20
27.55115477120086
 30
0.0
 11
19.665446919545332
 21
27.55115477120086
 31
0.0
  0
LINE
  5
1887
  8
TERMINAL_BLOCKS
 10
19.881417738945579
 20
27.611154771200869
 30
0.0
 11
19.793432329245451
 21
27.611154771200869
 31
0.0
  0
LINE
  5
1888
  8
TERMINAL_BLOCKS
 10
19.881417738945579
 20
27.55115477120086
 30
0.0
 11
19.793432329245451
 21
27.55115477120086
 31
0.0
  0
LINE
  5
1889
  8
TERMINAL_BLOCKS
 10
19.753432329245449
 20
27.51347380456334
 30
0.0
 11
19.793432329245451
 21
27.51347380456334
 31
0.0
  0
LINE
  5
188A
  8
TERMINAL_BLOCKS
 10
19.793432329245451
 20
27.55115477120086
 30
0.0
 11
19.793432329245451
 21
27.51347380456334
 31
0.0
  0
LINE
  5
188B
  8
TERMINAL_BLOCKS
 10
19.753432329245449
 20
27.55115477120086
 30
0.0
 11
19.753432329245449
 21
27.51347380456334
 31
0.0
  0
CIRCLE
  5
188C
  8
TERMINAL_BLOCKS
 10
19.773432329245459
 20
27.581154771200868
 30
0.0
 40
0.014
  0
CIRCLE
  5
188D
  8
TERMINAL_BLOCKS
 10
19.773432329245459
 20
27.206154771200868
 30
0.0
 40
0.014
  0
CIRCLE
  5
188E
  8
TERMINAL_BLOCKS
 10
20.073432329245449
 20
27.581154771200868
 30
0.0
 40
0.014
  0
CIRCLE
  5
188F
  8
TERMINAL_BLOCKS
 10
20.073432329245449
 20
27.206154771200868
 30
0.0
 40
0.014
  0
LINE
  5
1890
  8
TERMINAL_BLOCKS
 10
19.753432329245449
 20
27.64883573783839
 30
0.0
 11
19.793432329245451
 21
27.64883573783839
 31
0.0
  0
CIRCLE
  5
1891
  8
TERMINAL_BLOCKS
 10
19.773432329245459
 20
27.956154771200868
 30
0.0
 40
0.014
  0
LINE
  5
1892
  8
TERMINAL_BLOCKS
 10
19.753432329245449
 20
28.02383573783839
 30
0.0
 11
19.793432329245451
 21
28.02383573783839
 31
0.0
  0
LINE
  5
1893
  8
TERMINAL_BLOCKS
 10
19.753432329245449
 20
27.986154771200869
 30
0.0
 11
19.665446919545332
 21
27.986154771200869
 31
0.0
  0
LINE
  5
1894
  8
TERMINAL_BLOCKS
 10
19.753432329245449
 20
27.926154771200871
 30
0.0
 11
19.665446919545332
 21
27.926154771200871
 31
0.0
  0
LINE
  5
1895
  8
TERMINAL_BLOCKS
 10
19.793432329245451
 20
27.986154771200869
 30
0.0
 11
19.793432329245451
 21
28.02383573783839
 31
0.0
  0
LINE
  5
1896
  8
TERMINAL_BLOCKS
 10
19.753432329245449
 20
27.986154771200869
 30
0.0
 11
19.753432329245449
 21
28.02383573783839
 31
0.0
  0
LINE
  5
1897
  8
TERMINAL_BLOCKS
 10
19.881417738945579
 20
27.986154771200869
 30
0.0
 11
19.793432329245451
 21
27.986154771200869
 31
0.0
  0
LINE
  5
1898
  8
TERMINAL_BLOCKS
 10
19.881417738945579
 20
27.926154771200871
 30
0.0
 11
19.793432329245451
 21
27.926154771200871
 31
0.0
  0
LINE
  5
1899
  8
TERMINAL_BLOCKS
 10
19.753432329245449
 20
27.88847380456334
 30
0.0
 11
19.793432329245451
 21
27.88847380456334
 31
0.0
  0
CIRCLE
  5
189A
  8
TERMINAL_BLOCKS
 10
19.773432329245459
 20
27.956154771200868
 30
0.0
 40
0.1120751922064098
  0
LINE
  5
189B
  8
TERMINAL_BLOCKS
 10
19.793432329245451
 20
27.926154771200871
 30
0.0
 11
19.793432329245451
 21
27.88847380456334
 31
0.0
  0
LINE
  5
189C
  8
TERMINAL_BLOCKS
 10
19.753432329245449
 20
27.926154771200871
 30
0.0
 11
19.753432329245449
 21
27.88847380456334
 31
0.0
  0
CIRCLE
  5
189D
  8
TERMINAL_BLOCKS
 10
19.773432329245459
 20
27.956154771200868
 30
0.0
 40
0.014
  0
CIRCLE
  5
189E
  8
TERMINAL_BLOCKS
 10
20.073432329245449
 20
27.956154771200868
 30
0.0
 40
0.014
  0
CIRCLE
  5
189F
  8
TERMINAL_BLOCKS
 10
19.773432329245459
 20
28.706154771200861
 30
0.0
 40
0.1120751922064098
  0
LINE
  5
18A0
  8
TERMINAL_BLOCKS
 10
19.793432329245451
 20
28.67615477120086
 30
0.0
 11
19.793432329245451
 21
28.63847380456334
 31
0.0
  0
LINE
  5
18A1
  8
TERMINAL_BLOCKS
 10
19.753432329245449
 20
28.67615477120086
 30
0.0
 11
19.753432329245449
 21
28.63847380456334
 31
0.0
  0
CIRCLE
  5
18A2
  8
TERMINAL_BLOCKS
 10
19.773432329245459
 20
28.331154771200868
 30
0.0
 40
0.014
  0
LINE
  5
18A3
  8
TERMINAL_BLOCKS
 10
19.753432329245449
 20
28.39883573783839
 30
0.0
 11
19.793432329245451
 21
28.39883573783839
 31
0.0
  0
LINE
  5
18A4
  8
TERMINAL_BLOCKS
 10
19.753432329245449
 20
28.361154771200869
 30
0.0
 11
19.665446919545332
 21
28.361154771200869
 31
0.0
  0
LINE
  5
18A5
  8
TERMINAL_BLOCKS
 10
19.753432329245449
 20
28.301154771200871
 30
0.0
 11
19.665446919545332
 21
28.301154771200871
 31
0.0
  0
LINE
  5
18A6
  8
TERMINAL_BLOCKS
 10
19.793432329245451
 20
28.361154771200869
 30
0.0
 11
19.793432329245451
 21
28.39883573783839
 31
0.0
  0
LINE
  5
18A7
  8
TERMINAL_BLOCKS
 10
19.753432329245449
 20
28.361154771200869
 30
0.0
 11
19.753432329245449
 21
28.39883573783839
 31
0.0
  0
LINE
  5
18A8
  8
TERMINAL_BLOCKS
 10
19.881417738945579
 20
28.361154771200869
 30
0.0
 11
19.793432329245451
 21
28.361154771200869
 31
0.0
  0
LINE
  5
18A9
  8
TERMINAL_BLOCKS
 10
19.881417738945579
 20
28.301154771200871
 30
0.0
 11
19.793432329245451
 21
28.301154771200871
 31
0.0
  0
LINE
  5
18AA
  8
TERMINAL_BLOCKS
 10
19.753432329245449
 20
28.26347380456334
 30
0.0
 11
19.793432329245451
 21
28.26347380456334
 31
0.0
  0
CIRCLE
  5
18AB
  8
TERMINAL_BLOCKS
 10
19.773432329245459
 20
28.331154771200868
 30
0.0
 40
0.1120751922064098
  0
LINE
  5
18AC
  8
TERMINAL_BLOCKS
 10
19.793432329245451
 20
28.301154771200871
 30
0.0
 11
19.793432329245451
 21
28.26347380456334
 31
0.0
  0
LINE
  5
18AD
  8
TERMINAL_BLOCKS
 10
19.753432329245449
 20
28.301154771200871
 30
0.0
 11
19.753432329245449
 21
28.26347380456334
 31
0.0
  0
LINE
  5
18AE
  8
TERMINAL_BLOCKS
 10
19.753432329245449
 20
28.63847380456334
 30
0.0
 11
19.793432329245451
 21
28.63847380456334
 31
0.0
  0
CIRCLE
  5
18AF
  8
TERMINAL_BLOCKS
 10
19.773432329245459
 20
28.331154771200868
 30
0.0
 40
0.014
  0
CIRCLE
  5
18B0
  8
TERMINAL_BLOCKS
 10
20.073432329245449
 20
28.331154771200868
 30
0.0
 40
0.014
  0
CIRCLE
  5
18B1
  8
TERMINAL_BLOCKS
 10
19.773432329245459
 20
28.706154771200861
 30
0.0
 40
0.014
  0
LINE
  5
18B2
  8
TERMINAL_BLOCKS
 10
19.753432329245449
 20
28.77383573783839
 30
0.0
 11
19.793432329245451
 21
28.77383573783839
 31
0.0
  0
LINE
  5
18B3
  8
TERMINAL_BLOCKS
 10
19.753432329245449
 20
28.736154771200859
 30
0.0
 11
19.665446919545332
 21
28.736154771200859
 31
0.0
  0
LINE
  5
18B4
  8
TERMINAL_BLOCKS
 10
19.753432329245449
 20
28.67615477120086
 30
0.0
 11
19.665446919545332
 21
28.67615477120086
 31
0.0
  0
LINE
  5
18B5
  8
TERMINAL_BLOCKS
 10
19.793432329245451
 20
28.736154771200859
 30
0.0
 11
19.793432329245451
 21
28.77383573783839
 31
0.0
  0
LINE
  5
18B6
  8
TERMINAL_BLOCKS
 10
19.753432329245449
 20
28.736154771200859
 30
0.0
 11
19.753432329245449
 21
28.77383573783839
 31
0.0
  0
LINE
  5
18B7
  8
TERMINAL_BLOCKS
 10
19.881417738945579
 20
28.736154771200859
 30
0.0
 11
19.793432329245451
 21
28.736154771200859
 31
0.0
  0
LINE
  5
18B8
  8
TERMINAL_BLOCKS
 10
19.881417738945579
 20
28.67615477120086
 30
0.0
 11
19.793432329245451
 21
28.67615477120086
 31
0.0
  0
LINE
  5
18B9
  8
TERMINAL_BLOCKS
 10
19.753432329245449
 20
29.05115477120086
 30
0.0
 11
19.665446919545332
 21
29.05115477120086
 31
0.0
  0
LINE
  5
18BA
  8
TERMINAL_BLOCKS
 10
19.753432329245449
 20
29.111154771200869
 30
0.0
 11
19.665446919545332
 21
29.111154771200869
 31
0.0
  0
LINE
  5
18BB
  8
TERMINAL_BLOCKS
 10
19.753432329245449
 20
29.05115477120086
 30
0.0
 11
19.753432329245449
 21
29.01347380456334
 31
0.0
  0
LINE
  5
18BC
  8
TERMINAL_BLOCKS
 10
19.793432329245451
 20
29.05115477120086
 30
0.0
 11
19.793432329245451
 21
29.01347380456334
 31
0.0
  0
LINE
  5
18BD
  8
TERMINAL_BLOCKS
 10
19.753432329245449
 20
29.01347380456334
 30
0.0
 11
19.793432329245451
 21
29.01347380456334
 31
0.0
  0
LINE
  5
18BE
  8
TERMINAL_BLOCKS
 10
19.753432329245449
 20
29.14883573783839
 30
0.0
 11
19.793432329245451
 21
29.14883573783839
 31
0.0
  0
LINE
  5
18BF
  8
TERMINAL_BLOCKS
 10
19.793432329245451
 20
29.111154771200869
 30
0.0
 11
19.793432329245451
 21
29.14883573783839
 31
0.0
  0
LINE
  5
18C0
  8
TERMINAL_BLOCKS
 10
19.753432329245449
 20
29.111154771200869
 30
0.0
 11
19.753432329245449
 21
29.14883573783839
 31
0.0
  0
LINE
  5
18C1
  8
TERMINAL_BLOCKS
 10
19.881417738945579
 20
29.05115477120086
 30
0.0
 11
19.793432329245451
 21
29.05115477120086
 31
0.0
  0
LINE
  5
18C2
  8
TERMINAL_BLOCKS
 10
19.881417738945579
 20
29.111154771200869
 30
0.0
 11
19.793432329245451
 21
29.111154771200869
 31
0.0
  0
CIRCLE
  5
18C3
  8
TERMINAL_BLOCKS
 10
19.773432329245459
 20
29.081154771200868
 30
0.0
 40
0.014
  0
CIRCLE
  5
18C4
  8
TERMINAL_BLOCKS
 10
19.773432329245459
 20
28.706154771200861
 30
0.0
 40
0.014
  0
CIRCLE
  5
18C5
  8
TERMINAL_BLOCKS
 10
20.073432329245449
 20
28.706154771200861
 30
0.0
 40
0.014
  0
CIRCLE
  5
18C9
  8
TERMINAL_BLOCKS
 10
19.773432329245459
 20
29.456154771200868
 30
0.0
 40
0.056
  0
LINE
  5
19E7
  8
TERMINAL_BLOCKS
 10
19.482976973325901
 20
23.133233753186872
 30
0.0
 11
19.482976973325901
 21
22.65823375318687
 31
0.0
  0
LINE
  5
19E8
  8
TERMINAL_BLOCKS
 10
20.35835143199278
 20
23.133233753186872
 30
0.0
 11
20.35835143199278
 21
22.65823375318687
 31
0.0
  0
LINE
  5
19E9
  8
TERMINAL_BLOCKS
 10
19.482976973325901
 20
23.133233753186872
 30
0.0
 11
20.35835143199278
 21
23.133233753186872
 31
0.0
  0
LINE
  5
1A9A
  8
TERMINAL_BLOCKS
 10
14.664102527563889
 20
23.008233753186872
 30
0.0
 11
14.70410252756389
 21
23.008233753186872
 31
0.0
  0
LINE
  5
1A9B
  8
TERMINAL_BLOCKS
 10
14.778804450281269
 20
22.968233753186869
 30
0.0
 11
14.778804450281269
 21
22.993815337099189
 31
0.0
  0
LINE
  5
1A9C
  8
TERMINAL_BLOCKS
 10
14.664102527563889
 20
23.03058363942986
 30
0.0
 11
14.664102527563889
 21
23.008233753186872
 31
0.0
  0
LINE
  5
1A9D
  8
TERMINAL_BLOCKS
 10
14.70410252756389
 20
23.030583639429871
 30
0.0
 11
14.70410252756389
 21
23.008233753186872
 31
0.0
  0
ARC
  5
1A9E
  8
TERMINAL_BLOCKS
 10
14.683909168008631
 20
22.895287062581151
 30
0.0
 40
0.1367952319238812
 50
46.0760356871249
 51
81.511122142323217
  0
LINE
  5
1A9F
  8
TERMINAL_BLOCKS
 10
14.58940060484651
 20
22.968233753186869
 30
0.0
 11
14.58940060484651
 21
22.993815337099189
 31
0.0
  0
ARC
  5
1AA0
  8
TERMINAL_BLOCKS
 10
14.684295887119159
 20
22.895287062581151
 30
0.0
 40
0.1367952319238812
 50
98.488877857676627
 51
133.92396431287511
  0
ARC
  5
1AA2
  8
TERMINAL_BLOCKS
 10
15.05929588711915
 20
22.895287062581151
 30
0.0
 40
0.1367952319238812
 50
98.488877857676627
 51
133.92396431287511
  0
LINE
  5
1AA3
  8
TERMINAL_BLOCKS
 10
14.96440060484651
 20
22.968233753186869
 30
0.0
 11
14.96440060484651
 21
22.993815337099189
 31
0.0
  0
ARC
  5
1AA4
  8
TERMINAL_BLOCKS
 10
15.05890916800862
 20
22.895287062581151
 30
0.0
 40
0.1367952319238812
 50
46.0760356871249
 51
81.511122142323217
  0
LINE
  5
1AA5
  8
TERMINAL_BLOCKS
 10
15.07910252756389
 20
23.030583639429871
 30
0.0
 11
15.07910252756389
 21
23.008233753186872
 31
0.0
  0
LINE
  5
1AA6
  8
TERMINAL_BLOCKS
 10
15.039102527563889
 20
23.03058363942986
 30
0.0
 11
15.039102527563889
 21
23.008233753186872
 31
0.0
  0
LINE
  5
1AA7
  8
TERMINAL_BLOCKS
 10
15.153804450281269
 20
22.968233753186869
 30
0.0
 11
15.153804450281269
 21
22.993815337099189
 31
0.0
  0
LINE
  5
1AA8
  8
TERMINAL_BLOCKS
 10
15.039102527563889
 20
23.008233753186872
 30
0.0
 11
15.07910252756389
 21
23.008233753186872
 31
0.0
  0
ARC
  5
1AA9
  8
TERMINAL_BLOCKS
 10
15.43429588711915
 20
22.895287062581151
 30
0.0
 40
0.1367952319238812
 50
98.488877857676627
 51
133.92396431287511
  0
LINE
  5
1AAA
  8
TERMINAL_BLOCKS
 10
15.33940060484651
 20
22.968233753186869
 30
0.0
 11
15.33940060484651
 21
22.993815337099189
 31
0.0
  0
ARC
  5
1AAB
  8
TERMINAL_BLOCKS
 10
15.43390916800862
 20
22.895287062581151
 30
0.0
 40
0.1367952319238812
 50
46.0760356871249
 51
81.511122142323217
  0
LINE
  5
1AAC
  8
TERMINAL_BLOCKS
 10
15.45410252756389
 20
23.030583639429871
 30
0.0
 11
15.45410252756389
 21
23.008233753186872
 31
0.0
  0
LINE
  5
1AAD
  8
TERMINAL_BLOCKS
 10
15.414102527563889
 20
23.03058363942986
 30
0.0
 11
15.414102527563889
 21
23.008233753186872
 31
0.0
  0
LINE
  5
1AAE
  8
TERMINAL_BLOCKS
 10
15.528804450281269
 20
22.968233753186869
 30
0.0
 11
15.528804450281269
 21
22.993815337099189
 31
0.0
  0
LINE
  5
1AAF
  8
TERMINAL_BLOCKS
 10
15.414102527563889
 20
23.008233753186872
 30
0.0
 11
15.45410252756389
 21
23.008233753186872
 31
0.0
  0
ARC
  5
1AB0
  8
TERMINAL_BLOCKS
 10
15.80929588711915
 20
22.895287062581151
 30
0.0
 40
0.1367952319238812
 50
98.488877857676627
 51
133.92396431287511
  0
LINE
  5
1AB1
  8
TERMINAL_BLOCKS
 10
15.71440060484651
 20
22.968233753186869
 30
0.0
 11
15.71440060484651
 21
22.993815337099189
 31
0.0
  0
ARC
  5
1AB2
  8
TERMINAL_BLOCKS
 10
15.80890916800862
 20
22.895287062581151
 30
0.0
 40
0.1367952319238812
 50
46.0760356871249
 51
81.511122142323217
  0
LINE
  5
1AB3
  8
TERMINAL_BLOCKS
 10
15.82910252756389
 20
23.030583639429871
 30
0.0
 11
15.82910252756389
 21
23.008233753186872
 31
0.0
  0
LINE
  5
1AB4
  8
TERMINAL_BLOCKS
 10
15.789102527563889
 20
23.03058363942986
 30
0.0
 11
15.789102527563889
 21
23.008233753186872
 31
0.0
  0
LINE
  5
1AB5
  8
TERMINAL_BLOCKS
 10
15.903804450281269
 20
22.968233753186869
 30
0.0
 11
15.903804450281269
 21
22.993815337099189
 31
0.0
  0
LINE
  5
1AB6
  8
TERMINAL_BLOCKS
 10
15.789102527563889
 20
23.008233753186872
 30
0.0
 11
15.82910252756389
 21
23.008233753186872
 31
0.0
  0
ARC
  5
1AB7
  8
TERMINAL_BLOCKS
 10
16.184295887119148
 20
22.895287062581151
 30
0.0
 40
0.1367952319238812
 50
98.488877857676627
 51
133.92396431287511
  0
LINE
  5
1AB8
  8
TERMINAL_BLOCKS
 10
16.08940060484651
 20
22.968233753186869
 30
0.0
 11
16.08940060484651
 21
22.993815337099189
 31
0.0
  0
ARC
  5
1AB9
  8
TERMINAL_BLOCKS
 10
16.183909168008618
 20
22.895287062581151
 30
0.0
 40
0.1367952319238812
 50
46.0760356871249
 51
81.511122142323217
  0
LINE
  5
1ABA
  8
TERMINAL_BLOCKS
 10
16.20410252756389
 20
23.030583639429871
 30
0.0
 11
16.20410252756389
 21
23.008233753186872
 31
0.0
  0
LINE
  5
1ABB
  8
TERMINAL_BLOCKS
 10
16.164102527563891
 20
23.03058363942986
 30
0.0
 11
16.164102527563891
 21
23.008233753186872
 31
0.0
  0
LINE
  5
1ABC
  8
TERMINAL_BLOCKS
 10
16.278804450281271
 20
22.968233753186869
 30
0.0
 11
16.278804450281271
 21
22.993815337099189
 31
0.0
  0
LINE
  5
1ABD
  8
TERMINAL_BLOCKS
 10
16.164102527563891
 20
23.008233753186872
 30
0.0
 11
16.20410252756389
 21
23.008233753186872
 31
0.0
  0
ARC
  5
1ABE
  8
TERMINAL_BLOCKS
 10
16.559295887119148
 20
22.895287062581151
 30
0.0
 40
0.1367952319238812
 50
98.488877857676627
 51
133.92396431287511
  0
LINE
  5
1ABF
  8
TERMINAL_BLOCKS
 10
16.46440060484651
 20
22.968233753186869
 30
0.0
 11
16.46440060484651
 21
22.993815337099189
 31
0.0
  0
ARC
  5
1AC0
  8
TERMINAL_BLOCKS
 10
16.558909168008618
 20
22.895287062581151
 30
0.0
 40
0.1367952319238812
 50
46.0760356871249
 51
81.511122142323217
  0
LINE
  5
1AC1
  8
TERMINAL_BLOCKS
 10
16.57910252756389
 20
23.030583639429871
 30
0.0
 11
16.57910252756389
 21
23.008233753186872
 31
0.0
  0
LINE
  5
1AC2
  8
TERMINAL_BLOCKS
 10
16.539102527563891
 20
23.03058363942986
 30
0.0
 11
16.539102527563891
 21
23.008233753186872
 31
0.0
  0
LINE
  5
1AC3
  8
TERMINAL_BLOCKS
 10
16.653804450281271
 20
22.968233753186869
 30
0.0
 11
16.653804450281271
 21
22.993815337099189
 31
0.0
  0
LINE
  5
1AC4
  8
TERMINAL_BLOCKS
 10
16.539102527563891
 20
23.008233753186872
 30
0.0
 11
16.57910252756389
 21
23.008233753186872
 31
0.0
  0
ARC
  5
1AC5
  8
TERMINAL_BLOCKS
 10
16.934295887119148
 20
22.895287062581151
 30
0.0
 40
0.1367952319238812
 50
98.488877857676627
 51
133.92396431287511
  0
LINE
  5
1AC6
  8
TERMINAL_BLOCKS
 10
16.83940060484651
 20
22.968233753186869
 30
0.0
 11
16.83940060484651
 21
22.993815337099189
 31
0.0
  0
ARC
  5
1AC7
  8
TERMINAL_BLOCKS
 10
16.933909168008618
 20
22.895287062581151
 30
0.0
 40
0.1367952319238812
 50
46.0760356871249
 51
81.511122142323217
  0
LINE
  5
1AC8
  8
TERMINAL_BLOCKS
 10
16.95410252756389
 20
23.030583639429871
 30
0.0
 11
16.95410252756389
 21
23.008233753186872
 31
0.0
  0
LINE
  5
1AC9
  8
TERMINAL_BLOCKS
 10
16.914102527563891
 20
23.03058363942986
 30
0.0
 11
16.914102527563891
 21
23.008233753186872
 31
0.0
  0
LINE
  5
1ACA
  8
TERMINAL_BLOCKS
 10
17.028804450281271
 20
22.968233753186869
 30
0.0
 11
17.028804450281271
 21
22.993815337099189
 31
0.0
  0
LINE
  5
1ACB
  8
TERMINAL_BLOCKS
 10
16.914102527563891
 20
23.008233753186872
 30
0.0
 11
16.95410252756389
 21
23.008233753186872
 31
0.0
  0
ARC
  5
1ACC
  8
TERMINAL_BLOCKS
 10
17.309295887119148
 20
22.895287062581151
 30
0.0
 40
0.1367952319238812
 50
98.488877857676627
 51
133.92396431287511
  0
LINE
  5
1ACD
  8
TERMINAL_BLOCKS
 10
17.21440060484651
 20
22.968233753186869
 30
0.0
 11
17.21440060484651
 21
22.993815337099189
 31
0.0
  0
ARC
  5
1ACE
  8
TERMINAL_BLOCKS
 10
17.308909168008618
 20
22.895287062581151
 30
0.0
 40
0.1367952319238812
 50
46.0760356871249
 51
81.511122142323217
  0
LINE
  5
1ACF
  8
TERMINAL_BLOCKS
 10
17.32910252756389
 20
23.030583639429871
 30
0.0
 11
17.32910252756389
 21
23.008233753186872
 31
0.0
  0
LINE
  5
1AD0
  8
TERMINAL_BLOCKS
 10
17.289102527563891
 20
23.03058363942986
 30
0.0
 11
17.289102527563891
 21
23.008233753186872
 31
0.0
  0
LINE
  5
1AD1
  8
TERMINAL_BLOCKS
 10
17.403804450281271
 20
22.968233753186869
 30
0.0
 11
17.403804450281271
 21
22.993815337099189
 31
0.0
  0
LINE
  5
1AD2
  8
TERMINAL_BLOCKS
 10
17.289102527563891
 20
23.008233753186872
 30
0.0
 11
17.32910252756389
 21
23.008233753186872
 31
0.0
  0
ARC
  5
1AD3
  8
TERMINAL_BLOCKS
 10
17.684295887119148
 20
22.895287062581151
 30
0.0
 40
0.1367952319238812
 50
98.488877857676627
 51
133.92396431287511
  0
LINE
  5
1AD4
  8
TERMINAL_BLOCKS
 10
17.58940060484651
 20
22.968233753186869
 30
0.0
 11
17.58940060484651
 21
22.993815337099189
 31
0.0
  0
ARC
  5
1AD5
  8
TERMINAL_BLOCKS
 10
17.683909168008618
 20
22.895287062581151
 30
0.0
 40
0.1367952319238812
 50
46.0760356871249
 51
81.511122142323217
  0
LINE
  5
1AD6
  8
TERMINAL_BLOCKS
 10
17.70410252756389
 20
23.030583639429871
 30
0.0
 11
17.70410252756389
 21
23.008233753186872
 31
0.0
  0
LINE
  5
1AD7
  8
TERMINAL_BLOCKS
 10
17.664102527563891
 20
23.03058363942986
 30
0.0
 11
17.664102527563891
 21
23.008233753186872
 31
0.0
  0
LINE
  5
1AD8
  8
TERMINAL_BLOCKS
 10
17.778804450281271
 20
22.968233753186869
 30
0.0
 11
17.778804450281271
 21
22.993815337099189
 31
0.0
  0
LINE
  5
1AD9
  8
TERMINAL_BLOCKS
 10
17.664102527563891
 20
23.008233753186872
 30
0.0
 11
17.70410252756389
 21
23.008233753186872
 31
0.0
  0
LINE
  5
1ADA
  8
TERMINAL_BLOCKS
 10
14.851250633637809
 20
23.133233753186872
 30
0.0
 11
14.851250633637809
 21
22.65823375318687
 31
0.0
  0
LINE
  5
1ADC
  8
TERMINAL_BLOCKS
 10
14.91125063363781
 20
23.133233753186872
 30
0.0
 11
14.91125063363781
 21
22.65823375318687
 31
0.0
  0
LINE
  5
1ADD
  8
TERMINAL_BLOCKS
 10
15.226250633637809
 20
23.133233753186872
 30
0.0
 11
15.226250633637809
 21
22.65823375318687
 31
0.0
  0
LINE
  5
1ADE
  8
TERMINAL_BLOCKS
 10
15.28625063363781
 20
23.133233753186872
 30
0.0
 11
15.28625063363781
 21
22.65823375318687
 31
0.0
  0
LINE
  5
1ADF
  8
TERMINAL_BLOCKS
 10
15.601250633637809
 20
23.133233753186872
 30
0.0
 11
15.601250633637809
 21
22.65823375318687
 31
0.0
  0
LINE
  5
1AE0
  8
TERMINAL_BLOCKS
 10
15.66125063363781
 20
23.133233753186872
 30
0.0
 11
15.66125063363781
 21
22.65823375318687
 31
0.0
  0
LINE
  5
1AE1
  8
TERMINAL_BLOCKS
 10
15.976250633637809
 20
23.133233753186872
 30
0.0
 11
15.976250633637809
 21
22.65823375318687
 31
0.0
  0
LINE
  5
1AE2
  8
TERMINAL_BLOCKS
 10
16.03625063363781
 20
23.133233753186872
 30
0.0
 11
16.03625063363781
 21
22.65823375318687
 31
0.0
  0
LINE
  5
1AE3
  8
TERMINAL_BLOCKS
 10
16.351250633637811
 20
23.133233753186872
 30
0.0
 11
16.351250633637811
 21
22.65823375318687
 31
0.0
  0
LINE
  5
1AE4
  8
TERMINAL_BLOCKS
 10
16.41125063363781
 20
23.133233753186872
 30
0.0
 11
16.41125063363781
 21
22.65823375318687
 31
0.0
  0
LINE
  5
1AE5
  8
TERMINAL_BLOCKS
 10
16.726250633637811
 20
23.133233753186872
 30
0.0
 11
16.726250633637811
 21
22.65823375318687
 31
0.0
  0
LINE
  5
1AE6
  8
TERMINAL_BLOCKS
 10
16.78625063363781
 20
23.133233753186872
 30
0.0
 11
16.78625063363781
 21
22.65823375318687
 31
0.0
  0
LINE
  5
1AE7
  8
TERMINAL_BLOCKS
 10
17.101250633637811
 20
23.133233753186872
 30
0.0
 11
17.101250633637811
 21
22.65823375318687
 31
0.0
  0
LINE
  5
1AE8
  8
TERMINAL_BLOCKS
 10
17.16125063363781
 20
23.133233753186872
 30
0.0
 11
17.16125063363781
 21
22.65823375318687
 31
0.0
  0
LINE
  5
1AE9
  8
TERMINAL_BLOCKS
 10
17.476250633637811
 20
23.133233753186872
 30
0.0
 11
17.476250633637811
 21
22.65823375318687
 31
0.0
  0
LINE
  5
1AEA
  8
TERMINAL_BLOCKS
 10
17.53625063363781
 20
23.133233753186872
 30
0.0
 11
17.53625063363781
 21
22.65823375318687
 31
0.0
  0
LINE
  5
1AEC
  8
TERMINAL_BLOCKS
 10
14.91125063363781
 20
23.133233753186879
 30
0.0
 11
14.851250633637809
 21
23.133233753186872
 31
0.0
  0
LINE
  5
1AED
  8
TERMINAL_BLOCKS
 10
15.28625063363781
 20
23.133233753186872
 30
0.0
 11
15.226250633637809
 21
23.133233753186879
 31
0.0
  0
LINE
  5
1AEE
  8
TERMINAL_BLOCKS
 10
15.66125063363781
 20
23.133233753186872
 30
0.0
 11
15.601250633637809
 21
23.133233753186872
 31
0.0
  0
LINE
  5
1AEF
  8
TERMINAL_BLOCKS
 10
16.03625063363781
 20
23.133233753186872
 30
0.0
 11
15.976250633637809
 21
23.133233753186872
 31
0.0
  0
LINE
  5
1AF0
  8
TERMINAL_BLOCKS
 10
16.41125063363781
 20
23.133233753186861
 30
0.0
 11
16.351250633637811
 21
23.133233753186872
 31
0.0
  0
LINE
  5
1AF1
  8
TERMINAL_BLOCKS
 10
16.78625063363781
 20
23.133233753186872
 30
0.0
 11
16.726250633637811
 21
23.133233753186861
 31
0.0
  0
LINE
  5
1AF2
  8
TERMINAL_BLOCKS
 10
17.16125063363781
 20
23.133233753186861
 30
0.0
 11
17.101250633637811
 21
23.133233753186872
 31
0.0
  0
LINE
  5
1AF3
  8
TERMINAL_BLOCKS
 10
17.53625063363781
 20
23.133233753186872
 30
0.0
 11
17.476250633637811
 21
23.133233753186861
 31
0.0
  0
LINE
  5
1AF4
  8
TERMINAL_BLOCKS
 10
14.53410252756389
 20
22.968233753186869
 30
0.0
 11
14.53410252756389
 21
22.65823375318687
 31
0.0
  0
LINE
  5
1AF5
  8
TERMINAL_BLOCKS
 10
17.834102527563878
 20
22.968233753186869
 30
0.0
 11
17.53625063363781
 21
22.968233753186869
 31
0.0
  0
LINE
  5
1AF6
  8
TERMINAL_BLOCKS
 10
17.834102527563878
 20
22.968233753186869
 30
0.0
 11
17.834102527563878
 21
22.65823375318687
 31
0.0
  0
LINE
  5
1AF7
  8
TERMINAL_BLOCKS
 10
14.851250633637809
 20
22.968233753186869
 30
0.0
 11
14.53410252756389
 21
22.968233753186869
 31
0.0
  0
LINE
  5
1AF8
  8
TERMINAL_BLOCKS
 10
15.226250633637809
 20
22.968233753186869
 30
0.0
 11
14.91125063363781
 21
22.968233753186869
 31
0.0
  0
LINE
  5
1AF9
  8
TERMINAL_BLOCKS
 10
15.601250633637809
 20
22.968233753186869
 30
0.0
 11
15.28625063363781
 21
22.968233753186869
 31
0.0
  0
LINE
  5
1AFA
  8
TERMINAL_BLOCKS
 10
15.976250633637809
 20
22.968233753186869
 30
0.0
 11
15.66125063363781
 21
22.968233753186869
 31
0.0
  0
LINE
  5
1AFB
  8
TERMINAL_BLOCKS
 10
16.351250633637811
 20
22.968233753186869
 30
0.0
 11
16.03625063363781
 21
22.968233753186869
 31
0.0
  0
LINE
  5
1AFC
  8
TERMINAL_BLOCKS
 10
16.726250633637811
 20
22.968233753186869
 30
0.0
 11
16.41125063363781
 21
22.968233753186869
 31
0.0
  0
LINE
  5
1AFD
  8
TERMINAL_BLOCKS
 10
17.101250633637811
 20
22.968233753186869
 30
0.0
 11
16.78625063363781
 21
22.968233753186869
 31
0.0
  0
LINE
  5
1AFE
  8
TERMINAL_BLOCKS
 10
17.476250633637811
 20
22.968233753186869
 30
0.0
 11
17.16125063363781
 21
22.968233753186869
 31
0.0
  0
LINE
  5
1AFF
  8
TERMINAL_BLOCKS
 10
26.970614024853099
 20
22.968233753186869
 30
0.0
 11
27.2856140248531
 21
22.968233753186869
 31
0.0
  0
LINE
  5
1B00
  8
TERMINAL_BLOCKS
 10
27.345614024853099
 20
22.968233753186869
 30
0.0
 11
27.6606140248531
 21
22.968233753186869
 31
0.0
  0
LINE
  5
1B01
  8
TERMINAL_BLOCKS
 10
27.720614024853099
 20
22.968233753186869
 30
0.0
 11
28.0356140248531
 21
22.968233753186869
 31
0.0
  0
LINE
  5
1B02
  8
TERMINAL_BLOCKS
 10
28.095614024853099
 20
22.968233753186869
 30
0.0
 11
28.4106140248531
 21
22.968233753186869
 31
0.0
  0
LINE
  5
1B03
  8
TERMINAL_BLOCKS
 10
28.470614024853099
 20
22.968233753186869
 30
0.0
 11
28.7856140248531
 21
22.968233753186869
 31
0.0
  0
LINE
  5
1B04
  8
TERMINAL_BLOCKS
 10
28.845614024853099
 20
22.968233753186869
 30
0.0
 11
29.1606140248531
 21
22.968233753186869
 31
0.0
  0
LINE
  5
1B05
  8
TERMINAL_BLOCKS
 10
29.220614024853099
 20
22.968233753186869
 30
0.0
 11
29.535614024853089
 21
22.968233753186869
 31
0.0
  0
LINE
  5
1B06
  8
TERMINAL_BLOCKS
 10
29.595614024853099
 20
22.968233753186869
 30
0.0
 11
29.912762130927021
 21
22.968233753186869
 31
0.0
  0
LINE
  5
1B07
  8
TERMINAL_BLOCKS
 10
26.612762130927031
 20
22.968233753186869
 30
0.0
 11
26.612762130927031
 21
22.65823375318687
 31
0.0
  0
LINE
  5
1B08
  8
TERMINAL_BLOCKS
 10
26.612762130927031
 20
22.968233753186869
 30
0.0
 11
26.9106140248531
 21
22.968233753186869
 31
0.0
  0
LINE
  5
1B09
  8
TERMINAL_BLOCKS
 10
29.912762130927021
 20
22.968233753186869
 30
0.0
 11
29.912762130927021
 21
22.65823375318687
 31
0.0
  0
LINE
  5
1B0A
  8
TERMINAL_BLOCKS
 10
26.9106140248531
 20
23.133233753186872
 30
0.0
 11
26.970614024853099
 21
23.133233753186861
 31
0.0
  0
LINE
  5
1B0B
  8
TERMINAL_BLOCKS
 10
27.2856140248531
 20
23.133233753186861
 30
0.0
 11
27.345614024853099
 21
23.133233753186872
 31
0.0
  0
LINE
  5
1B0C
  8
TERMINAL_BLOCKS
 10
27.6606140248531
 20
23.133233753186872
 30
0.0
 11
27.720614024853099
 21
23.133233753186861
 31
0.0
  0
LINE
  5
1B0D
  8
TERMINAL_BLOCKS
 10
28.0356140248531
 20
23.133233753186861
 30
0.0
 11
28.095614024853099
 21
23.133233753186872
 31
0.0
  0
LINE
  5
1B0E
  8
TERMINAL_BLOCKS
 10
28.4106140248531
 20
23.133233753186872
 30
0.0
 11
28.470614024853099
 21
23.133233753186872
 31
0.0
  0
LINE
  5
1B0F
  8
TERMINAL_BLOCKS
 10
28.7856140248531
 20
23.133233753186872
 30
0.0
 11
28.845614024853099
 21
23.133233753186872
 31
0.0
  0
LINE
  5
1B10
  8
TERMINAL_BLOCKS
 10
29.1606140248531
 20
23.133233753186872
 30
0.0
 11
29.220614024853099
 21
23.133233753186879
 31
0.0
  0
LINE
  5
1B11
  8
TERMINAL_BLOCKS
 10
29.535614024853089
 20
23.133233753186879
 30
0.0
 11
29.595614024853099
 21
23.133233753186872
 31
0.0
  0
LINE
  5
1B12
  8
TERMINAL_BLOCKS
 10
26.9106140248531
 20
23.133233753186872
 30
0.0
 11
26.9106140248531
 21
22.65823375318687
 31
0.0
  0
LINE
  5
1B13
  8
TERMINAL_BLOCKS
 10
26.970614024853099
 20
23.133233753186872
 30
0.0
 11
26.970614024853099
 21
22.65823375318687
 31
0.0
  0
LINE
  5
1B14
  8
TERMINAL_BLOCKS
 10
27.2856140248531
 20
23.133233753186872
 30
0.0
 11
27.2856140248531
 21
22.65823375318687
 31
0.0
  0
LINE
  5
1B15
  8
TERMINAL_BLOCKS
 10
27.345614024853099
 20
23.133233753186872
 30
0.0
 11
27.345614024853099
 21
22.65823375318687
 31
0.0
  0
LINE
  5
1B16
  8
TERMINAL_BLOCKS
 10
27.6606140248531
 20
23.133233753186872
 30
0.0
 11
27.6606140248531
 21
22.65823375318687
 31
0.0
  0
LINE
  5
1B17
  8
TERMINAL_BLOCKS
 10
27.720614024853099
 20
23.133233753186872
 30
0.0
 11
27.720614024853099
 21
22.65823375318687
 31
0.0
  0
LINE
  5
1B18
  8
TERMINAL_BLOCKS
 10
28.0356140248531
 20
23.133233753186872
 30
0.0
 11
28.0356140248531
 21
22.65823375318687
 31
0.0
  0
LINE
  5
1B19
  8
TERMINAL_BLOCKS
 10
28.095614024853099
 20
23.133233753186872
 30
0.0
 11
28.095614024853099
 21
22.65823375318687
 31
0.0
  0
LINE
  5
1B1A
  8
TERMINAL_BLOCKS
 10
28.4106140248531
 20
23.133233753186872
 30
0.0
 11
28.4106140248531
 21
22.65823375318687
 31
0.0
  0
LINE
  5
1B1B
  8
TERMINAL_BLOCKS
 10
28.470614024853099
 20
23.133233753186872
 30
0.0
 11
28.470614024853099
 21
22.65823375318687
 31
0.0
  0
LINE
  5
1B1C
  8
TERMINAL_BLOCKS
 10
28.7856140248531
 20
23.133233753186872
 30
0.0
 11
28.7856140248531
 21
22.65823375318687
 31
0.0
  0
LINE
  5
1B1D
  8
TERMINAL_BLOCKS
 10
28.845614024853099
 20
23.133233753186872
 30
0.0
 11
28.845614024853099
 21
22.65823375318687
 31
0.0
  0
LINE
  5
1B1E
  8
TERMINAL_BLOCKS
 10
29.1606140248531
 20
23.133233753186872
 30
0.0
 11
29.1606140248531
 21
22.65823375318687
 31
0.0
  0
LINE
  5
1B1F
  8
TERMINAL_BLOCKS
 10
29.220614024853099
 20
23.133233753186872
 30
0.0
 11
29.220614024853099
 21
22.65823375318687
 31
0.0
  0
LINE
  5
1B20
  8
TERMINAL_BLOCKS
 10
29.535614024853089
 20
23.133233753186872
 30
0.0
 11
29.535614024853089
 21
22.65823375318687
 31
0.0
  0
LINE
  5
1B21
  8
TERMINAL_BLOCKS
 10
29.595614024853099
 20
23.133233753186872
 30
0.0
 11
29.595614024853099
 21
22.65823375318687
 31
0.0
  0
LINE
  5
1B22
  8
TERMINAL_BLOCKS
 10
26.782762130927019
 20
23.008233753186872
 30
0.0
 11
26.742762130927019
 21
23.008233753186872
 31
0.0
  0
LINE
  5
1B23
  8
TERMINAL_BLOCKS
 10
26.668060208209639
 20
22.968233753186869
 30
0.0
 11
26.668060208209639
 21
22.993815337099189
 31
0.0
  0
LINE
  5
1B24
  8
TERMINAL_BLOCKS
 10
26.782762130927019
 20
23.03058363942986
 30
0.0
 11
26.782762130927019
 21
23.008233753186872
 31
0.0
  0
LINE
  5
1B25
  8
TERMINAL_BLOCKS
 10
26.742762130927019
 20
23.030583639429871
 30
0.0
 11
26.742762130927019
 21
23.008233753186872
 31
0.0
  0
ARC
  5
1B26
  8
TERMINAL_BLOCKS
 10
26.762955490482291
 20
22.895287062581151
 30
0.0
 40
0.1367952319238812
 50
98.488877857676783
 51
133.92396431287511
  0
LINE
  5
1B27
  8
TERMINAL_BLOCKS
 10
26.857464053644399
 20
22.968233753186869
 30
0.0
 11
26.857464053644399
 21
22.993815337099189
 31
0.0
  0
ARC
  5
1B28
  8
TERMINAL_BLOCKS
 10
26.762568771371761
 20
22.895287062581151
 30
0.0
 40
0.1367952319238812
 50
46.0760356871249
 51
81.511122142323387
  0
LINE
  5
1B29
  8
TERMINAL_BLOCKS
 10
27.157762130927019
 20
23.008233753186872
 30
0.0
 11
27.117762130927019
 21
23.008233753186872
 31
0.0
  0
LINE
  5
1B2A
  8
TERMINAL_BLOCKS
 10
27.043060208209639
 20
22.968233753186869
 30
0.0
 11
27.043060208209639
 21
22.993815337099189
 31
0.0
  0
LINE
  5
1B2B
  8
TERMINAL_BLOCKS
 10
27.157762130927019
 20
23.03058363942986
 30
0.0
 11
27.157762130927019
 21
23.008233753186872
 31
0.0
  0
LINE
  5
1B2C
  8
TERMINAL_BLOCKS
 10
27.117762130927019
 20
23.030583639429871
 30
0.0
 11
27.117762130927019
 21
23.008233753186872
 31
0.0
  0
ARC
  5
1B2D
  8
TERMINAL_BLOCKS
 10
27.13795549048228
 20
22.895287062581151
 30
0.0
 40
0.1367952319238812
 50
98.488877857676783
 51
133.92396431287511
  0
LINE
  5
1B2E
  8
TERMINAL_BLOCKS
 10
27.232464053644399
 20
22.968233753186869
 30
0.0
 11
27.232464053644399
 21
22.993815337099189
 31
0.0
  0
ARC
  5
1B2F
  8
TERMINAL_BLOCKS
 10
27.13756877137175
 20
22.895287062581151
 30
0.0
 40
0.1367952319238812
 50
46.0760356871249
 51
81.511122142323387
  0
LINE
  5
1B30
  8
TERMINAL_BLOCKS
 10
27.532762130927019
 20
23.008233753186872
 30
0.0
 11
27.492762130927019
 21
23.008233753186872
 31
0.0
  0
LINE
  5
1B31
  8
TERMINAL_BLOCKS
 10
27.418060208209639
 20
22.968233753186869
 30
0.0
 11
27.418060208209639
 21
22.993815337099189
 31
0.0
  0
LINE
  5
1B32
  8
TERMINAL_BLOCKS
 10
27.532762130927019
 20
23.03058363942986
 30
0.0
 11
27.532762130927019
 21
23.008233753186872
 31
0.0
  0
LINE
  5
1B33
  8
TERMINAL_BLOCKS
 10
27.492762130927019
 20
23.030583639429871
 30
0.0
 11
27.492762130927019
 21
23.008233753186872
 31
0.0
  0
ARC
  5
1B34
  8
TERMINAL_BLOCKS
 10
27.51295549048228
 20
22.895287062581151
 30
0.0
 40
0.1367952319238812
 50
98.488877857676783
 51
133.92396431287511
  0
LINE
  5
1B35
  8
TERMINAL_BLOCKS
 10
27.607464053644399
 20
22.968233753186869
 30
0.0
 11
27.607464053644399
 21
22.993815337099189
 31
0.0
  0
ARC
  5
1B36
  8
TERMINAL_BLOCKS
 10
27.51256877137175
 20
22.895287062581151
 30
0.0
 40
0.1367952319238812
 50
46.0760356871249
 51
81.511122142323387
  0
LINE
  5
1B37
  8
TERMINAL_BLOCKS
 10
27.907762130927019
 20
23.008233753186872
 30
0.0
 11
27.867762130927019
 21
23.008233753186872
 31
0.0
  0
LINE
  5
1B38
  8
TERMINAL_BLOCKS
 10
27.793060208209639
 20
22.968233753186869
 30
0.0
 11
27.793060208209639
 21
22.993815337099189
 31
0.0
  0
LINE
  5
1B39
  8
TERMINAL_BLOCKS
 10
27.907762130927019
 20
23.03058363942986
 30
0.0
 11
27.907762130927019
 21
23.008233753186872
 31
0.0
  0
LINE
  5
1B3A
  8
TERMINAL_BLOCKS
 10
27.867762130927019
 20
23.030583639429871
 30
0.0
 11
27.867762130927019
 21
23.008233753186872
 31
0.0
  0
ARC
  5
1B3B
  8
TERMINAL_BLOCKS
 10
27.887955490482291
 20
22.895287062581151
 30
0.0
 40
0.1367952319238812
 50
98.488877857676783
 51
133.92396431287511
  0
LINE
  5
1B3C
  8
TERMINAL_BLOCKS
 10
27.982464053644399
 20
22.968233753186869
 30
0.0
 11
27.982464053644399
 21
22.993815337099189
 31
0.0
  0
ARC
  5
1B3D
  8
TERMINAL_BLOCKS
 10
27.887568771371761
 20
22.895287062581151
 30
0.0
 40
0.1367952319238812
 50
46.0760356871249
 51
81.511122142323387
  0
LINE
  5
1B3E
  8
TERMINAL_BLOCKS
 10
28.282762130927019
 20
23.008233753186872
 30
0.0
 11
28.242762130927019
 21
23.008233753186872
 31
0.0
  0
LINE
  5
1B3F
  8
TERMINAL_BLOCKS
 10
28.168060208209639
 20
22.968233753186869
 30
0.0
 11
28.168060208209639
 21
22.993815337099189
 31
0.0
  0
LINE
  5
1B40
  8
TERMINAL_BLOCKS
 10
28.282762130927019
 20
23.03058363942986
 30
0.0
 11
28.282762130927019
 21
23.008233753186872
 31
0.0
  0
LINE
  5
1B41
  8
TERMINAL_BLOCKS
 10
28.242762130927019
 20
23.030583639429871
 30
0.0
 11
28.242762130927019
 21
23.008233753186872
 31
0.0
  0
ARC
  5
1B42
  8
TERMINAL_BLOCKS
 10
28.262955490482291
 20
22.895287062581151
 30
0.0
 40
0.1367952319238812
 50
98.488877857676783
 51
133.92396431287511
  0
LINE
  5
1B43
  8
TERMINAL_BLOCKS
 10
28.357464053644399
 20
22.968233753186869
 30
0.0
 11
28.357464053644399
 21
22.993815337099189
 31
0.0
  0
ARC
  5
1B44
  8
TERMINAL_BLOCKS
 10
28.262568771371761
 20
22.895287062581151
 30
0.0
 40
0.1367952319238812
 50
46.0760356871249
 51
81.511122142323387
  0
LINE
  5
1B45
  8
TERMINAL_BLOCKS
 10
28.657762130927019
 20
23.008233753186872
 30
0.0
 11
28.617762130927019
 21
23.008233753186872
 31
0.0
  0
LINE
  5
1B46
  8
TERMINAL_BLOCKS
 10
28.543060208209639
 20
22.968233753186869
 30
0.0
 11
28.543060208209639
 21
22.993815337099189
 31
0.0
  0
LINE
  5
1B47
  8
TERMINAL_BLOCKS
 10
28.657762130927019
 20
23.03058363942986
 30
0.0
 11
28.657762130927019
 21
23.008233753186872
 31
0.0
  0
LINE
  5
1B48
  8
TERMINAL_BLOCKS
 10
28.617762130927019
 20
23.030583639429871
 30
0.0
 11
28.617762130927019
 21
23.008233753186872
 31
0.0
  0
ARC
  5
1B49
  8
TERMINAL_BLOCKS
 10
28.637955490482291
 20
22.895287062581151
 30
0.0
 40
0.1367952319238812
 50
98.488877857676783
 51
133.92396431287511
  0
LINE
  5
1B4A
  8
TERMINAL_BLOCKS
 10
28.732464053644399
 20
22.968233753186869
 30
0.0
 11
28.732464053644399
 21
22.993815337099189
 31
0.0
  0
ARC
  5
1B4B
  8
TERMINAL_BLOCKS
 10
28.637568771371761
 20
22.895287062581151
 30
0.0
 40
0.1367952319238812
 50
46.0760356871249
 51
81.511122142323387
  0
LINE
  5
1B4C
  8
TERMINAL_BLOCKS
 10
29.032762130927019
 20
23.008233753186872
 30
0.0
 11
28.992762130927019
 21
23.008233753186872
 31
0.0
  0
LINE
  5
1B4D
  8
TERMINAL_BLOCKS
 10
28.918060208209639
 20
22.968233753186869
 30
0.0
 11
28.918060208209639
 21
22.993815337099189
 31
0.0
  0
LINE
  5
1B4E
  8
TERMINAL_BLOCKS
 10
29.032762130927019
 20
23.03058363942986
 30
0.0
 11
29.032762130927019
 21
23.008233753186872
 31
0.0
  0
LINE
  5
1B4F
  8
TERMINAL_BLOCKS
 10
28.992762130927019
 20
23.030583639429871
 30
0.0
 11
28.992762130927019
 21
23.008233753186872
 31
0.0
  0
ARC
  5
1B50
  8
TERMINAL_BLOCKS
 10
29.01295549048228
 20
22.895287062581151
 30
0.0
 40
0.1367952319238812
 50
98.488877857676783
 51
133.92396431287511
  0
LINE
  5
1B51
  8
TERMINAL_BLOCKS
 10
29.107464053644399
 20
22.968233753186869
 30
0.0
 11
29.107464053644399
 21
22.993815337099189
 31
0.0
  0
ARC
  5
1B52
  8
TERMINAL_BLOCKS
 10
29.01256877137175
 20
22.895287062581151
 30
0.0
 40
0.1367952319238812
 50
46.0760356871249
 51
81.511122142323387
  0
LINE
  5
1B53
  8
TERMINAL_BLOCKS
 10
29.407762130927019
 20
23.008233753186872
 30
0.0
 11
29.367762130927019
 21
23.008233753186872
 31
0.0
  0
LINE
  5
1B54
  8
TERMINAL_BLOCKS
 10
29.293060208209639
 20
22.968233753186869
 30
0.0
 11
29.293060208209639
 21
22.993815337099189
 31
0.0
  0
LINE
  5
1B55
  8
TERMINAL_BLOCKS
 10
29.407762130927019
 20
23.03058363942986
 30
0.0
 11
29.407762130927019
 21
23.008233753186872
 31
0.0
  0
LINE
  5
1B56
  8
TERMINAL_BLOCKS
 10
29.367762130927019
 20
23.030583639429871
 30
0.0
 11
29.367762130927019
 21
23.008233753186872
 31
0.0
  0
ARC
  5
1B57
  8
TERMINAL_BLOCKS
 10
29.38795549048228
 20
22.895287062581151
 30
0.0
 40
0.1367952319238812
 50
98.488877857676783
 51
133.92396431287511
  0
LINE
  5
1B58
  8
TERMINAL_BLOCKS
 10
29.482464053644399
 20
22.968233753186869
 30
0.0
 11
29.482464053644399
 21
22.993815337099189
 31
0.0
  0
ARC
  5
1B59
  8
TERMINAL_BLOCKS
 10
29.38756877137175
 20
22.895287062581151
 30
0.0
 40
0.1367952319238812
 50
46.0760356871249
 51
81.511122142323387
  0
ARC
  5
1B5A
  8
TERMINAL_BLOCKS
 10
29.762568771371761
 20
22.895287062581151
 30
0.0
 40
0.1367952319238812
 50
46.0760356871249
 51
81.511122142323387
  0
LINE
  5
1B5B
  8
TERMINAL_BLOCKS
 10
29.857464053644399
 20
22.968233753186869
 30
0.0
 11
29.857464053644399
 21
22.993815337099189
 31
0.0
  0
ARC
  5
1B5C
  8
TERMINAL_BLOCKS
 10
29.762955490482291
 20
22.895287062581151
 30
0.0
 40
0.1367952319238812
 50
98.488877857676783
 51
133.92396431287511
  0
LINE
  5
1B5D
  8
TERMINAL_BLOCKS
 10
29.742762130927019
 20
23.030583639429871
 30
0.0
 11
29.742762130927019
 21
23.008233753186872
 31
0.0
  0
LINE
  5
1B5E
  8
TERMINAL_BLOCKS
 10
29.782762130927019
 20
23.03058363942986
 30
0.0
 11
29.782762130927019
 21
23.008233753186872
 31
0.0
  0
LINE
  5
1B5F
  8
TERMINAL_BLOCKS
 10
29.668060208209639
 20
22.968233753186869
 30
0.0
 11
29.668060208209639
 21
22.993815337099189
 31
0.0
  0
LINE
  5
1B60
  8
TERMINAL_BLOCKS
 10
29.782762130927019
 20
23.008233753186872
 30
0.0
 11
29.742762130927019
 21
23.008233753186872
 31
0.0
  0
LINE
  5
1BAA
  8
HEATSINK
 10
19.848432329245451
 20
21.76823375318688
 30
0.0
 11
24.598432329245458
 21
21.76823375318688
 31
0.0
  0
LINE
  5
1BD5
  8
HEATSINK
 10
19.984730406528069
 20
21.636233753186879
 30
0.0
 11
19.984730406528069
 21
21.610652169274559
 31
0.0
  0
ARC
  5
1BD6
  8
HEATSINK
 10
20.079625688800721
 20
21.709180443792601
 30
0.0
 40
0.1367952319238812
 50
226.07603568712489
 51
261.51112214232342
  0
LINE
  5
1BD7
  8
HEATSINK
 10
20.05943232924545
 20
21.573883866943891
 30
0.0
 11
20.05943232924545
 21
21.59623375318688
 31
0.0
  0
LINE
  5
1BD8
  8
HEATSINK
 10
20.05943232924545
 20
21.59623375318688
 30
0.0
 11
20.099432329245449
 21
21.59623375318688
 31
0.0
  0
LINE
  5
1BD9
  8
HEATSINK
 10
20.099432329245449
 20
21.573883866943891
 30
0.0
 11
20.099432329245449
 21
21.59623375318688
 31
0.0
  0
ARC
  5
1BDA
  8
HEATSINK
 10
20.079238969690191
 20
21.709180443792601
 30
0.0
 40
0.1367952319238812
 50
278.4888778576767
 51
313.923964312875
  0
LINE
  5
1BDB
  8
HEATSINK
 10
20.17413425196284
 20
21.636233753186879
 30
0.0
 11
20.17413425196284
 21
21.610652169274559
 31
0.0
  0
LINE
  5
1BDC
  8
HEATSINK
 10
24.387432329245449
 20
21.596233753186869
 30
0.0
 11
24.34743232924545
 21
21.596233753186869
 31
0.0
  0
LINE
  5
1BDD
  8
HEATSINK
 10
24.387432329245449
 20
21.57388386694387
 30
0.0
 11
24.387432329245449
 21
21.596233753186869
 31
0.0
  0
ARC
  5
1BDE
  8
HEATSINK
 10
24.367238969690192
 20
21.70918044379259
 30
0.0
 40
0.1367952319238812
 50
278.4888778576767
 51
313.923964312875
  0
ARC
  5
1BDF
  8
HEATSINK
 10
24.367625688800722
 20
21.70918044379259
 30
0.0
 40
0.1367952319238812
 50
226.07603568712489
 51
261.51112214232319
  0
LINE
  5
1BE0
  8
HEATSINK
 10
24.34743232924545
 20
21.57388386694387
 30
0.0
 11
24.34743232924545
 21
21.596233753186869
 31
0.0
  0
LINE
  5
1BE1
  8
HEATSINK
 10
24.46213425196283
 20
21.636233753186868
 30
0.0
 11
24.46213425196283
 21
21.610652169274541
 31
0.0
  0
LINE
  5
1BE2
  8
HEATSINK
 10
24.272730406528069
 20
21.636233753186868
 30
0.0
 11
24.272730406528069
 21
21.610652169274541
 31
0.0
  0
LINE
  5
1BF1
  8
HEATSINK
 10
19.848432329245451
 20
21.636233753186879
 30
0.0
 11
20.24843232924546
 21
21.636233753186879
 31
0.0
  0
LINE
  5
1BF2
  8
HEATSINK
 10
19.848432329245451
 20
21.636233753186879
 30
0.0
 11
19.848432329245451
 21
21.76823375318688
 31
0.0
  0
LINE
  5
1BF3
  8
HEATSINK
 10
24.598432329245458
 20
21.636233753186868
 30
0.0
 11
24.598432329245458
 21
21.76823375318687
 31
0.0
  0
LINE
  5
1BF7
  8
HEATSINK
 10
20.298432329245461
 20
21.636233753186868
 30
0.0
 11
20.298432329245461
 21
21.26823375318688
 31
0.0
  0
LINE
  5
1BF8
  8
HEATSINK
 10
20.298432329245461
 20
21.26823375318688
 30
0.0
 11
20.24843232924546
 21
21.26823375318688
 31
0.0
  0
LINE
  5
1BF9
  8
HEATSINK
 10
20.24843232924546
 20
21.26823375318688
 30
0.0
 11
20.24843232924546
 21
21.636233753186868
 31
0.0
  0
LINE
  5
1BFA
  8
HEATSINK
 10
20.548432329245461
 20
21.26823375318688
 30
0.0
 11
20.548432329245461
 21
21.636233753186868
 31
0.0
  0
LINE
  5
1BFB
  8
HEATSINK
 10
20.598432329245458
 20
21.26823375318688
 30
0.0
 11
20.548432329245461
 21
21.26823375318688
 31
0.0
  0
LINE
  5
1BFC
  8
HEATSINK
 10
20.598432329245458
 20
21.636233753186868
 30
0.0
 11
20.598432329245458
 21
21.26823375318688
 31
0.0
  0
LINE
  5
1BFD
  8
HEATSINK
 10
20.848432329245458
 20
21.26823375318688
 30
0.0
 11
20.848432329245458
 21
21.636233753186868
 31
0.0
  0
LINE
  5
1BFE
  8
HEATSINK
 10
20.898432329245459
 20
21.26823375318688
 30
0.0
 11
20.848432329245458
 21
21.26823375318688
 31
0.0
  0
LINE
  5
1BFF
  8
HEATSINK
 10
20.898432329245459
 20
21.636233753186868
 30
0.0
 11
20.898432329245459
 21
21.26823375318688
 31
0.0
  0
LINE
  5
1C00
  8
HEATSINK
 10
21.148432329245459
 20
21.26823375318688
 30
0.0
 11
21.148432329245459
 21
21.636233753186868
 31
0.0
  0
LINE
  5
1C01
  8
HEATSINK
 10
21.19843232924546
 20
21.26823375318688
 30
0.0
 11
21.148432329245459
 21
21.26823375318688
 31
0.0
  0
LINE
  5
1C02
  8
HEATSINK
 10
21.19843232924546
 20
21.636233753186868
 30
0.0
 11
21.19843232924546
 21
21.26823375318688
 31
0.0
  0
LINE
  5
1C03
  8
HEATSINK
 10
21.44843232924546
 20
21.26823375318688
 30
0.0
 11
21.44843232924546
 21
21.636233753186868
 31
0.0
  0
LINE
  5
1C04
  8
HEATSINK
 10
21.49843232924546
 20
21.26823375318688
 30
0.0
 11
21.44843232924546
 21
21.26823375318688
 31
0.0
  0
LINE
  5
1C05
  8
HEATSINK
 10
21.49843232924546
 20
21.636233753186868
 30
0.0
 11
21.49843232924546
 21
21.26823375318688
 31
0.0
  0
LINE
  5
1C06
  8
HEATSINK
 10
21.74843232924545
 20
21.26823375318688
 30
0.0
 11
21.74843232924545
 21
21.636233753186868
 31
0.0
  0
LINE
  5
1C07
  8
HEATSINK
 10
21.798432329245461
 20
21.26823375318688
 30
0.0
 11
21.74843232924545
 21
21.26823375318688
 31
0.0
  0
LINE
  5
1C08
  8
HEATSINK
 10
21.798432329245461
 20
21.636233753186868
 30
0.0
 11
21.798432329245461
 21
21.26823375318688
 31
0.0
  0
LINE
  5
1C09
  8
HEATSINK
 10
22.048432329245461
 20
21.26823375318688
 30
0.0
 11
22.048432329245461
 21
21.636233753186868
 31
0.0
  0
LINE
  5
1C0A
  8
HEATSINK
 10
22.098432329245458
 20
21.26823375318688
 30
0.0
 11
22.048432329245461
 21
21.26823375318688
 31
0.0
  0
LINE
  5
1C0B
  8
HEATSINK
 10
22.098432329245458
 20
21.636233753186868
 30
0.0
 11
22.098432329245458
 21
21.26823375318688
 31
0.0
  0
LINE
  5
1C0C
  8
HEATSINK
 10
22.348432329245458
 20
21.26823375318688
 30
0.0
 11
22.348432329245458
 21
21.636233753186868
 31
0.0
  0
LINE
  5
1C0D
  8
HEATSINK
 10
22.398432329245448
 20
21.26823375318688
 30
0.0
 11
22.348432329245458
 21
21.26823375318688
 31
0.0
  0
LINE
  5
1C0E
  8
HEATSINK
 10
22.398432329245448
 20
21.636233753186868
 30
0.0
 11
22.398432329245448
 21
21.26823375318688
 31
0.0
  0
LINE
  5
1C0F
  8
HEATSINK
 10
22.648432329245448
 20
21.26823375318688
 30
0.0
 11
22.648432329245448
 21
21.636233753186868
 31
0.0
  0
LINE
  5
1C10
  8
HEATSINK
 10
22.69843232924546
 20
21.26823375318688
 30
0.0
 11
22.648432329245448
 21
21.26823375318688
 31
0.0
  0
LINE
  5
1C11
  8
HEATSINK
 10
22.69843232924546
 20
21.636233753186868
 30
0.0
 11
22.69843232924546
 21
21.26823375318688
 31
0.0
  0
LINE
  5
1C12
  8
HEATSINK
 10
22.94843232924546
 20
21.26823375318688
 30
0.0
 11
22.94843232924546
 21
21.636233753186868
 31
0.0
  0
LINE
  5
1C13
  8
HEATSINK
 10
22.99843232924545
 20
21.26823375318688
 30
0.0
 11
22.94843232924546
 21
21.26823375318688
 31
0.0
  0
LINE
  5
1C14
  8
HEATSINK
 10
22.99843232924545
 20
21.636233753186868
 30
0.0
 11
22.99843232924545
 21
21.26823375318688
 31
0.0
  0
LINE
  5
1C15
  8
HEATSINK
 10
23.24843232924545
 20
21.26823375318688
 30
0.0
 11
23.24843232924545
 21
21.636233753186868
 31
0.0
  0
LINE
  5
1C16
  8
HEATSINK
 10
23.298432329245461
 20
21.26823375318688
 30
0.0
 11
23.24843232924545
 21
21.26823375318688
 31
0.0
  0
LINE
  5
1C17
  8
HEATSINK
 10
23.298432329245461
 20
21.636233753186868
 30
0.0
 11
23.298432329245461
 21
21.26823375318688
 31
0.0
  0
LINE
  5
1C18
  8
HEATSINK
 10
23.548432329245461
 20
21.26823375318688
 30
0.0
 11
23.548432329245461
 21
21.636233753186868
 31
0.0
  0
LINE
  5
1C19
  8
HEATSINK
 10
23.598432329245458
 20
21.26823375318688
 30
0.0
 11
23.548432329245461
 21
21.26823375318688
 31
0.0
  0
LINE
  5
1C1A
  8
HEATSINK
 10
23.598432329245458
 20
21.636233753186868
 30
0.0
 11
23.598432329245458
 21
21.26823375318688
 31
0.0
  0
LINE
  5
1C1B
  8
HEATSINK
 10
23.848432329245451
 20
21.26823375318688
 30
0.0
 11
23.848432329245451
 21
21.636233753186868
 31
0.0
  0
LINE
  5
1C1C
  8
HEATSINK
 10
23.898432329245448
 20
21.26823375318688
 30
0.0
 11
23.848432329245451
 21
21.26823375318688
 31
0.0
  0
LINE
  5
1C1D
  8
HEATSINK
 10
23.898432329245448
 20
21.636233753186868
 30
0.0
 11
23.898432329245448
 21
21.26823375318688
 31
0.0
  0
LINE
  5
1C1E
  8
HEATSINK
 10
24.148432329245448
 20
21.26823375318688
 30
0.0
 11
24.148432329245448
 21
21.636233753186868
 31
0.0
  0
LINE
  5
1C1F
  8
HEATSINK
 10
24.19843232924546
 20
21.26823375318688
 30
0.0
 11
24.148432329245448
 21
21.26823375318688
 31
0.0
  0
LINE
  5
1C20
  8
HEATSINK
 10
24.19843232924546
 20
21.636233753186868
 30
0.0
 11
24.19843232924546
 21
21.26823375318688
 31
0.0
  0
LINE
  5
1C22
  8
HEATSINK
 10
20.298432329245461
 20
21.636233753186879
 30
0.0
 11
20.548432329245461
 21
21.63623375318689
 31
0.0
  0
LINE
  5
1C23
  8
HEATSINK
 10
20.598432329245458
 20
21.63623375318689
 30
0.0
 11
20.848432329245458
 21
21.63623375318689
 31
0.0
  0
LINE
  5
1C24
  8
HEATSINK
 10
20.898432329245459
 20
21.63623375318689
 30
0.0
 11
21.148432329245459
 21
21.63623375318689
 31
0.0
  0
LINE
  5
1C25
  8
HEATSINK
 10
21.19843232924546
 20
21.63623375318689
 30
0.0
 11
21.44843232924546
 21
21.63623375318689
 31
0.0
  0
LINE
  5
1C26
  8
HEATSINK
 10
21.49843232924546
 20
21.63623375318689
 30
0.0
 11
21.74843232924545
 21
21.636233753186879
 31
0.0
  0
LINE
  5
1C27
  8
HEATSINK
 10
21.798432329245461
 20
21.636233753186879
 30
0.0
 11
22.048432329245461
 21
21.636233753186879
 31
0.0
  0
LINE
  5
1C28
  8
HEATSINK
 10
22.098432329245458
 20
21.636233753186879
 30
0.0
 11
22.348432329245458
 21
21.636233753186879
 31
0.0
  0
LINE
  5
1C29
  8
HEATSINK
 10
22.398432329245448
 20
21.636233753186879
 30
0.0
 11
22.648432329245448
 21
21.636233753186868
 31
0.0
  0
LINE
  5
1C2A
  8
HEATSINK
 10
22.69843232924546
 20
21.636233753186868
 30
0.0
 11
22.94843232924546
 21
21.636233753186868
 31
0.0
  0
LINE
  5
1C2B
  8
HEATSINK
 10
22.99843232924545
 20
21.636233753186868
 30
0.0
 11
23.24843232924545
 21
21.636233753186868
 31
0.0
  0
LINE
  5
1C2C
  8
HEATSINK
 10
23.298432329245461
 20
21.636233753186868
 30
0.0
 11
23.548432329245461
 21
21.636233753186868
 31
0.0
  0
LINE
  5
1C2D
  8
HEATSINK
 10
23.598432329245458
 20
21.636233753186868
 30
0.0
 11
23.848432329245451
 21
21.636233753186868
 31
0.0
  0
LINE
  5
1C2E
  8
HEATSINK
 10
23.898432329245448
 20
21.636233753186868
 30
0.0
 11
24.148432329245448
 21
21.636233753186868
 31
0.0
  0
LINE
  5
1C2F
  8
HEATSINK
 10
24.19843232924546
 20
21.636233753186868
 30
0.0
 11
24.598432329245458
 21
21.636233753186868
 31
0.0
  0
LINE
  5
1C30
  8
HEATSINK
 10
14.559102527563891
 20
21.76823375318688
 30
0.0
 11
17.80910252756388
 21
21.76823375318688
 31
0.0
  0
LINE
  5
1C31
  8
HEATSINK
 10
17.80910252756388
 20
21.636233753186879
 30
0.0
 11
14.559102527563891
 21
21.63623375318689
 31
0.0
  0
LINE
  5
1C33
  8
HEATSINK
 10
17.80910252756388
 20
21.26823375318688
 30
0.0
 11
14.559102527563891
 21
21.26823375318688
 31
0.0
  0
LINE
  5
1C34
  8
HEATSINK
 10
14.559102527563891
 20
21.76823375318688
 30
0.0
 11
14.559102527563891
 21
21.26823375318688
 31
0.0
  0
LINE
  5
1C35
  8
HEATSINK
 10
17.80910252756388
 20
21.76823375318688
 30
0.0
 11
17.80910252756388
 21
21.26823375318688
 31
0.0
  0
LINE
  5
1C38
  8
HEATSINK
 10
17.778804450281271
 20
21.636233753186879
 30
0.0
 11
17.778804450281271
 21
21.610652169274559
 31
0.0
  0
ARC
  5
1C39
  8
HEATSINK
 10
17.683909168008618
 20
21.709180443792601
 30
0.0
 40
0.1367952319238812
 50
278.4888778576767
 51
313.923964312875
  0
LINE
  5
1C3A
  8
HEATSINK
 10
17.704102527563879
 20
21.573883866943891
 30
0.0
 11
17.704102527563879
 21
21.59623375318688
 31
0.0
  0
LINE
  5
1C3B
  8
HEATSINK
 10
17.66410252756388
 20
21.59623375318688
 30
0.0
 11
17.704102527563879
 21
21.59623375318688
 31
0.0
  0
LINE
  5
1C3C
  8
HEATSINK
 10
17.66410252756388
 20
21.573883866943891
 30
0.0
 11
17.66410252756388
 21
21.59623375318688
 31
0.0
  0
ARC
  5
1C3D
  8
HEATSINK
 10
17.684295887119148
 20
21.709180443792601
 30
0.0
 40
0.1367952319238812
 50
226.07603568712489
 51
261.51112214232342
  0
LINE
  5
1C3E
  8
HEATSINK
 10
17.589400604846499
 20
21.636233753186879
 30
0.0
 11
17.589400604846499
 21
21.610652169274559
 31
0.0
  0
LINE
  5
1C41
  8
HEATSINK
 10
14.778804450281269
 20
21.636233753186879
 30
0.0
 11
14.778804450281269
 21
21.610652169274559
 31
0.0
  0
ARC
  5
1C42
  8
HEATSINK
 10
14.68390916800862
 20
21.709180443792601
 30
0.0
 40
0.1367952319238812
 50
278.4888778576767
 51
313.92396431287511
  0
LINE
  5
1C43
  8
HEATSINK
 10
14.70410252756389
 20
21.573883866943891
 30
0.0
 11
14.70410252756389
 21
21.59623375318688
 31
0.0
  0
LINE
  5
1C44
  8
HEATSINK
 10
14.70410252756389
 20
21.59623375318688
 30
0.0
 11
14.664102527563889
 21
21.59623375318688
 31
0.0
  0
LINE
  5
1C45
  8
HEATSINK
 10
14.664102527563889
 20
21.573883866943891
 30
0.0
 11
14.664102527563889
 21
21.59623375318688
 31
0.0
  0
ARC
  5
1C46
  8
HEATSINK
 10
14.684295887119159
 20
21.709180443792601
 30
0.0
 40
0.1367952319238812
 50
226.07603568712511
 51
261.5111221423233
  0
LINE
  5
1C47
  8
HEATSINK
 10
14.589400604846499
 20
21.636233753186879
 30
0.0
 11
14.589400604846499
 21
21.610652169274559
 31
0.0
  0
LINE
  5
1C49
  8
HEATSINK
 10
29.85746405364441
 20
21.636233753186879
 30
0.0
 11
29.85746405364441
 21
21.610652169274559
 31
0.0
  0
ARC
  5
1C4A
  8
HEATSINK
 10
29.762568771371761
 20
21.709180443792601
 30
0.0
 40
0.1367952319238812
 50
278.4888778576767
 51
313.92396431287489
  0
LINE
  5
1C4B
  8
HEATSINK
 10
29.782762130927019
 20
21.573883866943891
 30
0.0
 11
29.782762130927019
 21
21.59623375318688
 31
0.0
  0
LINE
  5
1C4C
  8
HEATSINK
 10
29.742762130927019
 20
21.59623375318688
 30
0.0
 11
29.782762130927019
 21
21.59623375318688
 31
0.0
  0
LINE
  5
1C4D
  8
HEATSINK
 10
29.742762130927019
 20
21.573883866943891
 30
0.0
 11
29.742762130927019
 21
21.59623375318688
 31
0.0
  0
ARC
  5
1C4E
  8
HEATSINK
 10
29.762955490482291
 20
21.709180443792601
 30
0.0
 40
0.1367952319238812
 50
226.07603568712489
 51
261.51112214232342
  0
LINE
  5
1C4F
  8
HEATSINK
 10
29.668060208209639
 20
21.636233753186879
 30
0.0
 11
29.668060208209639
 21
21.610652169274559
 31
0.0
  0
LINE
  5
1C50
  8
HEATSINK
 10
26.85746405364441
 20
21.636233753186879
 30
0.0
 11
26.85746405364441
 21
21.610652169274559
 31
0.0
  0
ARC
  5
1C51
  8
HEATSINK
 10
26.762568771371761
 20
21.709180443792601
 30
0.0
 40
0.1367952319238812
 50
278.4888778576767
 51
313.92396431287511
  0
LINE
  5
1C52
  8
HEATSINK
 10
26.782762130927029
 20
21.573883866943891
 30
0.0
 11
26.782762130927029
 21
21.59623375318688
 31
0.0
  0
LINE
  5
1C53
  8
HEATSINK
 10
26.782762130927029
 20
21.59623375318688
 30
0.0
 11
26.74276213092703
 21
21.59623375318688
 31
0.0
  0
LINE
  5
1C54
  8
HEATSINK
 10
26.74276213092703
 20
21.573883866943891
 30
0.0
 11
26.74276213092703
 21
21.59623375318688
 31
0.0
  0
ARC
  5
1C55
  8
HEATSINK
 10
26.762955490482291
 20
21.709180443792601
 30
0.0
 40
0.1367952319238812
 50
226.07603568712511
 51
261.5111221423233
  0
LINE
  5
1C56
  8
HEATSINK
 10
26.668060208209639
 20
21.636233753186879
 30
0.0
 11
26.668060208209639
 21
21.610652169274559
 31
0.0
  0
LINE
  5
1C57
  8
HEATSINK
 10
26.637762130927019
 20
21.26823375318688
 30
0.0
 11
29.887762130927019
 21
21.26823375318688
 31
0.0
  0
LINE
  5
1C58
  8
HEATSINK
 10
26.637762130927019
 20
21.636233753186879
 30
0.0
 11
29.887762130927019
 21
21.63623375318689
 31
0.0
  0
LINE
  5
1C59
  8
HEATSINK
 10
26.637762130927019
 20
21.76823375318688
 30
0.0
 11
26.637762130927019
 21
21.26823375318688
 31
0.0
  0
LINE
  5
1C5A
  8
HEATSINK
 10
29.887762130927019
 20
21.76823375318688
 30
0.0
 11
29.887762130927019
 21
21.26823375318688
 31
0.0
  0
LINE
  5
1C5B
  8
HEATSINK
 10
26.637762130927019
 20
21.76823375318688
 30
0.0
 11
29.887762130927019
 21
21.76823375318688
 31
0.0
  0
DIMENSION
  5
1C62
  8
DIMENSIONS
  2
*D25
 10
18.75986523089523
 20
22.968233753186869
 30
0.0
 11
19.417682462329982
 21
23.402694587295329
 31
0.0
 70
   128
 13
19.473432329245451
 23
22.65823375318687
 33
0.0
 14
19.620512886336279
 24
22.968233753186869
 34
0.0
 50
90.0
  0
DIMENSION
  5
1C7E
  8
DIMENSIONS
  2
*D26
 10
18.488414525905888
 20
23.133233753186872
 30
0.0
 11
19.192374511486278
 21
23.661920741455269
 31
0.0
 70
   128
 13
19.473432329245451
 23
22.65823375318687
 33
0.0
 14
19.482976973325901
 24
23.133233753186872
 34
0.0
 50
90.0
  0
DIMENSION
  5
1CB4
  8
DIMENSIONS
  2
*D27
 10
25.728479679323161
 20
21.26823375318688
 30
0.0
 11
25.728479679323161
 21
21.48122563992737
 31
0.0
 70
   128
 13
24.87343232924545
 23
21.76823375318687
 33
0.0
 14
24.19843232924546
 24
21.26823375318688
 34
0.0
 50
90.0
  0
DIMENSION
  5
1CCE
  8
DIMENSIONS
  2
*D28
 10
17.80910252756388
 20
20.986939436944901
 30
0.0
 11
16.12160387593455
 21
20.986939436944901
 31
0.0
 70
   128
 13
14.559102527563891
 23
21.26823375318688
 33
0.0
 14
17.80910252756388
 24
21.26823375318688
 34
0.0
  0
INSERT
  5
1D1C
  8
DIMENSIONS
  2
*U100
 10
0.0
 20
0.0
 30
0.0
1001
ACAD
1000
DSTYLE
1002
{
1070
   147
1040
0.09
1070
    77
1070
     0
1002
}
  0
INSERT
  5
1D1D
  8
DIMENSIONS
  2
*U101
 10
0.0
 20
0.0
 30
0.0
  0
CIRCLE
  5
1D21
  8
TERMINAL_BLOCKS
 10
24.67343232924545
 20
29.456154771200868
 30
0.0
 40
0.056
  0
LINE
  5
1D22
  8
TERMINAL_BLOCKS
 10
24.170512886336279
 20
29.60615477120086
 30
0.0
 11
24.870512886336279
 21
29.60615477120086
 31
0.0
  0
LINE
  5
1D23
  8
TERMINAL_BLOCKS
 10
24.92801288633628
 20
29.289006665126941
 30
0.0
 11
24.113012886336278
 21
29.289006665126941
 31
0.0
  0
LINE
  5
1D24
  8
TERMINAL_BLOCKS
 10
24.92801288633628
 20
29.229006665126938
 30
0.0
 11
24.113012886336278
 21
29.229006665126938
 31
0.0
  0
CIRCLE
  5
1D25
  8
TERMINAL_BLOCKS
 10
24.37343232924546
 20
28.706154771200861
 30
0.0
 40
0.014
  0
CIRCLE
  5
1D26
  8
TERMINAL_BLOCKS
 10
24.67343232924545
 20
28.706154771200861
 30
0.0
 40
0.014
  0
CIRCLE
  5
1D27
  8
TERMINAL_BLOCKS
 10
24.67343232924545
 20
29.081154771200868
 30
0.0
 40
0.014
  0
LINE
  5
1D28
  8
TERMINAL_BLOCKS
 10
24.56544691954533
 20
29.111154771200869
 30
0.0
 11
24.653432329245462
 21
29.111154771200869
 31
0.0
  0
LINE
  5
1D29
  8
TERMINAL_BLOCKS
 10
24.56544691954533
 20
29.05115477120086
 30
0.0
 11
24.653432329245462
 21
29.05115477120086
 31
0.0
  0
LINE
  5
1D2A
  8
TERMINAL_BLOCKS
 10
24.693432329245461
 20
29.111154771200869
 30
0.0
 11
24.693432329245461
 21
29.14883573783839
 31
0.0
  0
LINE
  5
1D2B
  8
TERMINAL_BLOCKS
 10
24.653432329245462
 20
29.111154771200869
 30
0.0
 11
24.653432329245462
 21
29.14883573783839
 31
0.0
  0
LINE
  5
1D2C
  8
TERMINAL_BLOCKS
 10
24.693432329245461
 20
29.14883573783839
 30
0.0
 11
24.653432329245462
 21
29.14883573783839
 31
0.0
  0
LINE
  5
1D2D
  8
TERMINAL_BLOCKS
 10
24.693432329245461
 20
29.01347380456334
 30
0.0
 11
24.653432329245462
 21
29.01347380456334
 31
0.0
  0
LINE
  5
1D2E
  8
TERMINAL_BLOCKS
 10
24.653432329245462
 20
29.05115477120086
 30
0.0
 11
24.653432329245462
 21
29.01347380456334
 31
0.0
  0
LINE
  5
1D2F
  8
TERMINAL_BLOCKS
 10
24.693432329245461
 20
29.05115477120086
 30
0.0
 11
24.693432329245461
 21
29.01347380456334
 31
0.0
  0
LINE
  5
1D30
  8
TERMINAL_BLOCKS
 10
24.693432329245461
 20
29.111154771200869
 30
0.0
 11
24.781417738945581
 21
29.111154771200869
 31
0.0
  0
LINE
  5
1D31
  8
TERMINAL_BLOCKS
 10
24.693432329245461
 20
29.05115477120086
 30
0.0
 11
24.781417738945581
 21
29.05115477120086
 31
0.0
  0
LINE
  5
1D32
  8
TERMINAL_BLOCKS
 10
24.56544691954533
 20
28.67615477120086
 30
0.0
 11
24.653432329245462
 21
28.67615477120086
 31
0.0
  0
LINE
  5
1D33
  8
TERMINAL_BLOCKS
 10
24.56544691954533
 20
28.736154771200859
 30
0.0
 11
24.653432329245462
 21
28.736154771200859
 31
0.0
  0
LINE
  5
1D34
  8
TERMINAL_BLOCKS
 10
24.693432329245461
 20
28.736154771200859
 30
0.0
 11
24.693432329245461
 21
28.77383573783839
 31
0.0
  0
LINE
  5
1D35
  8
TERMINAL_BLOCKS
 10
24.653432329245462
 20
28.736154771200859
 30
0.0
 11
24.653432329245462
 21
28.77383573783839
 31
0.0
  0
LINE
  5
1D36
  8
TERMINAL_BLOCKS
 10
24.693432329245461
 20
28.67615477120086
 30
0.0
 11
24.781417738945581
 21
28.67615477120086
 31
0.0
  0
LINE
  5
1D37
  8
TERMINAL_BLOCKS
 10
24.693432329245461
 20
28.736154771200859
 30
0.0
 11
24.781417738945581
 21
28.736154771200859
 31
0.0
  0
LINE
  5
1D38
  8
TERMINAL_BLOCKS
 10
24.693432329245461
 20
28.77383573783839
 30
0.0
 11
24.653432329245462
 21
28.77383573783839
 31
0.0
  0
CIRCLE
  5
1D39
  8
TERMINAL_BLOCKS
 10
24.67343232924545
 20
28.706154771200861
 30
0.0
 40
0.014
  0
CIRCLE
  5
1D3A
  8
TERMINAL_BLOCKS
 10
24.37343232924546
 20
28.331154771200868
 30
0.0
 40
0.014
  0
CIRCLE
  5
1D3B
  8
TERMINAL_BLOCKS
 10
24.67343232924545
 20
28.331154771200868
 30
0.0
 40
0.014
  0
LINE
  5
1D3C
  8
TERMINAL_BLOCKS
 10
24.693432329245461
 20
28.63847380456334
 30
0.0
 11
24.653432329245462
 21
28.63847380456334
 31
0.0
  0
LINE
  5
1D3D
  8
TERMINAL_BLOCKS
 10
24.693432329245461
 20
28.301154771200871
 30
0.0
 11
24.693432329245461
 21
28.26347380456334
 31
0.0
  0
LINE
  5
1D3E
  8
TERMINAL_BLOCKS
 10
24.653432329245462
 20
28.301154771200871
 30
0.0
 11
24.653432329245462
 21
28.26347380456334
 31
0.0
  0
CIRCLE
  5
1D3F
  8
TERMINAL_BLOCKS
 10
24.67343232924545
 20
28.331154771200868
 30
0.0
 40
0.1120751922064098
  0
LINE
  5
1D40
  8
TERMINAL_BLOCKS
 10
24.693432329245461
 20
28.26347380456334
 30
0.0
 11
24.653432329245462
 21
28.26347380456334
 31
0.0
  0
LINE
  5
1D41
  8
TERMINAL_BLOCKS
 10
24.56544691954533
 20
28.301154771200871
 30
0.0
 11
24.653432329245462
 21
28.301154771200871
 31
0.0
  0
LINE
  5
1D42
  8
TERMINAL_BLOCKS
 10
24.56544691954533
 20
28.361154771200869
 30
0.0
 11
24.653432329245462
 21
28.361154771200869
 31
0.0
  0
LINE
  5
1D43
  8
TERMINAL_BLOCKS
 10
24.693432329245461
 20
28.361154771200869
 30
0.0
 11
24.693432329245461
 21
28.39883573783839
 31
0.0
  0
LINE
  5
1D44
  8
TERMINAL_BLOCKS
 10
24.653432329245462
 20
28.361154771200869
 30
0.0
 11
24.653432329245462
 21
28.39883573783839
 31
0.0
  0
LINE
  5
1D45
  8
TERMINAL_BLOCKS
 10
24.693432329245461
 20
28.301154771200871
 30
0.0
 11
24.781417738945581
 21
28.301154771200871
 31
0.0
  0
LINE
  5
1D46
  8
TERMINAL_BLOCKS
 10
24.693432329245461
 20
28.361154771200869
 30
0.0
 11
24.781417738945581
 21
28.361154771200869
 31
0.0
  0
LINE
  5
1D47
  8
TERMINAL_BLOCKS
 10
24.693432329245461
 20
28.39883573783839
 30
0.0
 11
24.653432329245462
 21
28.39883573783839
 31
0.0
  0
CIRCLE
  5
1D48
  8
TERMINAL_BLOCKS
 10
24.67343232924545
 20
28.331154771200868
 30
0.0
 40
0.014
  0
LINE
  5
1D49
  8
TERMINAL_BLOCKS
 10
24.693432329245461
 20
28.67615477120086
 30
0.0
 11
24.693432329245461
 21
28.63847380456334
 31
0.0
  0
LINE
  5
1D4A
  8
TERMINAL_BLOCKS
 10
24.653432329245462
 20
28.67615477120086
 30
0.0
 11
24.653432329245462
 21
28.63847380456334
 31
0.0
  0
CIRCLE
  5
1D4B
  8
TERMINAL_BLOCKS
 10
24.67343232924545
 20
28.706154771200861
 30
0.0
 40
0.1120751922064098
  0
CIRCLE
  5
1D4C
  8
TERMINAL_BLOCKS
 10
24.37343232924546
 20
27.956154771200868
 30
0.0
 40
0.014
  0
CIRCLE
  5
1D4D
  8
TERMINAL_BLOCKS
 10
24.67343232924545
 20
27.956154771200868
 30
0.0
 40
0.014
  0
LINE
  5
1D4E
  8
TERMINAL_BLOCKS
 10
24.693432329245461
 20
27.926154771200871
 30
0.0
 11
24.693432329245461
 21
27.88847380456334
 31
0.0
  0
LINE
  5
1D4F
  8
TERMINAL_BLOCKS
 10
24.653432329245462
 20
27.926154771200871
 30
0.0
 11
24.653432329245462
 21
27.88847380456334
 31
0.0
  0
CIRCLE
  5
1D50
  8
TERMINAL_BLOCKS
 10
24.67343232924545
 20
27.956154771200868
 30
0.0
 40
0.1120751922064098
  0
LINE
  5
1D51
  8
TERMINAL_BLOCKS
 10
24.693432329245461
 20
27.88847380456334
 30
0.0
 11
24.653432329245462
 21
27.88847380456334
 31
0.0
  0
LINE
  5
1D52
  8
TERMINAL_BLOCKS
 10
24.56544691954533
 20
27.926154771200871
 30
0.0
 11
24.653432329245462
 21
27.926154771200871
 31
0.0
  0
LINE
  5
1D53
  8
TERMINAL_BLOCKS
 10
24.56544691954533
 20
27.986154771200869
 30
0.0
 11
24.653432329245462
 21
27.986154771200869
 31
0.0
  0
LINE
  5
1D54
  8
TERMINAL_BLOCKS
 10
24.693432329245461
 20
27.986154771200869
 30
0.0
 11
24.693432329245461
 21
28.02383573783839
 31
0.0
  0
LINE
  5
1D55
  8
TERMINAL_BLOCKS
 10
24.653432329245462
 20
27.986154771200869
 30
0.0
 11
24.653432329245462
 21
28.02383573783839
 31
0.0
  0
LINE
  5
1D56
  8
TERMINAL_BLOCKS
 10
24.693432329245461
 20
27.926154771200871
 30
0.0
 11
24.781417738945581
 21
27.926154771200871
 31
0.0
  0
LINE
  5
1D57
  8
TERMINAL_BLOCKS
 10
24.693432329245461
 20
27.986154771200869
 30
0.0
 11
24.781417738945581
 21
27.986154771200869
 31
0.0
  0
LINE
  5
1D58
  8
TERMINAL_BLOCKS
 10
24.693432329245461
 20
28.02383573783839
 30
0.0
 11
24.653432329245462
 21
28.02383573783839
 31
0.0
  0
CIRCLE
  5
1D59
  8
TERMINAL_BLOCKS
 10
24.67343232924545
 20
27.956154771200868
 30
0.0
 40
0.014
  0
LINE
  5
1D5A
  8
TERMINAL_BLOCKS
 10
24.693432329245461
 20
27.64883573783839
 30
0.0
 11
24.653432329245462
 21
27.64883573783839
 31
0.0
  0
CIRCLE
  5
1D5B
  8
TERMINAL_BLOCKS
 10
24.37343232924546
 20
27.206154771200868
 30
0.0
 40
0.014
  0
CIRCLE
  5
1D5C
  8
TERMINAL_BLOCKS
 10
24.37343232924546
 20
27.581154771200868
 30
0.0
 40
0.014
  0
CIRCLE
  5
1D5D
  8
TERMINAL_BLOCKS
 10
24.67343232924545
 20
27.206154771200868
 30
0.0
 40
0.014
  0
CIRCLE
  5
1D5E
  8
TERMINAL_BLOCKS
 10
24.67343232924545
 20
27.581154771200868
 30
0.0
 40
0.014
  0
LINE
  5
1D5F
  8
TERMINAL_BLOCKS
 10
24.693432329245461
 20
27.55115477120086
 30
0.0
 11
24.693432329245461
 21
27.51347380456334
 31
0.0
  0
LINE
  5
1D60
  8
TERMINAL_BLOCKS
 10
24.653432329245462
 20
27.55115477120086
 30
0.0
 11
24.653432329245462
 21
27.51347380456334
 31
0.0
  0
LINE
  5
1D61
  8
TERMINAL_BLOCKS
 10
24.693432329245461
 20
27.51347380456334
 30
0.0
 11
24.653432329245462
 21
27.51347380456334
 31
0.0
  0
LINE
  5
1D62
  8
TERMINAL_BLOCKS
 10
24.56544691954533
 20
27.55115477120086
 30
0.0
 11
24.653432329245462
 21
27.55115477120086
 31
0.0
  0
LINE
  5
1D63
  8
TERMINAL_BLOCKS
 10
24.56544691954533
 20
27.611154771200869
 30
0.0
 11
24.653432329245462
 21
27.611154771200869
 31
0.0
  0
LINE
  5
1D64
  8
TERMINAL_BLOCKS
 10
24.693432329245461
 20
27.55115477120086
 30
0.0
 11
24.781417738945581
 21
27.55115477120086
 31
0.0
  0
LINE
  5
1D65
  8
TERMINAL_BLOCKS
 10
24.693432329245461
 20
27.611154771200869
 30
0.0
 11
24.781417738945581
 21
27.611154771200869
 31
0.0
  0
CIRCLE
  5
1D66
  8
TERMINAL_BLOCKS
 10
24.67343232924545
 20
27.581154771200868
 30
0.0
 40
0.014
  0
LINE
  5
1D67
  8
TERMINAL_BLOCKS
 10
24.693432329245461
 20
27.17615477120086
 30
0.0
 11
24.693432329245461
 21
27.13847380456334
 31
0.0
  0
LINE
  5
1D68
  8
TERMINAL_BLOCKS
 10
24.653432329245462
 20
27.17615477120086
 30
0.0
 11
24.653432329245462
 21
27.13847380456334
 31
0.0
  0
LINE
  5
1D69
  8
TERMINAL_BLOCKS
 10
24.693432329245461
 20
27.13847380456334
 30
0.0
 11
24.653432329245462
 21
27.13847380456334
 31
0.0
  0
LINE
  5
1D6A
  8
TERMINAL_BLOCKS
 10
24.56544691954533
 20
27.17615477120086
 30
0.0
 11
24.653432329245462
 21
27.17615477120086
 31
0.0
  0
LINE
  5
1D6B
  8
TERMINAL_BLOCKS
 10
24.56544691954533
 20
27.236154771200869
 30
0.0
 11
24.653432329245462
 21
27.236154771200869
 31
0.0
  0
LINE
  5
1D6C
  8
TERMINAL_BLOCKS
 10
24.693432329245461
 20
27.236154771200869
 30
0.0
 11
24.693432329245461
 21
27.27383573783839
 31
0.0
  0
LINE
  5
1D6D
  8
TERMINAL_BLOCKS
 10
24.653432329245462
 20
27.236154771200869
 30
0.0
 11
24.653432329245462
 21
27.27383573783839
 31
0.0
  0
LINE
  5
1D6E
  8
TERMINAL_BLOCKS
 10
24.693432329245461
 20
27.17615477120086
 30
0.0
 11
24.781417738945581
 21
27.17615477120086
 31
0.0
  0
LINE
  5
1D6F
  8
TERMINAL_BLOCKS
 10
24.693432329245461
 20
27.236154771200869
 30
0.0
 11
24.781417738945581
 21
27.236154771200869
 31
0.0
  0
LINE
  5
1D70
  8
TERMINAL_BLOCKS
 10
24.693432329245461
 20
27.27383573783839
 30
0.0
 11
24.653432329245462
 21
27.27383573783839
 31
0.0
  0
CIRCLE
  5
1D71
  8
TERMINAL_BLOCKS
 10
24.67343232924545
 20
27.206154771200868
 30
0.0
 40
0.014
  0
CIRCLE
  5
1D72
  8
TERMINAL_BLOCKS
 10
24.67343232924545
 20
27.581154771200868
 30
0.0
 40
0.1120751922064098
  0
LINE
  5
1D73
  8
TERMINAL_BLOCKS
 10
24.693432329245461
 20
27.611154771200869
 30
0.0
 11
24.693432329245461
 21
27.64883573783839
 31
0.0
  0
LINE
  5
1D74
  8
TERMINAL_BLOCKS
 10
24.653432329245462
 20
27.611154771200869
 30
0.0
 11
24.653432329245462
 21
27.64883573783839
 31
0.0
  0
CIRCLE
  5
1D75
  8
TERMINAL_BLOCKS
 10
24.37343232924546
 20
26.831154771200861
 30
0.0
 40
0.014
  0
CIRCLE
  5
1D76
  8
TERMINAL_BLOCKS
 10
24.67343232924545
 20
26.831154771200861
 30
0.0
 40
0.014
  0
LINE
  5
1D77
  8
TERMINAL_BLOCKS
 10
24.693432329245461
 20
26.80115477120086
 30
0.0
 11
24.693432329245461
 21
26.76347380456334
 31
0.0
  0
LINE
  5
1D78
  8
TERMINAL_BLOCKS
 10
24.653432329245462
 20
26.80115477120086
 30
0.0
 11
24.653432329245462
 21
26.76347380456334
 31
0.0
  0
CIRCLE
  5
1D79
  8
TERMINAL_BLOCKS
 10
24.67343232924545
 20
26.831154771200861
 30
0.0
 40
0.1120751922064098
  0
LINE
  5
1D7A
  8
TERMINAL_BLOCKS
 10
24.693432329245461
 20
26.76347380456334
 30
0.0
 11
24.653432329245462
 21
26.76347380456334
 31
0.0
  0
LINE
  5
1D7B
  8
TERMINAL_BLOCKS
 10
24.56544691954533
 20
26.80115477120086
 30
0.0
 11
24.653432329245462
 21
26.80115477120086
 31
0.0
  0
LINE
  5
1D7C
  8
TERMINAL_BLOCKS
 10
24.56544691954533
 20
26.861154771200869
 30
0.0
 11
24.653432329245462
 21
26.861154771200869
 31
0.0
  0
LINE
  5
1D7D
  8
TERMINAL_BLOCKS
 10
24.693432329245461
 20
26.861154771200869
 30
0.0
 11
24.693432329245461
 21
26.89883573783839
 31
0.0
  0
LINE
  5
1D7E
  8
TERMINAL_BLOCKS
 10
24.653432329245462
 20
26.861154771200869
 30
0.0
 11
24.653432329245462
 21
26.89883573783839
 31
0.0
  0
LINE
  5
1D7F
  8
TERMINAL_BLOCKS
 10
24.693432329245461
 20
26.80115477120086
 30
0.0
 11
24.781417738945581
 21
26.80115477120086
 31
0.0
  0
LINE
  5
1D80
  8
TERMINAL_BLOCKS
 10
24.693432329245461
 20
26.861154771200869
 30
0.0
 11
24.781417738945581
 21
26.861154771200869
 31
0.0
  0
LINE
  5
1D81
  8
TERMINAL_BLOCKS
 10
24.693432329245461
 20
26.89883573783839
 30
0.0
 11
24.653432329245462
 21
26.89883573783839
 31
0.0
  0
CIRCLE
  5
1D82
  8
TERMINAL_BLOCKS
 10
24.67343232924545
 20
26.831154771200861
 30
0.0
 40
0.014
  0
CIRCLE
  5
1D83
  8
TERMINAL_BLOCKS
 10
24.67343232924545
 20
26.456154771200868
 30
0.0
 40
0.056
  0
CIRCLE
  5
1D84
  8
TERMINAL_BLOCKS
 10
24.67343232924545
 20
27.206154771200868
 30
0.0
 40
0.1120751922064098
  0
CIRCLE
  5
1D96
  8
TERMINAL_BLOCKS
 10
24.67343232924545
 20
29.081154771200868
 30
0.0
 40
0.1120751922064098
  0
CIRCLE
  5
1D97
  8
TERMINAL_BLOCKS
 10
24.37343232924546
 20
29.456154771200868
 30
0.0
 40
0.1120751922064098
  0
LINE
  5
1D98
  8
TERMINAL_BLOCKS
 10
24.39343232924546
 20
29.426154771200871
 30
0.0
 11
24.481417738945581
 21
29.426154771200871
 31
0.0
  0
LINE
  5
1D99
  8
TERMINAL_BLOCKS
 10
24.39343232924546
 20
29.486154771200869
 30
0.0
 11
24.481417738945581
 21
29.486154771200869
 31
0.0
  0
LINE
  5
1D9A
  8
TERMINAL_BLOCKS
 10
24.39343232924546
 20
29.426154771200871
 30
0.0
 11
24.39343232924546
 21
29.38847380456334
 31
0.0
  0
LINE
  5
1D9B
  8
TERMINAL_BLOCKS
 10
24.353432329245461
 20
29.426154771200871
 30
0.0
 11
24.353432329245461
 21
29.38847380456334
 31
0.0
  0
LINE
  5
1D9C
  8
TERMINAL_BLOCKS
 10
24.39343232924546
 20
29.38847380456334
 30
0.0
 11
24.353432329245461
 21
29.38847380456334
 31
0.0
  0
LINE
  5
1D9D
  8
TERMINAL_BLOCKS
 10
24.39343232924546
 20
29.52383573783839
 30
0.0
 11
24.353432329245461
 21
29.52383573783839
 31
0.0
  0
LINE
  5
1D9E
  8
TERMINAL_BLOCKS
 10
24.353432329245461
 20
29.486154771200869
 30
0.0
 11
24.353432329245461
 21
29.52383573783839
 31
0.0
  0
LINE
  5
1D9F
  8
TERMINAL_BLOCKS
 10
24.39343232924546
 20
29.486154771200869
 30
0.0
 11
24.39343232924546
 21
29.52383573783839
 31
0.0
  0
LINE
  5
1DA0
  8
TERMINAL_BLOCKS
 10
24.26544691954533
 20
29.426154771200871
 30
0.0
 11
24.353432329245461
 21
29.426154771200871
 31
0.0
  0
LINE
  5
1DA1
  8
TERMINAL_BLOCKS
 10
24.26544691954533
 20
29.486154771200869
 30
0.0
 11
24.353432329245461
 21
29.486154771200869
 31
0.0
  0
CIRCLE
  5
1DA2
  8
TERMINAL_BLOCKS
 10
24.37343232924546
 20
29.456154771200868
 30
0.0
 40
0.014
  0
CIRCLE
  5
1DA3
  8
TERMINAL_BLOCKS
 10
24.37343232924546
 20
26.456154771200868
 30
0.0
 40
0.014
  0
LINE
  5
1DA4
  8
TERMINAL_BLOCKS
 10
24.39343232924546
 20
26.52383573783839
 30
0.0
 11
24.353432329245461
 21
26.52383573783839
 31
0.0
  0
LINE
  5
1DA5
  8
TERMINAL_BLOCKS
 10
24.39343232924546
 20
26.486154771200869
 30
0.0
 11
24.481417738945581
 21
26.486154771200869
 31
0.0
  0
LINE
  5
1DA6
  8
TERMINAL_BLOCKS
 10
24.39343232924546
 20
26.426154771200871
 30
0.0
 11
24.481417738945581
 21
26.426154771200871
 31
0.0
  0
LINE
  5
1DA7
  8
TERMINAL_BLOCKS
 10
24.353432329245461
 20
26.486154771200869
 30
0.0
 11
24.353432329245461
 21
26.52383573783839
 31
0.0
  0
LINE
  5
1DA8
  8
TERMINAL_BLOCKS
 10
24.39343232924546
 20
26.486154771200869
 30
0.0
 11
24.39343232924546
 21
26.52383573783839
 31
0.0
  0
LINE
  5
1DA9
  8
TERMINAL_BLOCKS
 10
24.26544691954533
 20
26.486154771200869
 30
0.0
 11
24.353432329245461
 21
26.486154771200869
 31
0.0
  0
LINE
  5
1DAA
  8
TERMINAL_BLOCKS
 10
24.26544691954533
 20
26.426154771200871
 30
0.0
 11
24.353432329245461
 21
26.426154771200871
 31
0.0
  0
LINE
  5
1DAB
  8
TERMINAL_BLOCKS
 10
24.39343232924546
 20
26.38847380456334
 30
0.0
 11
24.353432329245461
 21
26.38847380456334
 31
0.0
  0
CIRCLE
  5
1DAC
  8
TERMINAL_BLOCKS
 10
24.37343232924546
 20
26.456154771200868
 30
0.0
 40
0.1120751922064098
  0
LINE
  5
1DAD
  8
TERMINAL_BLOCKS
 10
24.353432329245461
 20
26.426154771200871
 30
0.0
 11
24.353432329245461
 21
26.38847380456334
 31
0.0
  0
LINE
  5
1DAE
  8
TERMINAL_BLOCKS
 10
24.39343232924546
 20
26.426154771200871
 30
0.0
 11
24.39343232924546
 21
26.38847380456334
 31
0.0
  0
CIRCLE
  5
1DAF
  8
TERMINAL_BLOCKS
 10
24.37343232924546
 20
26.456154771200868
 30
0.0
 40
0.014
  0
DIMENSION
  5
1DB0
  8
DIMENSIONS
  2
*D29
 10
17.834102527563878
 20
23.459326346142429
 30
0.0
 11
16.262734974194089
 21
23.459326346142429
 31
0.0
 70
   128
 13
14.53410252756389
 23
22.968233753186869
 33
0.0
 14
17.834102527563878
 24
22.968233753186869
 34
0.0
  0
DIMENSION
  5
1DE3
  8
DIMENSIONS
  2
*D30
 10
24.910932329245458
 20
23.282509095459819
 30
0.0
 11
23.164682329245451
 21
23.282509095459819
 31
0.0
 70
   128
 13
24.035932329245458
 23
23.133233753186872
 33
0.0
 14
24.910932329245458
 24
23.133233753186872
 34
0.0
  0
TEXT
  5
23FA
  8
DIMENSIONS
 10
0.8052511653334732
 20
32.427370023243448
 30
0.0
 40
0.75
  1
Standard PC Mount 
  0
TEXT
  5
2401
  8
DIMENSIONS
 10
15.972354010902791
 20
32.38187865914994
 30
0.0
 40
0.75
  1
-TS Chassis Mount Option
  0
INSERT
  5
25B1
  8
DIMENSIONS
  2
*U102
 10
0.0
 20
0.0
 30
0.0
  0
INSERT
  5
25B2
  8
DIMENSIONS
  2
*U103
 10
0.0
 20
0.0
 30
0.0
1001
ACAD
1000
DSTYLE
1002
{
1070
   147
1040
0.09
1070
    77
1070
     0
1002
}
  0
DIMENSION
  5
25DE
  8
DIMENSIONS
  2
*D31
 10
0.6556567735907209
 20
20.986939436944901
 30
0.0
 11
-1.031841878038612
 21
20.986939436944901
 31
0.0
 70
   128
 13
-2.5943432264092769
 23
21.26823375318688
 33
0.0
 14
0.6556567735907209
 24
21.26823375318688
 34
0.0
  0
LINE
  5
25E1
  8
HEATSINK
 10
-2.5640451491266609
 20
21.636233753186879
 30
0.0
 11
-2.5640451491266609
 21
21.610652169274559
 31
0.0
  0
ARC
  5
25E2
  8
HEATSINK
 10
-2.4691498668540079
 20
21.709180443792601
 30
0.0
 40
0.1367952319238812
 50
226.07603568712511
 51
261.5111221423233
  0
LINE
  5
25E3
  8
HEATSINK
 10
-2.489343226409273
 20
21.573883866943891
 30
0.0
 11
-2.489343226409273
 21
21.59623375318688
 31
0.0
  0
LINE
  5
25E4
  8
HEATSINK
 10
-2.4493432264092738
 20
21.59623375318688
 30
0.0
 11
-2.489343226409273
 21
21.59623375318688
 31
0.0
  0
LINE
  5
25E5
  8
HEATSINK
 10
-2.4493432264092738
 20
21.573883866943891
 30
0.0
 11
-2.4493432264092738
 21
21.59623375318688
 31
0.0
  0
ARC
  5
25E6
  8
HEATSINK
 10
-2.4695365859645451
 20
21.709180443792601
 30
0.0
 40
0.1367952319238812
 50
278.4888778576767
 51
313.92396431287511
  0
LINE
  5
25E7
  8
HEATSINK
 10
-2.374641303691893
 20
21.636233753186879
 30
0.0
 11
-2.374641303691893
 21
21.610652169274559
 31
0.0
  0
LINE
  5
25E8
  8
HEATSINK
 10
0.4359548508733369
 20
21.636233753186879
 30
0.0
 11
0.4359548508733369
 21
21.610652169274559
 31
0.0
  0
ARC
  5
25E9
  8
HEATSINK
 10
0.5308501331459894
 20
21.709180443792601
 30
0.0
 40
0.1367952319238812
 50
226.07603568712489
 51
261.51112214232342
  0
LINE
  5
25EA
  8
HEATSINK
 10
0.5106567735907177
 20
21.573883866943891
 30
0.0
 11
0.5106567735907177
 21
21.59623375318688
 31
0.0
  0
LINE
  5
25EB
  8
HEATSINK
 10
0.5106567735907177
 20
21.59623375318688
 30
0.0
 11
0.5506567735907169
 21
21.59623375318688
 31
0.0
  0
LINE
  5
25EC
  8
HEATSINK
 10
0.5506567735907169
 20
21.573883866943891
 30
0.0
 11
0.5506567735907169
 21
21.59623375318688
 31
0.0
  0
ARC
  5
25ED
  8
HEATSINK
 10
0.5304634140354523
 20
21.709180443792601
 30
0.0
 40
0.1367952319238812
 50
278.4888778576767
 51
313.923964312875
  0
LINE
  5
25EE
  8
HEATSINK
 10
0.6253586963081048
 20
21.636233753186879
 30
0.0
 11
0.6253586963081048
 21
21.610652169274559
 31
0.0
  0
LINE
  5
25EF
  8
HEATSINK
 10
0.6556567735907209
 20
21.76823375318688
 30
0.0
 11
0.6556567735907209
 21
21.26823375318688
 31
0.0
  0
LINE
  5
25F0
  8
HEATSINK
 10
-2.5943432264092769
 20
21.76823375318688
 30
0.0
 11
-2.5943432264092769
 21
21.26823375318688
 31
0.0
  0
LINE
  5
25F1
  8
HEATSINK
 10
0.6556567735907209
 20
21.26823375318688
 30
0.0
 11
-2.5943432264092769
 21
21.26823375318688
 31
0.0
  0
LINE
  5
25F2
  8
HEATSINK
 10
0.6556567735907209
 20
21.636233753186879
 30
0.0
 11
-2.5943432264092769
 21
21.63623375318689
 31
0.0
  0
LINE
  5
25F3
  8
HEATSINK
 10
-2.5943432264092769
 20
21.76823375318688
 30
0.0
 11
0.6556567735907209
 21
21.76823375318688
 31
0.0
  0
INSERT
  5
267A
  8
DIMENSIONS
  2
*U104
 10
0.0
 20
0.0
 30
0.0
  0
INSERT
  5
267B
  8
DIMENSIONS
  2
*U105
 10
0.0
 20
0.0
 30
0.0
1001
ACAD
1000
DSTYLE
1002
{
1070
   147
1040
0.09
1070
    77
1070
     0
1002
}
  0
LINE
  5
267C
  8
HEATSINK
 10
7.0449865752722891
 20
21.636233753186868
 30
0.0
 11
7.4449865752722877
 21
21.636233753186868
 31
0.0
  0
LINE
  5
267D
  8
HEATSINK
 10
6.7449865752722848
 20
21.636233753186868
 30
0.0
 11
6.9949865752722848
 21
21.636233753186868
 31
0.0
  0
LINE
  5
267E
  8
HEATSINK
 10
6.4449865752722877
 20
21.636233753186868
 30
0.0
 11
6.6949865752722877
 21
21.636233753186868
 31
0.0
  0
LINE
  5
267F
  8
HEATSINK
 10
6.1449865752722914
 20
21.636233753186868
 30
0.0
 11
6.3949865752722914
 21
21.636233753186868
 31
0.0
  0
LINE
  5
2680
  8
HEATSINK
 10
5.8449865752722872
 20
21.636233753186868
 30
0.0
 11
6.0949865752722872
 21
21.636233753186868
 31
0.0
  0
LINE
  5
2681
  8
HEATSINK
 10
5.5449865752722891
 20
21.636233753186868
 30
0.0
 11
5.7949865752722891
 21
21.636233753186868
 31
0.0
  0
LINE
  5
2682
  8
HEATSINK
 10
5.2449865752722848
 20
21.636233753186879
 30
0.0
 11
5.4949865752722848
 21
21.636233753186868
 31
0.0
  0
LINE
  5
2683
  8
HEATSINK
 10
4.9449865752722877
 20
21.636233753186879
 30
0.0
 11
5.1949865752722877
 21
21.636233753186879
 31
0.0
  0
LINE
  5
2684
  8
HEATSINK
 10
4.6449865752722914
 20
21.636233753186879
 30
0.0
 11
4.8949865752722914
 21
21.636233753186879
 31
0.0
  0
LINE
  5
2685
  8
HEATSINK
 10
4.3449865752722872
 20
21.63623375318689
 30
0.0
 11
4.5949865752722872
 21
21.636233753186879
 31
0.0
  0
LINE
  5
2686
  8
HEATSINK
 10
4.0449865752722891
 20
21.63623375318689
 30
0.0
 11
4.2949865752722891
 21
21.63623375318689
 31
0.0
  0
LINE
  5
2687
  8
HEATSINK
 10
3.744986575272292
 20
21.63623375318689
 30
0.0
 11
3.994986575272292
 21
21.63623375318689
 31
0.0
  0
LINE
  5
2688
  8
HEATSINK
 10
3.4449865752722881
 20
21.63623375318689
 30
0.0
 11
3.6949865752722881
 21
21.63623375318689
 31
0.0
  0
LINE
  5
2689
  8
HEATSINK
 10
3.144986575272291
 20
21.636233753186879
 30
0.0
 11
3.394986575272291
 21
21.63623375318689
 31
0.0
  0
LINE
  5
268A
  8
HEATSINK
 10
7.0449865752722891
 20
21.636233753186868
 30
0.0
 11
7.0449865752722891
 21
21.26823375318688
 31
0.0
  0
LINE
  5
268B
  8
HEATSINK
 10
7.0449865752722891
 20
21.26823375318688
 30
0.0
 11
6.9949865752722848
 21
21.26823375318688
 31
0.0
  0
LINE
  5
268C
  8
HEATSINK
 10
6.9949865752722848
 20
21.26823375318688
 30
0.0
 11
6.9949865752722848
 21
21.636233753186868
 31
0.0
  0
LINE
  5
268D
  8
HEATSINK
 10
6.7449865752722848
 20
21.636233753186868
 30
0.0
 11
6.7449865752722848
 21
21.26823375318688
 31
0.0
  0
LINE
  5
268E
  8
HEATSINK
 10
6.7449865752722848
 20
21.26823375318688
 30
0.0
 11
6.6949865752722877
 21
21.26823375318688
 31
0.0
  0
LINE
  5
268F
  8
HEATSINK
 10
6.6949865752722877
 20
21.26823375318688
 30
0.0
 11
6.6949865752722877
 21
21.636233753186868
 31
0.0
  0
LINE
  5
2690
  8
HEATSINK
 10
6.4449865752722877
 20
21.636233753186868
 30
0.0
 11
6.4449865752722877
 21
21.26823375318688
 31
0.0
  0
LINE
  5
2691
  8
HEATSINK
 10
6.4449865752722877
 20
21.26823375318688
 30
0.0
 11
6.3949865752722914
 21
21.26823375318688
 31
0.0
  0
LINE
  5
2692
  8
HEATSINK
 10
6.3949865752722914
 20
21.26823375318688
 30
0.0
 11
6.3949865752722914
 21
21.636233753186868
 31
0.0
  0
LINE
  5
2693
  8
HEATSINK
 10
6.1449865752722914
 20
21.636233753186868
 30
0.0
 11
6.1449865752722914
 21
21.26823375318688
 31
0.0
  0
LINE
  5
2694
  8
HEATSINK
 10
6.1449865752722914
 20
21.26823375318688
 30
0.0
 11
6.0949865752722872
 21
21.26823375318688
 31
0.0
  0
LINE
  5
2695
  8
HEATSINK
 10
6.0949865752722872
 20
21.26823375318688
 30
0.0
 11
6.0949865752722872
 21
21.636233753186868
 31
0.0
  0
LINE
  5
2696
  8
HEATSINK
 10
5.8449865752722872
 20
21.636233753186868
 30
0.0
 11
5.8449865752722872
 21
21.26823375318688
 31
0.0
  0
LINE
  5
2697
  8
HEATSINK
 10
5.8449865752722872
 20
21.26823375318688
 30
0.0
 11
5.7949865752722891
 21
21.26823375318688
 31
0.0
  0
LINE
  5
2698
  8
HEATSINK
 10
5.7949865752722891
 20
21.26823375318688
 30
0.0
 11
5.7949865752722891
 21
21.636233753186868
 31
0.0
  0
LINE
  5
2699
  8
HEATSINK
 10
5.5449865752722891
 20
21.636233753186868
 30
0.0
 11
5.5449865752722891
 21
21.26823375318688
 31
0.0
  0
LINE
  5
269A
  8
HEATSINK
 10
5.5449865752722891
 20
21.26823375318688
 30
0.0
 11
5.4949865752722848
 21
21.26823375318688
 31
0.0
  0
LINE
  5
269B
  8
HEATSINK
 10
5.4949865752722848
 20
21.26823375318688
 30
0.0
 11
5.4949865752722848
 21
21.636233753186868
 31
0.0
  0
LINE
  5
269C
  8
HEATSINK
 10
5.2449865752722848
 20
21.636233753186868
 30
0.0
 11
5.2449865752722848
 21
21.26823375318688
 31
0.0
  0
LINE
  5
269D
  8
HEATSINK
 10
5.2449865752722848
 20
21.26823375318688
 30
0.0
 11
5.1949865752722877
 21
21.26823375318688
 31
0.0
  0
LINE
  5
269E
  8
HEATSINK
 10
5.1949865752722877
 20
21.26823375318688
 30
0.0
 11
5.1949865752722877
 21
21.636233753186868
 31
0.0
  0
LINE
  5
269F
  8
HEATSINK
 10
4.9449865752722877
 20
21.636233753186868
 30
0.0
 11
4.9449865752722877
 21
21.26823375318688
 31
0.0
  0
LINE
  5
26A0
  8
HEATSINK
 10
4.9449865752722877
 20
21.26823375318688
 30
0.0
 11
4.8949865752722914
 21
21.26823375318688
 31
0.0
  0
LINE
  5
26A1
  8
HEATSINK
 10
4.8949865752722914
 20
21.26823375318688
 30
0.0
 11
4.8949865752722914
 21
21.636233753186868
 31
0.0
  0
LINE
  5
26A2
  8
HEATSINK
 10
4.6449865752722914
 20
21.636233753186868
 30
0.0
 11
4.6449865752722914
 21
21.26823375318688
 31
0.0
  0
LINE
  5
26A3
  8
HEATSINK
 10
4.6449865752722914
 20
21.26823375318688
 30
0.0
 11
4.5949865752722872
 21
21.26823375318688
 31
0.0
  0
LINE
  5
26A4
  8
HEATSINK
 10
4.5949865752722872
 20
21.26823375318688
 30
0.0
 11
4.5949865752722872
 21
21.636233753186868
 31
0.0
  0
LINE
  5
26A5
  8
HEATSINK
 10
4.3449865752722872
 20
21.636233753186868
 30
0.0
 11
4.3449865752722872
 21
21.26823375318688
 31
0.0
  0
LINE
  5
26A6
  8
HEATSINK
 10
4.3449865752722872
 20
21.26823375318688
 30
0.0
 11
4.2949865752722891
 21
21.26823375318688
 31
0.0
  0
LINE
  5
26A7
  8
HEATSINK
 10
4.2949865752722891
 20
21.26823375318688
 30
0.0
 11
4.2949865752722891
 21
21.636233753186868
 31
0.0
  0
LINE
  5
26A8
  8
HEATSINK
 10
4.0449865752722891
 20
21.636233753186868
 30
0.0
 11
4.0449865752722891
 21
21.26823375318688
 31
0.0
  0
LINE
  5
26A9
  8
HEATSINK
 10
4.0449865752722891
 20
21.26823375318688
 30
0.0
 11
3.994986575272292
 21
21.26823375318688
 31
0.0
  0
LINE
  5
26AA
  8
HEATSINK
 10
3.994986575272292
 20
21.26823375318688
 30
0.0
 11
3.994986575272292
 21
21.636233753186868
 31
0.0
  0
LINE
  5
26AB
  8
HEATSINK
 10
3.744986575272292
 20
21.636233753186868
 30
0.0
 11
3.744986575272292
 21
21.26823375318688
 31
0.0
  0
LINE
  5
26AC
  8
HEATSINK
 10
3.744986575272292
 20
21.26823375318688
 30
0.0
 11
3.6949865752722881
 21
21.26823375318688
 31
0.0
  0
LINE
  5
26AD
  8
HEATSINK
 10
3.6949865752722881
 20
21.26823375318688
 30
0.0
 11
3.6949865752722881
 21
21.636233753186868
 31
0.0
  0
LINE
  5
26AE
  8
HEATSINK
 10
3.4449865752722881
 20
21.636233753186868
 30
0.0
 11
3.4449865752722881
 21
21.26823375318688
 31
0.0
  0
LINE
  5
26AF
  8
HEATSINK
 10
3.4449865752722881
 20
21.26823375318688
 30
0.0
 11
3.394986575272291
 21
21.26823375318688
 31
0.0
  0
LINE
  5
26B0
  8
HEATSINK
 10
3.394986575272291
 20
21.26823375318688
 30
0.0
 11
3.394986575272291
 21
21.636233753186868
 31
0.0
  0
LINE
  5
26B1
  8
HEATSINK
 10
3.0949865752722872
 20
21.26823375318688
 30
0.0
 11
3.0949865752722872
 21
21.636233753186868
 31
0.0
  0
LINE
  5
26B2
  8
HEATSINK
 10
3.144986575272291
 20
21.26823375318688
 30
0.0
 11
3.0949865752722872
 21
21.26823375318688
 31
0.0
  0
LINE
  5
26B3
  8
HEATSINK
 10
3.144986575272291
 20
21.636233753186868
 30
0.0
 11
3.144986575272291
 21
21.26823375318688
 31
0.0
  0
LINE
  5
26B4
  8
HEATSINK
 10
7.4449865752722877
 20
21.636233753186868
 30
0.0
 11
7.4449865752722877
 21
21.76823375318687
 31
0.0
  0
LINE
  5
26B5
  8
HEATSINK
 10
2.6949865752722881
 20
21.636233753186879
 30
0.0
 11
2.6949865752722881
 21
21.76823375318688
 31
0.0
  0
LINE
  5
26B6
  8
HEATSINK
 10
2.6949865752722881
 20
21.636233753186879
 30
0.0
 11
3.0949865752722872
 21
21.636233753186879
 31
0.0
  0
LINE
  5
26B7
  8
HEATSINK
 10
7.1192846525549021
 20
21.636233753186868
 30
0.0
 11
7.1192846525549021
 21
21.610652169274541
 31
0.0
  0
LINE
  5
26B8
  8
HEATSINK
 10
7.3086884979896629
 20
21.636233753186868
 30
0.0
 11
7.3086884979896629
 21
21.610652169274541
 31
0.0
  0
LINE
  5
26B9
  8
HEATSINK
 10
7.1939865752722829
 20
21.57388386694387
 30
0.0
 11
7.1939865752722829
 21
21.596233753186869
 31
0.0
  0
ARC
  5
26BA
  8
HEATSINK
 10
7.2141799348275484
 20
21.70918044379259
 30
0.0
 40
0.1367952319238812
 50
226.07603568712489
 51
261.51112214232319
  0
ARC
  5
26BB
  8
HEATSINK
 10
7.2137932157170184
 20
21.70918044379259
 30
0.0
 40
0.1367952319238812
 50
278.4888778576767
 51
313.923964312875
  0
LINE
  5
26BC
  8
HEATSINK
 10
7.2339865752722821
 20
21.57388386694387
 30
0.0
 11
7.2339865752722821
 21
21.596233753186869
 31
0.0
  0
LINE
  5
26BD
  8
HEATSINK
 10
7.2339865752722821
 20
21.596233753186869
 30
0.0
 11
7.1939865752722829
 21
21.596233753186869
 31
0.0
  0
LINE
  5
26BE
  8
HEATSINK
 10
3.0206884979896742
 20
21.636233753186879
 30
0.0
 11
3.0206884979896742
 21
21.610652169274559
 31
0.0
  0
ARC
  5
26BF
  8
HEATSINK
 10
2.9257932157170208
 20
21.709180443792601
 30
0.0
 40
0.1367952319238812
 50
278.4888778576767
 51
313.923964312875
  0
LINE
  5
26C0
  8
HEATSINK
 10
2.9459865752722858
 20
21.573883866943891
 30
0.0
 11
2.9459865752722858
 21
21.59623375318688
 31
0.0
  0
LINE
  5
26C1
  8
HEATSINK
 10
2.9059865752722871
 20
21.59623375318688
 30
0.0
 11
2.9459865752722858
 21
21.59623375318688
 31
0.0
  0
LINE
  5
26C2
  8
HEATSINK
 10
2.9059865752722871
 20
21.573883866943891
 30
0.0
 11
2.9059865752722871
 21
21.59623375318688
 31
0.0
  0
ARC
  5
26C3
  8
HEATSINK
 10
2.9261799348275579
 20
21.709180443792601
 30
0.0
 40
0.1367952319238812
 50
226.07603568712489
 51
261.51112214232342
  0
LINE
  5
26C4
  8
HEATSINK
 10
2.8312846525549058
 20
21.636233753186879
 30
0.0
 11
2.8312846525549058
 21
21.610652169274559
 31
0.0
  0
LINE
  5
26C5
  8
HEATSINK
 10
2.6949865752722881
 20
21.76823375318688
 30
0.0
 11
7.4449865752722877
 21
21.76823375318688
 31
0.0
  0
DIMENSION
  5
26C6
  8
DIMENSIONS
  2
*D32
 10
8.5750339253499952
 20
21.26823375318688
 30
0.0
 11
8.5750339253499916
 21
21.48122563992737
 31
0.0
 70
   128
 13
7.7199865752722872
 23
21.76823375318687
 33
0.0
 14
7.0449865752722891
 24
21.26823375318688
 34
0.0
 50
90.0
  0
LINE
  5
26D7
  8
HEATSINK
 10
9.4843163769538563
 20
21.76823375318688
 30
0.0
 11
12.73431637695386
 21
21.76823375318688
 31
0.0
  0
LINE
  5
26D8
  8
HEATSINK
 10
12.73431637695386
 20
21.76823375318688
 30
0.0
 11
12.73431637695386
 21
21.26823375318688
 31
0.0
  0
LINE
  5
26D9
  8
HEATSINK
 10
9.4843163769538563
 20
21.76823375318688
 30
0.0
 11
9.4843163769538563
 21
21.26823375318688
 31
0.0
  0
LINE
  5
26DA
  8
HEATSINK
 10
9.4843163769538563
 20
21.636233753186879
 30
0.0
 11
12.73431637695386
 21
21.63623375318689
 31
0.0
  0
LINE
  5
26DB
  8
HEATSINK
 10
9.4843163769538563
 20
21.26823375318688
 30
0.0
 11
12.73431637695386
 21
21.26823375318688
 31
0.0
  0
LINE
  5
26DC
  8
HEATSINK
 10
9.5146144542364723
 20
21.636233753186879
 30
0.0
 11
9.5146144542364723
 21
21.610652169274559
 31
0.0
  0
ARC
  5
26DD
  8
HEATSINK
 10
9.6095097365091249
 20
21.709180443792601
 30
0.0
 40
0.1367952319238812
 50
226.07603568712511
 51
261.5111221423233
  0
LINE
  5
26DE
  8
HEATSINK
 10
9.5893163769538603
 20
21.573883866943891
 30
0.0
 11
9.5893163769538603
 21
21.59623375318688
 31
0.0
  0
LINE
  5
26DF
  8
HEATSINK
 10
9.6293163769538594
 20
21.59623375318688
 30
0.0
 11
9.5893163769538603
 21
21.59623375318688
 31
0.0
  0
LINE
  5
26E0
  8
HEATSINK
 10
9.6293163769538594
 20
21.573883866943891
 30
0.0
 11
9.6293163769538594
 21
21.59623375318688
 31
0.0
  0
ARC
  5
26E1
  8
HEATSINK
 10
9.6091230173985878
 20
21.709180443792601
 30
0.0
 40
0.1367952319238812
 50
278.4888778576767
 51
313.92396431287511
  0
LINE
  5
26E2
  8
HEATSINK
 10
9.7040182996712403
 20
21.636233753186879
 30
0.0
 11
9.7040182996712403
 21
21.610652169274559
 31
0.0
  0
LINE
  5
26E3
  8
HEATSINK
 10
12.514614454236471
 20
21.636233753186879
 30
0.0
 11
12.514614454236471
 21
21.610652169274559
 31
0.0
  0
ARC
  5
26E4
  8
HEATSINK
 10
12.60950973650912
 20
21.709180443792601
 30
0.0
 40
0.1367952319238812
 50
226.07603568712489
 51
261.51112214232342
  0
LINE
  5
26E5
  8
HEATSINK
 10
12.58931637695385
 20
21.573883866943891
 30
0.0
 11
12.58931637695385
 21
21.59623375318688
 31
0.0
  0
LINE
  5
26E6
  8
HEATSINK
 10
12.58931637695385
 20
21.59623375318688
 30
0.0
 11
12.629316376953851
 21
21.59623375318688
 31
0.0
  0
LINE
  5
26E7
  8
HEATSINK
 10
12.629316376953851
 20
21.573883866943891
 30
0.0
 11
12.629316376953851
 21
21.59623375318688
 31
0.0
  0
ARC
  5
26E8
  8
HEATSINK
 10
12.60912301739859
 20
21.709180443792601
 30
0.0
 40
0.1367952319238812
 50
278.4888778576767
 51
313.92396431287489
  0
LINE
  5
26E9
  8
HEATSINK
 10
12.70401829967124
 20
21.636233753186879
 30
0.0
 11
12.70401829967124
 21
21.610652169274559
 31
0.0
  0
LINE
  5
2907
  8
CONVERTER
 10
2.3199865752722881
 20
22.627233753186871
 30
0.0
 11
7.8199865752722877
 21
22.627233753186871
 31
0.0
  0
LINE
  5
2908
  8
CONVERTER
 10
0.7806567735907209
 20
22.627233753186871
 30
0.0
 11
-2.7193432264092792
 21
22.627233753186871
 31
0.0
  0
LINE
  5
2909
  8
CONVERTER
 10
9.3593163769538563
 20
22.627233753186871
 30
0.0
 11
12.859316376953849
 21
22.627233753186871
 31
0.0
  0
LINE
  5
290A
  8
CONVERTER
 10
17.934102527563891
 20
22.627233753186871
 30
0.0
 11
14.434102527563891
 21
22.627233753186871
 31
0.0
  0
LINE
  5
290B
  8
CONVERTER
 10
26.512762130927019
 20
22.627233753186871
 30
0.0
 11
30.012762130927019
 21
22.627233753186871
 31
0.0
  0
LINE
  5
290C
  8
CONVERTER
 10
19.473432329245451
 20
22.627233753186871
 30
0.0
 11
24.973432329245458
 21
22.627233753186871
 31
0.0
  0
LINE
  5
291F
  8
TERMINAL_BLOCKS
 10
24.170512886336279
 20
29.60615477120086
 30
0.0
 11
24.170512886336279
 21
29.289006665126941
 31
0.0
  0
LINE
  5
2920
  8
TERMINAL_BLOCKS
 10
24.870512886336279
 20
29.60615477120086
 30
0.0
 11
24.870512886336279
 21
29.289006665126941
 31
0.0
  0
ARC
  5
2927
  8
TERMINAL_BLOCKS
 10
24.113012886336278
 20
29.25900666512694
 30
0.0
 40
0.0299999999999976
 50
90.0
 51
270.0
  0
ARC
  5
2928
  8
TERMINAL_BLOCKS
 10
24.92801288633628
 20
29.25900666512694
 30
0.0
 40
0.0299999999999976
 50
270.0
 51
90.0
  0
LINE
  5
2929
  8
TERMINAL_BLOCKS
 10
24.92801288633628
 20
28.914006665126941
 30
0.0
 11
24.113012886336278
 21
28.914006665126941
 31
0.0
  0
LINE
  5
292A
  8
TERMINAL_BLOCKS
 10
24.92801288633628
 20
28.854006665126938
 30
0.0
 11
24.113012886336278
 21
28.854006665126938
 31
0.0
  0
ARC
  5
292B
  8
TERMINAL_BLOCKS
 10
24.113012886336278
 20
28.88400666512694
 30
0.0
 40
0.0299999999999976
 50
90.0
 51
270.0
  0
ARC
  5
292C
  8
TERMINAL_BLOCKS
 10
24.92801288633628
 20
28.88400666512694
 30
0.0
 40
0.0299999999999976
 50
270.0
 51
90.0
  0
LINE
  5
292D
  8
TERMINAL_BLOCKS
 10
24.92801288633628
 20
28.539006665126941
 30
0.0
 11
24.113012886336278
 21
28.539006665126941
 31
0.0
  0
LINE
  5
292E
  8
TERMINAL_BLOCKS
 10
24.92801288633628
 20
28.479006665126938
 30
0.0
 11
24.113012886336278
 21
28.479006665126949
 31
0.0
  0
ARC
  5
292F
  8
TERMINAL_BLOCKS
 10
24.113012886336278
 20
28.50900666512694
 30
0.0
 40
0.0299999999999976
 50
90.0
 51
270.0
  0
ARC
  5
2930
  8
TERMINAL_BLOCKS
 10
24.92801288633628
 20
28.50900666512694
 30
0.0
 40
0.0299999999999976
 50
270.0
 51
90.0
  0
LINE
  5
2931
  8
TERMINAL_BLOCKS
 10
24.92801288633628
 20
28.164006665126941
 30
0.0
 11
24.113012886336278
 21
28.164006665126941
 31
0.0
  0
LINE
  5
2932
  8
TERMINAL_BLOCKS
 10
24.92801288633628
 20
28.104006665126938
 30
0.0
 11
24.113012886336278
 21
28.104006665126949
 31
0.0
  0
ARC
  5
2933
  8
TERMINAL_BLOCKS
 10
24.113012886336278
 20
28.13400666512694
 30
0.0
 40
0.0299999999999976
 50
90.0
 51
270.0
  0
ARC
  5
2934
  8
TERMINAL_BLOCKS
 10
24.92801288633628
 20
28.13400666512694
 30
0.0
 40
0.0299999999999976
 50
270.0
 51
90.0
  0
LINE
  5
2935
  8
TERMINAL_BLOCKS
 10
24.92801288633628
 20
27.789006665126941
 30
0.0
 11
24.113012886336278
 21
27.789006665126941
 31
0.0
  0
LINE
  5
2936
  8
TERMINAL_BLOCKS
 10
24.92801288633628
 20
27.729006665126949
 30
0.0
 11
24.113012886336278
 21
27.729006665126949
 31
0.0
  0
ARC
  5
2937
  8
TERMINAL_BLOCKS
 10
24.113012886336278
 20
27.75900666512694
 30
0.0
 40
0.0299999999999976
 50
90.0
 51
270.0
  0
ARC
  5
2938
  8
TERMINAL_BLOCKS
 10
24.92801288633628
 20
27.75900666512694
 30
0.0
 40
0.0299999999999976
 50
270.0
 51
90.0
  0
LINE
  5
2939
  8
TERMINAL_BLOCKS
 10
24.92801288633628
 20
27.414006665126941
 30
0.0
 11
24.113012886336278
 21
27.414006665126941
 31
0.0
  0
LINE
  5
293A
  8
TERMINAL_BLOCKS
 10
24.92801288633628
 20
27.354006665126938
 30
0.0
 11
24.113012886336278
 21
27.354006665126949
 31
0.0
  0
ARC
  5
293B
  8
TERMINAL_BLOCKS
 10
24.113012886336278
 20
27.38400666512694
 30
0.0
 40
0.0299999999999976
 50
90.0
 51
270.0
  0
ARC
  5
293C
  8
TERMINAL_BLOCKS
 10
24.92801288633628
 20
27.38400666512694
 30
0.0
 40
0.0299999999999976
 50
270.0
 51
90.0
  0
LINE
  5
293D
  8
TERMINAL_BLOCKS
 10
24.92801288633628
 20
27.039006665126941
 30
0.0
 11
24.113012886336278
 21
27.039006665126941
 31
0.0
  0
LINE
  5
293E
  8
TERMINAL_BLOCKS
 10
24.92801288633628
 20
26.979006665126949
 30
0.0
 11
24.113012886336278
 21
26.979006665126949
 31
0.0
  0
ARC
  5
293F
  8
TERMINAL_BLOCKS
 10
24.113012886336278
 20
27.00900666512694
 30
0.0
 40
0.0299999999999976
 50
90.0
 51
270.0
  0
ARC
  5
2940
  8
TERMINAL_BLOCKS
 10
24.92801288633628
 20
27.00900666512694
 30
0.0
 40
0.0299999999999976
 50
270.0
 51
90.0
  0
LINE
  5
2941
  8
TERMINAL_BLOCKS
 10
24.92801288633628
 20
26.664006665126941
 30
0.0
 11
24.113012886336278
 21
26.664006665126941
 31
0.0
  0
LINE
  5
2942
  8
TERMINAL_BLOCKS
 10
24.92801288633628
 20
26.604006665126938
 30
0.0
 11
24.113012886336278
 21
26.604006665126949
 31
0.0
  0
ARC
  5
2943
  8
TERMINAL_BLOCKS
 10
24.113012886336278
 20
26.63400666512694
 30
0.0
 40
0.0299999999999976
 50
90.0
 51
270.0
  0
ARC
  5
2944
  8
TERMINAL_BLOCKS
 10
24.92801288633628
 20
26.63400666512694
 30
0.0
 40
0.0299999999999976
 50
270.0
 51
90.0
  0
LINE
  5
2946
  8
TERMINAL_BLOCKS
 10
24.22051288633628
 20
29.229006665126938
 30
0.0
 11
24.22051288633628
 21
28.914006665126941
 31
0.0
  0
LINE
  5
2947
  8
TERMINAL_BLOCKS
 10
24.820512886336282
 20
29.229006665126949
 30
0.0
 11
24.820512886336282
 21
28.914006665126951
 31
0.0
  0
ARC
  5
2992
  8
CONVERTER
 10
24.693432329245461
 20
26.486154771200869
 30
0.0
 40
0.28
 50
270.0
 51
0.0
  0
ARC
  5
2995
  8
CONVERTER
 10
19.753432329245449
 20
26.486154771200869
 30
0.0
 40
0.28
 50
180.0
 51
270.0
  0
ARC
  5
2996
  8
CONVERTER
 10
19.753432329245449
 20
29.426154771200871
 30
0.0
 40
0.28
 50
90.0
 51
180.0
  0
ARC
  5
2997
  8
CONVERTER
 10
24.693432329245461
 20
29.426154771200871
 30
0.0
 40
0.28
 50
0.0
 51
90.0
  0
ARC
  5
2998
  8
CONVERTER
 10
7.5399865752722883
 20
26.486154771200869
 30
0.0
 40
0.28
 50
270.0
 51
0.0
  0
ARC
  5
2999
  8
CONVERTER
 10
2.5999865752722879
 20
26.486154771200869
 30
0.0
 40
0.28
 50
180.0
 51
270.0
  0
ARC
  5
299A
  8
CONVERTER
 10
2.5999865752722879
 20
29.426154771200871
 30
0.0
 40
0.28
 50
90.0
 51
180.0
  0
ARC
  5
29BC
  8
CONVERTER
 10
7.5399865752722883
 20
29.426154771200871
 30
0.0
 40
0.28
 50
0.0
 51
90.0
  0
LINE
  5
2A0B
  8
TERMINAL_BLOCKS
 10
24.170512886336279
 20
29.229006665126981
 30
0.0
 11
24.170512886336279
 21
28.914006665126969
 31
0.0
  0
LINE
  5
2A0C
  8
TERMINAL_BLOCKS
 10
24.870512886336279
 20
29.229006665126938
 30
0.0
 11
24.870512886336279
 21
28.91400666512693
 31
0.0
  0
LINE
  5
2A1D
  8
TERMINAL_BLOCKS
 10
24.820512886336282
 20
29.60615477120086
 30
0.0
 11
24.820512886336282
 21
29.289006665126941
 31
0.0
  0
LINE
  5
2A1E
  8
TERMINAL_BLOCKS
 10
24.22051288633628
 20
29.60615477120086
 30
0.0
 11
24.22051288633628
 21
29.289006665126941
 31
0.0
  0
LINE
  5
2A29
  8
TERMINAL_BLOCKS
 10
24.22051288633628
 20
28.854006665126938
 30
0.0
 11
24.22051288633628
 21
28.539006665126941
 31
0.0
  0
LINE
  5
2A2A
  8
TERMINAL_BLOCKS
 10
24.820512886336282
 20
28.854006665126949
 30
0.0
 11
24.820512886336282
 21
28.539006665126951
 31
0.0
  0
LINE
  5
2A2B
  8
TERMINAL_BLOCKS
 10
24.170512886336279
 20
28.854006665126981
 30
0.0
 11
24.170512886336279
 21
28.539006665126969
 31
0.0
  0
LINE
  5
2A2C
  8
TERMINAL_BLOCKS
 10
24.870512886336279
 20
28.854006665126938
 30
0.0
 11
24.870512886336279
 21
28.53900666512693
 31
0.0
  0
LINE
  5
2A2D
  8
TERMINAL_BLOCKS
 10
24.22051288633628
 20
28.479006665126949
 30
0.0
 11
24.22051288633628
 21
28.164006665126941
 31
0.0
  0
LINE
  5
2A2E
  8
TERMINAL_BLOCKS
 10
24.820512886336282
 20
28.479006665126949
 30
0.0
 11
24.820512886336282
 21
28.164006665126951
 31
0.0
  0
LINE
  5
2A2F
  8
TERMINAL_BLOCKS
 10
24.170512886336279
 20
28.479006665126981
 30
0.0
 11
24.170512886336279
 21
28.164006665126969
 31
0.0
  0
LINE
  5
2A30
  8
TERMINAL_BLOCKS
 10
24.870512886336279
 20
28.479006665126938
 30
0.0
 11
24.870512886336279
 21
28.164006665126941
 31
0.0
  0
LINE
  5
2A31
  8
TERMINAL_BLOCKS
 10
24.22051288633628
 20
28.104006665126949
 30
0.0
 11
24.22051288633628
 21
27.789006665126941
 31
0.0
  0
LINE
  5
2A32
  8
TERMINAL_BLOCKS
 10
24.820512886336282
 20
28.104006665126949
 30
0.0
 11
24.820512886336282
 21
27.789006665126951
 31
0.0
  0
LINE
  5
2A33
  8
TERMINAL_BLOCKS
 10
24.170512886336279
 20
28.104006665126981
 30
0.0
 11
24.170512886336279
 21
27.78900666512698
 31
0.0
  0
LINE
  5
2A34
  8
TERMINAL_BLOCKS
 10
24.870512886336279
 20
28.104006665126938
 30
0.0
 11
24.870512886336279
 21
27.789006665126941
 31
0.0
  0
LINE
  5
2A35
  8
TERMINAL_BLOCKS
 10
24.22051288633628
 20
27.729006665126949
 30
0.0
 11
24.22051288633628
 21
27.414006665126941
 31
0.0
  0
LINE
  5
2A36
  8
TERMINAL_BLOCKS
 10
24.820512886336282
 20
27.72900666512696
 30
0.0
 11
24.820512886336282
 21
27.414006665126951
 31
0.0
  0
LINE
  5
2A37
  8
TERMINAL_BLOCKS
 10
24.170512886336279
 20
27.729006665126981
 30
0.0
 11
24.170512886336279
 21
27.41400666512698
 31
0.0
  0
LINE
  5
2A38
  8
TERMINAL_BLOCKS
 10
24.870512886336279
 20
27.729006665126938
 30
0.0
 11
24.870512886336279
 21
27.414006665126941
 31
0.0
  0
LINE
  5
2A39
  8
TERMINAL_BLOCKS
 10
24.22051288633628
 20
27.354006665126949
 30
0.0
 11
24.22051288633628
 21
27.039006665126941
 31
0.0
  0
LINE
  5
2A3A
  8
TERMINAL_BLOCKS
 10
24.820512886336282
 20
27.354006665126949
 30
0.0
 11
24.820512886336282
 21
27.039006665126951
 31
0.0
  0
LINE
  5
2A3B
  8
TERMINAL_BLOCKS
 10
24.170512886336279
 20
27.354006665126981
 30
0.0
 11
24.170512886336279
 21
27.039006665126969
 31
0.0
  0
LINE
  5
2A3C
  8
TERMINAL_BLOCKS
 10
24.870512886336279
 20
27.354006665126938
 30
0.0
 11
24.870512886336279
 21
27.03900666512693
 31
0.0
  0
LINE
  5
2A3D
  8
TERMINAL_BLOCKS
 10
24.22051288633628
 20
26.979006665126949
 30
0.0
 11
24.22051288633628
 21
26.664006665126941
 31
0.0
  0
LINE
  5
2A3E
  8
TERMINAL_BLOCKS
 10
24.820512886336282
 20
26.979006665126949
 30
0.0
 11
24.820512886336282
 21
26.664006665126951
 31
0.0
  0
LINE
  5
2A3F
  8
TERMINAL_BLOCKS
 10
24.170512886336279
 20
26.979006665126981
 30
0.0
 11
24.170512886336279
 21
26.664006665126969
 31
0.0
  0
LINE
  5
2A40
  8
TERMINAL_BLOCKS
 10
24.870512886336279
 20
26.979006665126938
 30
0.0
 11
24.870512886336279
 21
26.66400666512693
 31
0.0
  0
LINE
  5
2A41
  8
TERMINAL_BLOCKS
 10
24.170512886336279
 20
26.604006665126949
 30
0.0
 11
24.170512886336279
 21
26.286858559053019
 31
0.0
  0
LINE
  5
2A42
  8
TERMINAL_BLOCKS
 10
24.870512886336279
 20
26.604006665126938
 30
0.0
 11
24.870512886336279
 21
26.286858559053019
 31
0.0
  0
LINE
  5
2A43
  8
TERMINAL_BLOCKS
 10
24.820512886336282
 20
26.604006665126938
 30
0.0
 11
24.820512886336282
 21
26.286858559053019
 31
0.0
  0
LINE
  5
2A44
  8
TERMINAL_BLOCKS
 10
24.22051288633628
 20
26.604006665126949
 30
0.0
 11
24.22051288633628
 21
26.28685855905303
 31
0.0
  0
LINE
  5
2A45
  8
TERMINAL_BLOCKS
 10
24.170512886336279
 20
26.286858559053019
 30
0.0
 11
24.870512886336279
 21
26.286858559053019
 31
0.0
  0
LINE
  5
2A46
  8
TERMINAL_BLOCKS
 10
19.570512886336282
 20
29.60615477120086
 30
0.0
 11
20.270512886336292
 21
29.60615477120086
 31
0.0
  0
LINE
  5
2A47
  8
TERMINAL_BLOCKS
 10
20.328012886336289
 20
29.289006665126941
 30
0.0
 11
19.513012886336281
 21
29.289006665126941
 31
0.0
  0
LINE
  5
2A48
  8
TERMINAL_BLOCKS
 10
20.328012886336289
 20
29.229006665126938
 30
0.0
 11
19.513012886336281
 21
29.229006665126938
 31
0.0
  0
LINE
  5
2A49
  8
TERMINAL_BLOCKS
 10
19.570512886336282
 20
29.60615477120086
 30
0.0
 11
19.570512886336282
 21
29.289006665126941
 31
0.0
  0
LINE
  5
2A4A
  8
TERMINAL_BLOCKS
 10
20.270512886336292
 20
29.60615477120086
 30
0.0
 11
20.270512886336292
 21
29.289006665126941
 31
0.0
  0
ARC
  5
2A4B
  8
TERMINAL_BLOCKS
 10
19.513012886336281
 20
29.25900666512694
 30
0.0
 40
0.0299999999999976
 50
90.0
 51
270.0
  0
ARC
  5
2A4C
  8
TERMINAL_BLOCKS
 10
20.328012886336289
 20
29.25900666512694
 30
0.0
 40
0.0299999999999976
 50
270.0
 51
90.0
  0
LINE
  5
2A4D
  8
TERMINAL_BLOCKS
 10
20.328012886336289
 20
28.914006665126941
 30
0.0
 11
19.513012886336281
 21
28.914006665126941
 31
0.0
  0
LINE
  5
2A4E
  8
TERMINAL_BLOCKS
 10
20.328012886336289
 20
28.854006665126938
 30
0.0
 11
19.513012886336281
 21
28.854006665126938
 31
0.0
  0
ARC
  5
2A4F
  8
TERMINAL_BLOCKS
 10
19.513012886336281
 20
28.88400666512694
 30
0.0
 40
0.0299999999999976
 50
90.0
 51
270.0
  0
ARC
  5
2A50
  8
TERMINAL_BLOCKS
 10
20.328012886336289
 20
28.88400666512694
 30
0.0
 40
0.0299999999999976
 50
270.0
 51
90.0
  0
LINE
  5
2A51
  8
TERMINAL_BLOCKS
 10
20.328012886336289
 20
28.539006665126941
 30
0.0
 11
19.513012886336281
 21
28.539006665126941
 31
0.0
  0
LINE
  5
2A52
  8
TERMINAL_BLOCKS
 10
20.328012886336289
 20
28.479006665126938
 30
0.0
 11
19.513012886336281
 21
28.479006665126949
 31
0.0
  0
ARC
  5
2A53
  8
TERMINAL_BLOCKS
 10
19.513012886336281
 20
28.50900666512694
 30
0.0
 40
0.0299999999999976
 50
90.0
 51
270.0
  0
ARC
  5
2A54
  8
TERMINAL_BLOCKS
 10
20.328012886336289
 20
28.50900666512694
 30
0.0
 40
0.0299999999999976
 50
270.0
 51
90.0
  0
LINE
  5
2A55
  8
TERMINAL_BLOCKS
 10
20.328012886336289
 20
28.164006665126941
 30
0.0
 11
19.513012886336281
 21
28.164006665126941
 31
0.0
  0
LINE
  5
2A56
  8
TERMINAL_BLOCKS
 10
20.328012886336289
 20
28.104006665126938
 30
0.0
 11
19.513012886336281
 21
28.104006665126949
 31
0.0
  0
ARC
  5
2A57
  8
TERMINAL_BLOCKS
 10
19.513012886336281
 20
28.13400666512694
 30
0.0
 40
0.0299999999999976
 50
90.0
 51
270.0
  0
ARC
  5
2A58
  8
TERMINAL_BLOCKS
 10
20.328012886336289
 20
28.13400666512694
 30
0.0
 40
0.0299999999999976
 50
270.0
 51
90.0
  0
LINE
  5
2A59
  8
TERMINAL_BLOCKS
 10
20.328012886336289
 20
27.789006665126941
 30
0.0
 11
19.513012886336281
 21
27.789006665126941
 31
0.0
  0
LINE
  5
2A5A
  8
TERMINAL_BLOCKS
 10
20.328012886336289
 20
27.729006665126949
 30
0.0
 11
19.513012886336281
 21
27.729006665126949
 31
0.0
  0
ARC
  5
2A5B
  8
TERMINAL_BLOCKS
 10
19.513012886336281
 20
27.75900666512694
 30
0.0
 40
0.0299999999999976
 50
90.0
 51
270.0
  0
ARC
  5
2A5C
  8
TERMINAL_BLOCKS
 10
20.328012886336289
 20
27.75900666512694
 30
0.0
 40
0.0299999999999976
 50
270.0
 51
90.0
  0
LINE
  5
2A5D
  8
TERMINAL_BLOCKS
 10
20.328012886336289
 20
27.414006665126941
 30
0.0
 11
19.513012886336281
 21
27.414006665126941
 31
0.0
  0
LINE
  5
2A5E
  8
TERMINAL_BLOCKS
 10
20.328012886336289
 20
27.354006665126938
 30
0.0
 11
19.513012886336281
 21
27.354006665126949
 31
0.0
  0
ARC
  5
2A5F
  8
TERMINAL_BLOCKS
 10
19.513012886336281
 20
27.38400666512694
 30
0.0
 40
0.0299999999999976
 50
90.0
 51
270.0
  0
ARC
  5
2A60
  8
TERMINAL_BLOCKS
 10
20.328012886336289
 20
27.38400666512694
 30
0.0
 40
0.0299999999999976
 50
270.0
 51
90.0
  0
LINE
  5
2A61
  8
TERMINAL_BLOCKS
 10
20.328012886336289
 20
27.039006665126941
 30
0.0
 11
19.513012886336281
 21
27.039006665126941
 31
0.0
  0
LINE
  5
2A62
  8
TERMINAL_BLOCKS
 10
20.328012886336289
 20
26.979006665126949
 30
0.0
 11
19.513012886336281
 21
26.979006665126949
 31
0.0
  0
ARC
  5
2A63
  8
TERMINAL_BLOCKS
 10
19.513012886336281
 20
27.00900666512694
 30
0.0
 40
0.0299999999999976
 50
90.0
 51
270.0
  0
ARC
  5
2A64
  8
TERMINAL_BLOCKS
 10
20.328012886336289
 20
27.00900666512694
 30
0.0
 40
0.0299999999999976
 50
270.0
 51
90.0
  0
LINE
  5
2A65
  8
TERMINAL_BLOCKS
 10
20.328012886336289
 20
26.664006665126941
 30
0.0
 11
19.513012886336281
 21
26.664006665126941
 31
0.0
  0
LINE
  5
2A66
  8
TERMINAL_BLOCKS
 10
20.328012886336289
 20
26.604006665126938
 30
0.0
 11
19.513012886336281
 21
26.604006665126949
 31
0.0
  0
ARC
  5
2A67
  8
TERMINAL_BLOCKS
 10
19.513012886336281
 20
26.63400666512694
 30
0.0
 40
0.0299999999999976
 50
90.0
 51
270.0
  0
ARC
  5
2A68
  8
TERMINAL_BLOCKS
 10
20.328012886336289
 20
26.63400666512694
 30
0.0
 40
0.0299999999999976
 50
270.0
 51
90.0
  0
LINE
  5
2A69
  8
TERMINAL_BLOCKS
 10
19.620512886336279
 20
29.229006665126938
 30
0.0
 11
19.620512886336279
 21
28.914006665126941
 31
0.0
  0
LINE
  5
2A6A
  8
TERMINAL_BLOCKS
 10
20.22051288633628
 20
29.229006665126949
 30
0.0
 11
20.22051288633628
 21
28.914006665126951
 31
0.0
  0
LINE
  5
2A6B
  8
TERMINAL_BLOCKS
 10
19.570512886336282
 20
29.229006665126981
 30
0.0
 11
19.570512886336282
 21
28.914006665126969
 31
0.0
  0
LINE
  5
2A6C
  8
TERMINAL_BLOCKS
 10
20.270512886336292
 20
29.229006665126938
 30
0.0
 11
20.270512886336292
 21
28.91400666512693
 31
0.0
  0
LINE
  5
2A6D
  8
TERMINAL_BLOCKS
 10
20.22051288633628
 20
29.60615477120086
 30
0.0
 11
20.22051288633628
 21
29.289006665126941
 31
0.0
  0
LINE
  5
2A6E
  8
TERMINAL_BLOCKS
 10
19.620512886336279
 20
29.60615477120086
 30
0.0
 11
19.620512886336279
 21
29.289006665126941
 31
0.0
  0
LINE
  5
2A6F
  8
TERMINAL_BLOCKS
 10
19.620512886336279
 20
28.854006665126938
 30
0.0
 11
19.620512886336279
 21
28.539006665126941
 31
0.0
  0
LINE
  5
2A70
  8
TERMINAL_BLOCKS
 10
20.22051288633628
 20
28.854006665126949
 30
0.0
 11
20.22051288633628
 21
28.539006665126951
 31
0.0
  0
LINE
  5
2A71
  8
TERMINAL_BLOCKS
 10
19.570512886336282
 20
28.854006665126981
 30
0.0
 11
19.570512886336282
 21
28.539006665126969
 31
0.0
  0
LINE
  5
2A72
  8
TERMINAL_BLOCKS
 10
20.270512886336292
 20
28.854006665126938
 30
0.0
 11
20.270512886336292
 21
28.53900666512693
 31
0.0
  0
LINE
  5
2A73
  8
TERMINAL_BLOCKS
 10
19.620512886336279
 20
28.479006665126949
 30
0.0
 11
19.620512886336279
 21
28.164006665126941
 31
0.0
  0
LINE
  5
2A74
  8
TERMINAL_BLOCKS
 10
20.22051288633628
 20
28.479006665126949
 30
0.0
 11
20.22051288633628
 21
28.164006665126951
 31
0.0
  0
LINE
  5
2A75
  8
TERMINAL_BLOCKS
 10
19.570512886336282
 20
28.479006665126981
 30
0.0
 11
19.570512886336282
 21
28.164006665126969
 31
0.0
  0
LINE
  5
2A76
  8
TERMINAL_BLOCKS
 10
20.270512886336292
 20
28.479006665126938
 30
0.0
 11
20.270512886336292
 21
28.164006665126941
 31
0.0
  0
LINE
  5
2A77
  8
TERMINAL_BLOCKS
 10
19.620512886336279
 20
28.104006665126949
 30
0.0
 11
19.620512886336279
 21
27.789006665126941
 31
0.0
  0
LINE
  5
2A78
  8
TERMINAL_BLOCKS
 10
20.22051288633628
 20
28.104006665126949
 30
0.0
 11
20.22051288633628
 21
27.789006665126951
 31
0.0
  0
LINE
  5
2A79
  8
TERMINAL_BLOCKS
 10
19.570512886336282
 20
28.104006665126981
 30
0.0
 11
19.570512886336282
 21
27.78900666512698
 31
0.0
  0
LINE
  5
2A7A
  8
TERMINAL_BLOCKS
 10
20.270512886336292
 20
28.104006665126938
 30
0.0
 11
20.270512886336292
 21
27.789006665126941
 31
0.0
  0
LINE
  5
2A7B
  8
TERMINAL_BLOCKS
 10
19.620512886336279
 20
27.729006665126949
 30
0.0
 11
19.620512886336279
 21
27.414006665126941
 31
0.0
  0
LINE
  5
2A7C
  8
TERMINAL_BLOCKS
 10
20.22051288633628
 20
27.72900666512696
 30
0.0
 11
20.22051288633628
 21
27.414006665126951
 31
0.0
  0
LINE
  5
2A7D
  8
TERMINAL_BLOCKS
 10
19.570512886336282
 20
27.729006665126981
 30
0.0
 11
19.570512886336282
 21
27.41400666512698
 31
0.0
  0
LINE
  5
2A7E
  8
TERMINAL_BLOCKS
 10
20.270512886336292
 20
27.729006665126938
 30
0.0
 11
20.270512886336292
 21
27.414006665126941
 31
0.0
  0
LINE
  5
2A7F
  8
TERMINAL_BLOCKS
 10
19.620512886336279
 20
27.354006665126949
 30
0.0
 11
19.620512886336279
 21
27.039006665126941
 31
0.0
  0
LINE
  5
2A80
  8
TERMINAL_BLOCKS
 10
20.22051288633628
 20
27.354006665126949
 30
0.0
 11
20.22051288633628
 21
27.039006665126951
 31
0.0
  0
LINE
  5
2A81
  8
TERMINAL_BLOCKS
 10
19.570512886336282
 20
27.354006665126981
 30
0.0
 11
19.570512886336282
 21
27.039006665126969
 31
0.0
  0
LINE
  5
2A82
  8
TERMINAL_BLOCKS
 10
20.270512886336292
 20
27.354006665126938
 30
0.0
 11
20.270512886336292
 21
27.03900666512693
 31
0.0
  0
LINE
  5
2A83
  8
TERMINAL_BLOCKS
 10
19.620512886336279
 20
26.979006665126949
 30
0.0
 11
19.620512886336279
 21
26.664006665126941
 31
0.0
  0
LINE
  5
2A84
  8
TERMINAL_BLOCKS
 10
20.22051288633628
 20
26.979006665126949
 30
0.0
 11
20.22051288633628
 21
26.664006665126951
 31
0.0
  0
LINE
  5
2A85
  8
TERMINAL_BLOCKS
 10
19.570512886336282
 20
26.979006665126981
 30
0.0
 11
19.570512886336282
 21
26.664006665126969
 31
0.0
  0
LINE
  5
2A86
  8
TERMINAL_BLOCKS
 10
20.270512886336292
 20
26.979006665126938
 30
0.0
 11
20.270512886336292
 21
26.66400666512693
 31
0.0
  0
LINE
  5
2A87
  8
TERMINAL_BLOCKS
 10
19.570512886336282
 20
26.604006665126949
 30
0.0
 11
19.570512886336282
 21
26.286858559053019
 31
0.0
  0
LINE
  5
2A88
  8
TERMINAL_BLOCKS
 10
20.270512886336292
 20
26.604006665126938
 30
0.0
 11
20.270512886336292
 21
26.286858559053019
 31
0.0
  0
LINE
  5
2A89
  8
TERMINAL_BLOCKS
 10
20.22051288633628
 20
26.604006665126938
 30
0.0
 11
20.22051288633628
 21
26.286858559053019
 31
0.0
  0
LINE
  5
2A8A
  8
TERMINAL_BLOCKS
 10
19.620512886336279
 20
26.604006665126949
 30
0.0
 11
19.620512886336279
 21
26.28685855905303
 31
0.0
  0
LINE
  5
2A8B
  8
TERMINAL_BLOCKS
 10
19.570512886336282
 20
26.286858559053019
 30
0.0
 11
20.270512886336292
 21
26.286858559053019
 31
0.0
  0
LINE
  5
2AC1
  8
TERMINAL_BLOCKS
 10
24.082976973325891
 20
23.133233753186872
 30
0.0
 11
24.082976973325891
 21
22.65823375318687
 31
0.0
  0
LINE
  5
2AC2
  8
TERMINAL_BLOCKS
 10
24.958351431992781
 20
23.133233753186872
 30
0.0
 11
24.958351431992781
 21
22.65823375318687
 31
0.0
  0
LINE
  5
2AC3
  8
TERMINAL_BLOCKS
 10
24.082976973325891
 20
23.133233753186872
 30
0.0
 11
24.958351431992781
 21
23.133233753186872
 31
0.0
  0
TEXT
  5
2AD7
  8
TOPSILK
 10
21.27206126716035
 20
26.57425845605788
 30
0.0
 40
0.1
  1
AMERICAN POWER DESIGN
 72
     1
 11
22.231830553389621
 21
26.57425845605788
 31
0.0
  0
TEXT
  5
2AD8
  8
TOPSILK
 10
21.504064184809021
 20
26.349841160492069
 30
0.0
 40
0.1
  1
www.apowerdesign.com
 72
     1
 11
22.238058416964751
 21
26.349841160492069
 31
0.0
  0
TEXT
  5
2AD9
  8
TOPSILK
 10
4.1186155131871791
 20
26.57425845605788
 30
0.0
 40
0.1
  1
AMERICAN POWER DESIGN
 72
     1
 11
5.078384799416451
 21
26.57425845605788
 31
0.0
  0
TEXT
  5
2ADA
  8
TOPSILK
 10
4.3506184308358531
 20
26.349841160492069
 30
0.0
 40
0.1
  1
www.apowerdesign.com
 72
     1
 11
5.0846126629915851
 21
26.349841160492069
 31
0.0
  0
INSERT
  5
2DFA
  8
DIMENSIONS
  2
*U106
 10
0.0
 20
0.0
 30
0.0
1001
ACAD
1000
DSTYLE
1002
{
1070
   147
1040
0.09
1070
    77
1070
     0
1002
}
  0
INSERT
  5
2DFB
  8
DIMENSIONS
  2
*U107
 10
0.0
 20
0.0
 30
0.0
  0
INSERT
  5
2DFC
  8
DIMENSIONS
  2
*U108
 10
0.0
 20
0.0
 30
0.0
  0
DIMENSION
  5
2E3F
  8
DIMENSIONS
  2
*D33
 10
0.8294456494846308
 20
29.456154771200868
 30
0.0
 11
0.8294456494846259
 21
27.994132319148999
 31
0.0
 70
   128
 53
90.0
 13
2.9199865752722891
 23
26.456154771200868
 33
0.0
 14
2.9199865752722891
 24
29.456154771200868
 34
0.0
 50
90.0
1001
ACAD
1000
DSTYLE
1002
{
1070
   271
1070
     3
1002
}
  0
DIMENSION
  5
2E59
  8
DIMENSIONS
  2
*D34
 10
0.3759610529212458
 20
29.706154771200868
 30
0.0
 11
0.3759610529212409
 21
27.992987743714639
 31
0.0
 70
   128
 53
90.0
 13
2.5999865752722879
 23
26.206154771200861
 33
0.0
 14
2.5999865752722879
 24
29.706154771200868
 34
0.0
 50
90.0
1001
ACAD
1000
DSTYLE
1002
{
1070
   271
1070
     3
1002
}
  0
DIMENSION
  5
2E9B
  8
DIMENSIONS
  2
*D35
 10
17.921352452948689
 20
29.456154771200868
 30
0.0
 11
17.921352452948678
 21
27.86524158146057
 31
0.0
 70
   128
 53
90.0
 13
19.773432329245459
 23
26.456154771200868
 33
0.0
 14
19.773432329245459
 24
29.456154771200868
 34
0.0
 50
90.0
1001
ACAD
1000
DSTYLE
1002
{
1070
   271
1070
     3
1002
}
  0
DIMENSION
  5
2EB5
  8
DIMENSIONS
  2
*D36
 10
17.450600162794551
 20
29.706154771200868
 30
0.0
 11
17.45060016279454
 21
27.86524158146057
 31
0.0
 70
   128
 53
90.0
 13
19.753432329245449
 23
26.206154771200861
 33
0.0
 14
19.753432329245449
 24
29.706154771200868
 34
0.0
 50
90.0
1001
ACAD
1000
DSTYLE
1002
{
1070
   271
1070
     3
1002
}
  0
DIMENSION
  5
3216
  8
DIMENSIONS
  2
*D37
 10
24.973432329245458
 20
31.445957757845289
 30
0.0
 11
21.942943757823439
 21
31.445957757845289
 31
0.0
 70
   128
 13
19.473432329245451
 23
29.426154771200871
 33
0.0
 14
24.973432329245458
 24
29.426154771200871
 34
0.0
  0
DIMENSION
  5
3230
  8
DIMENSIONS
  2
*D38
 10
8.5750339253499952
 20
22.65823375318687
 30
0.0
 11
8.5750339253499916
 21
22.206103665733899
 31
0.0
 70
   128
 13
7.7199865752722872
 23
21.76823375318687
 33
0.0
 14
7.8199865752722877
 24
22.65823375318687
 34
0.0
 50
90.0
  0
DIMENSION
  5
325E
  8
DIMENSIONS
  2
*D39
 10
25.728479679323161
 20
22.65823375318687
 30
0.0
 11
25.728479679323161
 21
22.230219935282811
 31
0.0
 70
   128
 13
24.87343232924545
 23
21.76823375318687
 33
0.0
 14
24.973432329245458
 24
22.65823375318687
 34
0.0
 50
90.0
  0
DIMENSION
  5
328C
  8
DIMENSIONS
  2
*D40
 10
24.37343232924546
 20
30.61437003473111
 30
0.0
 11
22.002928303029719
 21
30.61437003473111
 31
0.0
 70
   128
 13
20.073432329245449
 23
29.456154771200868
 33
0.0
 14
24.37343232924546
 24
29.456154771200868
 34
0.0
  0
DIMENSION
  5
32A6
  8
DIMENSIONS
  2
*D41
 10
24.67343232924545
 20
31.026272041475298
 30
0.0
 11
21.97756974474218
 21
31.026272041475298
 31
0.0
 70
   128
 13
19.773432329245459
 23
29.456154771200868
 33
0.0
 14
24.67343232924545
 24
29.456154771200868
 34
0.0
  0
DIMENSION
  5
32C0
  8
DIMENSIONS
  2
*D42
 10
19.773432329245459
 20
31.026272041475298
 30
0.0
 11
18.690615097810699
 21
31.026272041475298
 31
0.0
 70
   128
 13
19.473432329245451
 23
29.426154771200871
 33
0.0
 14
19.773432329245459
 24
29.456154771200868
 34
0.0
  0
INSERT
  5
3325
  8
DIMENSIONS
  2
*U132
 10
0.0
 20
0.0
 30
0.0
  0
INSERT
  5
3326
  8
DIMENSIONS
  2
*U133
 10
0.0
 20
0.0
 30
0.0
1001
ACAD
1000
DSTYLE
1002
{
1070
   147
1040
0.09
1070
    77
1070
     0
1002
}
  0
INSERT
  5
3327
  8
DIMENSIONS
  2
*U134
 10
0.0
 20
0.0
 30
0.0
  0
INSERT
  5
3328
  8
DIMENSIONS
  2
*U135
 10
0.0
 20
0.0
 30
0.0
1001
ACAD
1000
DSTYLE
1002
{
1070
   147
1040
0.09
1070
    77
1070
     0
1002
}
  0
INSERT
  5
3329
  8
DIMENSIONS
  2
*U136
 10
0.0
 20
0.0
 30
0.0
  0
INSERT
  5
332A
  8
DIMENSIONS
  2
*U137
 10
0.0
 20
0.0
 30
0.0
1001
ACAD
1000
DSTYLE
1002
{
1070
   147
1040
0.09
1070
    77
1070
     0
1002
}
  0
LINE
  5
33D2
  8
TERMINAL_BLOCKS
 10
19.973432329245451
 20
22.968233753186869
 30
0.0
 11
19.620512886336279
 21
22.968233753186869
 31
0.0
  0
LINE
  5
33D3
  8
TERMINAL_BLOCKS
 10
19.973432329245451
 20
22.968233753186869
 30
0.0
 11
20.22051288633628
 21
22.968233753186869
 31
0.0
  0
LINE
  5
33D4
  8
TERMINAL_BLOCKS
 10
19.620512886336279
 20
22.968233753186869
 30
0.0
 11
19.570512886336282
 21
22.65823375318687
 31
0.0
  0
LINE
  5
33D5
  8
TERMINAL_BLOCKS
 10
20.22051288633628
 20
22.968233753186869
 30
0.0
 11
20.270512886336292
 21
22.65823375318687
 31
0.0
  0
LINE
  5
33D6
  8
TERMINAL_BLOCKS
 10
24.820512886336282
 20
22.968233753186869
 30
0.0
 11
24.22051288633628
 21
22.968233753186869
 31
0.0
  0
LINE
  5
33D7
  8
TERMINAL_BLOCKS
 10
24.22051288633628
 20
22.968233753186869
 30
0.0
 11
24.170512886336279
 21
22.65823375318687
 31
0.0
  0
LINE
  5
33D8
  8
TERMINAL_BLOCKS
 10
24.820512886336282
 20
22.968233753186869
 30
0.0
 11
24.870512886336279
 21
22.65823375318687
 31
0.0
  0
INSERT
  5
33D9
  8
DIMENSIONS
  2
*U138
 10
0.0
 20
0.0
 30
0.0
1001
ACAD
1000
DSTYLE
1002
{
1070
   147
1040
0.09
1070
    77
1070
     0
1002
}
  0
INSERT
  5
33DA
  8
DIMENSIONS
  2
*U139
 10
0.0
 20
0.0
 30
0.0
  0
LINE
  5
33DB
  8
TERMINAL_BLOCKS
 10
24.39631592021659
 20
23.013802496605152
 30
0.0
 11
24.350747176798311
 21
23.013802496605152
 31
0.0
  0
LINE
  5
33DC
  8
TERMINAL_BLOCKS
 10
24.265645358069321
 20
22.968233753186869
 30
0.0
 11
24.265645358069321
 21
22.99737676902522
 31
0.0
  0
LINE
  5
33DD
  8
TERMINAL_BLOCKS
 10
24.39631592021659
 20
23.039263902396019
 30
0.0
 11
24.39631592021659
 21
23.013802496605152
 31
0.0
  0
LINE
  5
33DE
  8
TERMINAL_BLOCKS
 10
24.350747176798311
 20
23.039263902396019
 30
0.0
 11
24.350747176798311
 21
23.013802496605152
 31
0.0
  0
ARC
  5
33DF
  8
TERMINAL_BLOCKS
 10
24.373751827306481
 20
22.885131527501269
 30
0.0
 40
0.1558396706095573
 50
98.488877857676741
 51
133.92396431287511
  0
LINE
  5
33E0
  8
TERMINAL_BLOCKS
 10
24.481417738945581
 20
22.968233753186869
 30
0.0
 11
24.481417738945581
 21
22.99737676902522
 31
0.0
  0
ARC
  5
33E1
  8
TERMINAL_BLOCKS
 10
24.37331126970841
 20
22.885131527501269
 30
0.0
 40
0.1558396706095573
 50
46.076035687124858
 51
81.511122142323458
  0
LINE
  5
33E2
  8
TERMINAL_BLOCKS
 10
20.051324335664962
 20
23.013802496605152
 30
0.0
 11
20.09689307908323
 21
23.013802496605152
 31
0.0
  0
LINE
  5
33E3
  8
TERMINAL_BLOCKS
 10
20.181994897812221
 20
22.968233753186869
 30
0.0
 11
20.181994897812221
 21
22.99737676902522
 31
0.0
  0
LINE
  5
33E4
  8
TERMINAL_BLOCKS
 10
20.051324335664962
 20
23.039263902396019
 30
0.0
 11
20.051324335664962
 21
23.013802496605152
 31
0.0
  0
LINE
  5
33E5
  8
TERMINAL_BLOCKS
 10
20.09689307908323
 20
23.039263902396019
 30
0.0
 11
20.09689307908323
 21
23.013802496605152
 31
0.0
  0
ARC
  5
33E6
  8
TERMINAL_BLOCKS
 10
20.07388842857506
 20
22.885131527501269
 30
0.0
 40
0.1558396706095573
 50
46.076035687124708
 51
81.511122142323245
  0
LINE
  5
33E7
  8
TERMINAL_BLOCKS
 10
19.966222516935961
 20
22.968233753186869
 30
0.0
 11
19.966222516935961
 21
22.99737676902522
 31
0.0
  0
ARC
  5
33E8
  8
TERMINAL_BLOCKS
 10
20.074328986173128
 20
22.885131527501269
 30
0.0
 40
0.1558396706095573
 50
98.488877857676741
 51
133.92396431287531
  0
ENDSEC
  0
EOF
